#TITLE:Call Me Maybe (Happy Hardcore Remix);
#SUBTITLE:;
#ARTIST:Carly Rae Jepsen;
#TITLETRANSLIT:;
#SUBTITLETRANSLIT:;
#ARTISTTRANSLIT:;
#GENRE:;
#CREDIT:;
#BANNER:Call Me Maybe (Happy Hardcore Remix).png;
#BACKGROUND:Call Me Maybe (Happy Hardcore Remix)-bg.png;
#LYRICSPATH:;
#CDTITLE:.\CDTITLES\DDRMAX6.PNG;
#MUSIC:Call Me Maybe (Happy Hardcore Remix).ogg;
#OFFSET:-0.020;
#SAMPLESTART:56.480;
#SAMPLELENGTH:15.000;
#SELECTABLE:YES;
#DISPLAYBPM:170.000;
#BPMS:0.000=170.000;
#STOPS:;
#BGCHANGES:;
#KEYSOUNDS:;

//---------------dance-single - ----------------
#NOTES:
     dance-single:
     :
     Hard:
     8:
     0.476,0.446,0.310,0.000,0.000,302.000,31.000,0.000,0.000,0.000,0.000,0.476,0.446,0.310,0.000,0.000,302.000,31.000,0.000,0.000,0.000,0.000:
0000
0000
0000
0000
,
0000
0000
0000
0000
,
0000
0000
0000
0000
,
0000
0000
0000
0000
,
0000
0000
0000
0000
,
0000
0000
0000
0000
,
0000
0000
0000
0000
,
0000
0000
0000
0000
,
0000
0000
0100
0000
0010
0100
0010
0100
,
0010
0000
1000
0000
0001
1000
0001
1000
,
0001
0000
0100
0000
1000
0010
1000
0010
,
1000
0100
1000
0100
0010
0001
0010
0001
,
0100
1001
0100
1001
,
0110
1001
0101
1001
,
0001
0010
0100
0010
0001
0100
0010
0000
,
1000
0100
0011
1001
,
0001
0000
0010
0000
0100
0010
1000
0100
,
0010
0000
0100
0000
0010
1000
0001
1000
,
0010
0000
0100
0000
0010
0001
0010
0001
,
0100
0000
0010
0000
1000
0100
1000
0010
,
0100
0000
0010
0000
1000
0100
0010
0100
,
0001
0000
0010
0000
0100
0010
0100
1000
,
0010
0000
0100
0000
0001
0010
0001
0100
,
0010
0100
0010
0010
,
1000
0000
0100
0000
0010
0001
0100
1000
,
1100
0000
0010
0000
0100
0010
1000
0010
,
0011
0000
0010
0000
0100
1000
0010
0100
,
0110
0000
0001
0000
1000
0010
0100
0001
,
1001
0000
0010
0000
0100
0010
1000
0001
,
1001
0000
0010
0000
0100
1000
0010
0100
,
0101
0000
0010
0000
1000
0100
0010
0001
,
1001
0010
0110
1001
,
0000
0000
0100
0000
0010
1000
0001
1000
,
0000
0000
0100
0000
0010
0001
0100
1000
,
0010
0000
0100
0000
0001
0010
0001
1000
,
0010
0000
0100
0000
0001
0010
0001
0100
,
0010
0000
0100
0000
1000
0100
0010
0100
,
0001
0000
0010
0000
0100
1000
0010
0100
,
0001
0000
0010
0000
0100
1000
0010
0100
,
1000
0000
0100
0000
0010
0001
0010
0100
,
1000
0000
1001
0000
0100
0010
0001
1000
,
0010
0000
0011
0000
0010
1000
0010
0100
,
1000
0000
1010
0000
0100
0001
0010
0001
,
1000
0000
1001
0000
0010
0100
0001
1000
,
0010
0000
0011
0000
0001
0100
0010
1000
,
0010
0000
1010
0000
0100
0010
0001
1000
,
0001
0000
1001
0000
0010
1000
0100
0010
,
0001
0010
0100
0100
,
0001
0010
0000
0100
0000
1000
0000
0100
,
0000
0010
0000
0001
0000
1000
0000
0010
,
1000
1001
0000
0010
0000
0100
0000
1000
,
0000
0010
0000
0100
0000
0001
0000
1000
,
0010
1010
0000
0100
0000
0001
0000
0010
,
0000
0100
0000
0010
0001
1001
0000
0001
,
0000
0100
0000
0010
0000
0100
0000
1000
,
0000
0010
0000
0100
0010
1000
0001
1000
,
0010
0100
0000
0010
0000
0001
0000
0100
,
0000
1000
0000
0010
0000
0100
0000
0001
,
1000
1001
0000
0010
0000
0100
0000
1000
,
0000
0010
0000
0100
0000
0001
0000
0010
,
0100
0110
0000
1000
0000
0010
0000
0100
,
0000
0001
0000
0010
0000
0100
0000
1000
,
0001
1001
0000
0010
0000
0100
0000
1000
,
0000
0010
0000
0100
0000
0010
1001
0000
;

//---------------dance-single - ----------------
#NOTES:
     dance-single:
     :
     Easy:
     3:
     0.269,0.319,0.210,0.000,0.000,167.000,21.000,0.000,0.000,0.000,0.000,0.269,0.319,0.210,0.000,0.000,167.000,21.000,0.000,0.000,0.000,0.000:
0000
0000
0000
0000
,
0000
0000
0000
0000
,
0000
0000
0000
0000
,
0000
0000
0000
0000
,
0000
0000
0000
0000
,
0000
0000
0000
0000
,
0000
0000
0000
0000
,
0000
0000
0000
0000
,
0000
0010
0000
0000
,
0100
0100
0010
0000
,
0001
0001
1000
0000
,
0010
0010
0100
0100
,
0110
0000
1001
0000
,
0100
0010
0001
0010
,
0100
0010
0100
0100
,
1001
0110
1000
0001
,
1000
0000
0100
0001
,
0001
0000
0001
0010
,
0010
0000
0100
0010
,
0010
0000
1000
1000
,
0001
0000
0100
0100
,
0010
0000
0010
0010
,
0001
0000
0001
0001
,
0100
0000
0010
1000
,
0001
0000
0010
0100
,
0010
0000
0100
0100
,
0010
0000
1000
0001
,
1000
0000
0010
0100
,
0010
0000
0001
0001
,
0100
0000
1000
1000
,
0010
0000
0100
0100
,
0010
0000
0000
1001
,
0010
0000
0100
0010
,
0110
0000
0001
1000
,
1001
0000
0010
0100
,
0110
0000
1000
0001
,
1001
0000
0010
0100
,
0110
0000
1000
0001
,
1001
0000
0010
0100
,
0110
0000
1000
0001
,
1001
0000
0010
0100
,
0110
0000
1000
0001
,
1001
0000
0010
0100
,
0110
0000
0001
1000
,
1001
0000
1000
0001
,
1001
0000
0010
0100
,
0110
0000
1000
0001
,
1001
0000
0010
0100
,
0010
0001
0001
0000
,
0010
1000
1000
0000
,
0100
0100
0010
0000
,
0001
0001
1000
0000
,
1000
1000
0010
0000
,
0100
0100
0010
0000
,
0001
0001
1000
0000
,
0010
0010
0100
0000
,
0001
0001
0001
0000
,
1000
1000
1000
0000
,
0010
0100
0010
0000
,
1000
1000
0010
0000
,
0100
0100
0001
0000
,
1000
1000
0010
0000
,
0100
0100
0001
0000
,
0010
0000
0000
1001
;

//---------------dance-single - ----------------
#NOTES:
     dance-single:
     :
     Medium:
     5:
     0.371,0.414,0.220,0.000,0.000,238.000,22.000,0.000,0.000,0.000,0.000,0.371,0.414,0.220,0.000,0.000,238.000,22.000,0.000,0.000,0.000,0.000:
0000
0000
0000
0000
,
0000
0000
0000
0000
,
0000
0000
0000
0000
,
0000
0000
0000
0000
,
0000
0000
0000
0000
,
0000
0000
0000
0000
,
0000
0000
0000
0000
,
0000
0000
0000
0000
,
0000
0100
0010
0010
,
0100
0001
0001
0100
,
0010
1000
1000
0100
,
0010
0100
0001
1000
,
1001
1000
0001
1000
,
1001
0001
1000
0101
,
0010
1000
0010
1000
,
0100
0100
0010
1010
,
0100
0001
0001
1000
,
0010
1000
1000
0100
,
0010
0100
0100
0001
,
1000
0010
0010
0100
,
0001
0010
0010
0100
,
1000
0010
0010
0100
,
0001
1000
1000
0010
,
0100
0010
1001
1001
,
0010
1000
0010
1000
,
0100
1000
0100
1000
,
0010
0001
0010
0001
,
0010
0100
0010
0100
,
1000
0100
1000
0100
,
0010
0001
0010
0001
,
0100
0010
0100
0010
,
1000
0001
1001
0110
,
0000
1000
0100
0011
,
0010
0100
1000
1010
,
0100
0010
0001
0011
,
0010
0000
0100
0000
0010
0100
0010
0100
,
0010
1000
0100
0110
,
0001
1000
0010
1001
,
0100
0010
0011
0110
,
1000
0000
0010
0000
1000
0010
1000
0010
,
1000
0100
0010
0011
,
0001
0100
1000
1010
,
0100
0001
0010
0001
,
0100
0000
0010
0000
1000
0001
1000
0001
,
1000
0100
0010
1001
,
0100
0010
1000
1001
,
0100
0010
1000
0011
,
0110
0000
0110
0000
1000
0010
1000
0010
,
1000
0100
0000
0010
0000
0001
0000
0100
,
0000
0010
0000
1000
0000
0010
0000
0001
,
0100
0010
0000
0100
0000
0010
0000
1000
,
0000
0100
0000
0010
0000
0001
0000
1000
,
0100
1000
0000
0010
0000
0100
0000
1000
,
0000
0010
0000
0100
0000
0001
0000
1000
,
0010
1000
0000
0100
0000
0001
0000
0010
,
0000
0100
0000
1000
0010
0000
0100
0000
,
1000
0001
0000
1000
0000
0100
0000
0010
,
0000
1000
0000
0100
0000
1000
0000
0010
,
0100
0010
0000
0001
0000
1000
0000
0010
,
0000
0100
0000
0001
0000
0010
0000
0100
,
1000
0100
0000
0010
0000
0001
0000
0100
,
0000
0010
0000
1000
0000
0001
0000
0010
,
0100
0010
0000
1000
0000
0100
0000
0010
,
0000
0001
0000
1000
0000
0001
1000
0000
;

//---------------dance-single - ----------------
#NOTES:
     dance-single:
     :
     Challenge:
     9:
     0.574,0.574,0.330,0.000,0.005,369.000,33.000,0.000,0.000,0.000,0.000,0.574,0.574,0.330,0.000,0.005,369.000,33.000,0.000,0.000,0.000,0.000:
0000
0000
0000
0000
,
0000
0000
0000
0000
,
0000
0000
0000
0000
,
0000
0000
0000
0000
,
0000
0000
0000
0000
,
0000
0000
0000
0000
,
0000
0000
0000
0000
,
0000
0000
0000
0000
,
1000
0010
0100
0000
0010
0001
0010
0001
,
0100
0000
0010
0000
1000
0100
0010
0001
,
1000
0000
0010
0000
0100
0010
0100
0010
,
1000
0100
1000
0100
1000
0010
0100
0010
,
0001
0010
0001
0010
0100
0010
0100
0010
,
1000
0100
1000
0100
0010
0100
0010
0000
,
0001
1000
0010
1000
0010
0100
0010
0000
,
0101
0011
0110
1010
,
0110
0100
0010
0100
0010
0100
0010
0100
,
1100
0100
0001
0100
0001
0100
0001
0100
,
0101
0001
0010
0001
0010
0001
0010
0001
,
0101
0001
0100
0001
0100
0001
0100
0001
,
0101
0100
1000
0100
1000
0100
1000
0100
,
0110
0010
0100
0010
0100
0010
0100
0010
,
1010
0010
1000
0010
1000
0010
1000
0010
,
0100
0000
0001
0000
1000
0000
0010
0000
0100
0000
0000
0001
0000
0000
0100
0000
,
1001
0001
1000
0001
1000
0001
1000
0001
,
0101
0001
0100
0001
0100
0001
0100
0001
,
0101
0100
0010
0100
0010
0100
0010
0100
,
0110
0010
1000
0010
1000
0010
1000
0010
,
0110
0010
0100
0010
0100
0010
0100
0010
,
0011
0010
0001
0010
0001
0010
0001
0010
,
0110
0100
0010
0100
0010
0100
0010
0100
,
1100
0100
0010
0001
0100
0010
1001
0000
,
0001
0000
0100
0000
1000
0010
1000
0010
,
0100
0010
0001
0100
0010
0100
1000
0001
,
0010
0100
1000
0010
0100
0010
0001
0010
,
0100
0010
1000
0100
0010
0100
0001
0010
,
0110
0000
1000
0000
0100
0010
0100
0010
,
0001
0010
0001
0010
0100
0010
0100
0010
,
1000
0100
1000
0010
0100
0010
0100
0010
,
0001
1000
0001
1000
0010
1000
0100
0010
,
1001
0000
0010
0000
0100
0010
0100
0010
,
1000
0010
1000
0010
0100
0010
0100
0010
,
0001
0010
0001
0010
0100
0010
0100
0010
,
1000
0100
1000
0100
0010
0100
0001
0010
,
0110
0000
1000
0000
0010
0100
0010
0100
,
0010
0001
0010
0001
0010
0100
0010
0100
,
0010
0100
1000
0100
1000
0100
0010
0100
,
0010
0001
1100
0011
,
0100
1000
0000
0100
0000
0001
0000
0010
,
0000
0100
0000
1000
0000
0010
0000
0001
,
0100
0101
0000
1000
0000
0010
0000
0100
,
0000
0010
0000
1000
0000
0001
0000
0010
,
0100
0110
0000
1000
0000
0001
0000
0100
,
0000
0010
0000
1000
0000
0100
0000
0010
,
0001
1001
0000
0010
0000
0100
0000
1000
,
0000
0010
0000
0100
0001
0010
0100
1000
,
0001
1001
0000
0010
0000
0100
0000
1000
,
0000
0010
0000
0100
0000
0001
0000
0010
,
1000
1010
0000
0100
0000
0001
0000
0010
,
0000
0001
0000
0100
0000
0010
0000
1000
,
0001
0101
0000
0001
0000
0010
0000
0100
,
0000
0010
0000
1000
0000
0100
0000
0010
,
1000
1001
0000
0010
0000
1000
0000
0001
,
0000
0100
0000
0010
0000
0100
1001
0000
;

//---------------dance-single - ----------------
#NOTES:
     dance-single:
     :
     Beginner:
     1:
     0.111,0.128,0.000,0.000,0.000,78.000,0.000,0.000,0.000,0.000,0.000,0.111,0.128,0.000,0.000,0.000,78.000,0.000,0.000,0.000,0.000,0.000: // measure 1
0000
0000
0000
0000
,  // measure 2
0000
0000
0000
0000
,  // measure 3
0000
0000
0000
0000
,  // measure 4
0000
0000
0000
0000
,  // measure 5
0000
0000
0000
0000
,  // measure 6
0000
0000
0000
0000
,  // measure 7
0000
0000
0000
0000
,  // measure 8
0000
0000
0000
0000
,  // measure 9
1000
0000
0000
0000
,  // measure 10
0000
0000
0000
0000
,  // measure 11
0001
0000
0000
0000
,  // measure 12
0000
0000
0000
0000
,  // measure 13
1000
0000
1000
0000
,  // measure 14
0010
0000
0001
0000
,  // measure 15
0100
0000
0000
0000
,  // measure 16
0000
0000
0000
0000
,  // measure 17
0001
0000
0001
0000
,  // measure 18
0010
0000
0010
0000
,  // measure 19
0100
0000
0100
0000
,  // measure 20
1000
0000
1000
0000
,  // measure 21
0010
0000
0010
0000
,  // measure 22
0100
0000
0100
0000
,  // measure 23
0001
0000
0001
0000
,  // measure 24
1000
0000
1000
0000
,  // measure 25
0010
0000
0100
0000
,  // measure 26
0010
0000
0100
0000
,  // measure 27
0001
0000
1000
0000
,  // measure 28
0001
0000
1000
0000
,  // measure 29
0010
0000
0100
0000
,  // measure 30
0010
0000
0100
0000
,  // measure 31
1000
0000
0100
0000
,  // measure 32
1000
0000
0010
0000
,  // measure 33
0100
0000
0000
0000
,  // measure 34
0000
0000
0000
0000
,  // measure 35
0010
0000
0000
0000
,  // measure 36
0000
0000
0000
0000
,  // measure 37
0001
0000
0000
0000
,  // measure 38
0000
0000
0000
0000
,  // measure 39
1000
0000
0000
0000
,  // measure 40
0000
0000
0000
0000
,  // measure 41
0010
0000
0000
0000
,  // measure 42
0000
0000
0000
0000
,  // measure 43
0001
0000
0000
0000
,  // measure 44
0000
0000
0000
0000
,  // measure 45
0100
0000
0000
0000
,  // measure 46
0000
0000
0000
0000
,  // measure 47
1000
0000
0000
0000
,  // measure 48
0000
0000
0000
0000
,  // measure 49
0010
0000
0010
0000
,  // measure 50
0010
0000
0001
0000
,  // measure 51
0100
0000
0100
0000
,  // measure 52
0100
0000
0010
0000
,  // measure 53
1000
0000
1000
0000
,  // measure 54
1000
0000
0100
0000
,  // measure 55
0010
0000
0010
0000
,  // measure 56
0010
0000
0000
0000
,  // measure 57
0001
0000
0001
0000
,  // measure 58
0001
0000
0001
0000
,  // measure 59
0100
0000
0100
0000
,  // measure 60
0100
0000
0100
0000
,  // measure 61
0010
0000
0010
0000
,  // measure 62
0010
0000
0010
0000
,  // measure 63
1000
0000
1000
0000
,  // measure 64
1000
0000
0000
0010
;
