#TITLE:CANON-D;
#SUBTITLE:;
#ARTIST:BANYA;
#TITLETRANSLIT:;
#SUBTITLETRANSLIT:;
#ARTISTTRANSLIT:;
#GENRE:;
#CREDIT:;
#BANNER:CANON-D.png;
#BACKGROUND:CANON-D-bg.png;
#LYRICSPATH:;
#CDTITLE:.\CDTITLES\DDRMAX6.PNG;
#MUSIC:CANON-D.ogg;
#OFFSET:-0.060;
#SAMPLESTART:36.020;
#SAMPLELENGTH:15.000;
#SELECTABLE:YES;
#DISPLAYBPM:160.000;
#BPMS:0.000=160.000;
#STOPS:;
#BGCHANGES:0.000=CANON-D.avi=1.000=0=0=1=====,
272.000=CANON-D-bg.png=1.000=0=0=1=====,
99999=-nosongbg-=1.000=0=0=0 // don't automatically add -songbackground-
;
#KEYSOUNDS:;

//---------------dance-single - ----------------
#NOTES:
     dance-single:
     :
     Easy:
     1:
     0.101,0.124,0.000,0.000,0.000,73.000,0.000,0.000,0.000,0.000,0.000,0.101,0.124,0.000,0.000,0.000,73.000,0.000,0.000,0.000,0.000,0.000:
0000
0000
0000
0000
,
0000
0000
0000
0000
,
0000
0000
0000
0000
,
0000
0000
0000
0000
,
0000
0000
0000
0000
,
0000
0000
0000
0000
,
0000
0000
0000
0000
,
0000
0000
0000
0000
,
0100
0000
0000
0000
,
0100
0000
0000
0000
,
0010
0000
0000
0000
,
0010
0000
0000
0000
,
0001
0000
0000
0000
,
0001
0000
0000
0000
,
1000
0000
0000
0000
,
1000
0000
0000
0000
,
0010
0000
0010
0000
,
0100
0000
0100
0000
,
0010
0000
0010
0000
,
0100
0000
0100
0000
,
0001
0000
0001
0000
,
0100
0000
0100
0000
,
0010
0000
0010
0000
,
0100
0000
0100
0000
,
1000
0000
0000
0000
,
1000
0000
0000
0000
,
0010
0000
0000
0000
,
0010
0000
0000
0000
,
0001
0000
0000
0000
,
0001
0000
0000
0000
,
0100
0000
0000
0000
,
0100
0000
0000
0000
,
0010
0000
0010
0000
,
0001
0000
0001
0000
,
0100
0000
0100
0000
,
0010
0000
0010
0000
,
1000
0000
1000
0000
,
0100
0000
0100
0000
,
0010
0000
0010
0000
,
0001
0000
1000
0000
,
0010
0000
0000
0000
,
0100
0000
0000
0000
,
0100
0000
0000
0000
,
0010
0000
0000
0000
,
0010
0000
0000
0000
,
0001
0000
0000
0000
,
0001
0000
0000
0000
,
0100
0000
0000
0000
,
1000
0000
0000
0000
,
0100
0000
0000
0000
,
0010
0000
0000
0000
,
0100
0000
0000
0000
,
0001
0000
0000
0000
,
0010
0000
0000
0000
,
0100
0000
0000
0000
,
0010
0000
0000
0000
,
0100
0000
0000
0000
,
0010
0000
0000
0000
,
1000
0000
0000
0000
,
0100
0000
0000
0000
,
0010
0000
0000
0000
,
0001
0000
0000
0000
,
0100
0000
0000
0000
,
0010
0000
0000
0000
,
0100
0000
0000
0000
;

//---------------dance-single - ----------------
#NOTES:
     dance-single:
     :
     Medium:
     4:
     0.272,0.247,0.203,0.000,0.000,176.000,21.000,0.000,0.000,0.000,0.000,0.272,0.247,0.203,0.000,0.000,176.000,21.000,0.000,0.000,0.000,0.000:
0000
0000
0000
0000
,
0000
0000
0000
0000
,
0000
0000
0000
0000
,
0000
0000
0000
0000
,
0000
0000
0000
0000
,
0000
0000
0000
0000
,
0000
0000
0000
0000
,
0000
0000
0000
0000
,
0010
0100
0100
0000
,
0010
0100
0100
0000
,
0001
0001
1000
0000
,
0001
0001
1000
0000
,
1000
0100
0010
0000
,
0010
0100
1000
0000
,
0010
0100
0001
0000
,
0001
0010
0100
0000
,
0100
0010
0100
0010
,
0001
1000
0001
1000
,
0010
0100
0010
0100
,
0001
1000
0001
1000
,
0010
1000
0100
1000
,
0010
1000
0100
1000
,
0010
0100
0001
0010
,
0100
1000
1001
0000
,
0010
0000
0000
0100
,
0010
0000
0001
0100
,
0010
0000
0000
1000
,
0010
0000
0000
0000
,
0100
0010
0110
0000
,
0001
1000
1001
0000
,
0010
0100
0110
0000
,
1000
0001
1001
0000
,
0010
0100
0010
0100
,
0001
0010
0001
0100
,
0100
0010
0100
0010
,
1000
0010
0100
0010
,
0010
0001
0010
0001
,
0100
0010
0100
0010
,
1000
0010
1000
0100
,
1000
0010
1000
0100
,
1001
0000
0010
0001
,
1000
0010
1001
0000
,
0010
0000
0100
0001
,
0010
1000
1001
0000
,
0100
0000
0010
0100
,
0010
1000
1001
0000
,
0100
0000
0010
0100
,
1000
0010
0110
0000
,
0001
0000
1000
0010
,
1000
0100
1001
0000
,
0010
0000
0100
1000
,
0010
0100
1001
0000
,
0010
0000
0100
0010
,
1000
0001
1001
0000
,
0100
0000
0110
0000
,
0001
0000
1001
0000
,
0010
0000
1000
0100
,
1000
0010
1001
0000
,
0100
0000
0001
1000
,
0010
1000
1001
0000
,
0001
0000
0100
0010
,
1000
0100
1001
0000
,
0110
0000
1000
0000
,
1001
0000
0010
0000
,
1001
0000
0000
0000
;

//---------------dance-single - ----------------
#NOTES:
     dance-single:
     :
     Hard:
     5:
     0.328,0.402,0.193,0.000,0.000,218.000,20.000,0.000,0.000,0.000,0.000,0.328,0.402,0.193,0.000,0.000,218.000,20.000,0.000,0.000,0.000,0.000:
0000
0000
0000
0000
,
0000
0000
0000
0000
,
0000
0000
0000
0000
,
0000
0000
0000
0000
,
0000
0000
0000
0000
,
0000
0000
0000
0000
,
0000
0000
0000
0000
,
0000
0000
0000
0000
,
1000
0100
0010
0001
,
1000
0100
0010
0001
,
1000
0100
0010
0001
,
1000
0100
0010
0001
,
0001
0010
0100
1000
,
0001
0010
0100
1000
,
0001
0010
0100
1000
,
0001
0010
0100
1000
,
0100
0001
0100
0001
,
1000
0010
1000
0010
,
0100
0010
0100
0010
,
0001
0010
0001
0010
,
0100
0010
0100
0010
,
1000
0010
1000
0010
,
0100
0001
0100
0010
,
1000
0100
0010
0001
,
1001
0000
0000
0000
0000
0000
0100
0001
,
0010
0000
1001
1001
,
1001
0000
0000
0000
0000
0000
0010
0100
,
1000
0000
0000
0000
,
0011
0001
0100
0010
,
1000
0010
1010
1010
,
0100
0001
0010
0100
,
1000
0110
1001
0000
,
1000
1001
0010
0110
,
0001
1001
0110
0011
,
0100
1001
0010
0110
,
0001
1001
1010
0110
,
0010
0100
1000
0100
,
0010
0100
1000
0100
,
0010
0100
1000
0100
,
0010
0100
1000
0010
,
0001
0000
0000
0010
0100
0000
1000
0000
,
0100
0010
0100
1000
,
0010
0000
0000
0100
0001
0000
0010
0000
,
0100
1000
0010
0100
,
0001
0001
0001
0001
,
1000
1000
1000
1000
,
0010
0010
0010
0010
,
0100
0100
0100
0100
,
0001
0010
0100
0010
,
0100
1000
0100
0010
,
1000
0100
0010
0100
,
0010
0100
0001
0010
,
0001
0100
0010
0100
,
1000
0010
1000
0100
,
0010
0000
0000
0100
0100
0000
0000
0010
,
0010
1000
0001
1000
,
0010
0010
0010
0010
,
0001
0001
0001
0001
,
0100
0100
0100
0100
,
1000
1000
1000
1000
,
0010
0100
1000
1000
,
0010
0100
0001
0001
,
0100
0010
1000
0100
,
0010
0100
0010
1000
,
1001
0000
0000
0000
;

//---------------dance-single - ----------------
#NOTES:
     dance-single:
     :
     Beginner:
     1:
     0.046,0.062,0.000,0.000,0.000,33.000,0.000,0.000,0.000,0.000,0.000,0.046,0.062,0.000,0.000,0.000,33.000,0.000,0.000,0.000,0.000,0.000: // measure 1
0000
0000
0000
0000
,  // measure 2
0000
0000
0000
0000
,  // measure 3
0000
0000
0000
0000
,  // measure 4
0000
0000
0000
0000
,  // measure 5
0000
0000
0000
0000
,  // measure 6
0000
0000
0000
0000
,  // measure 7
0000
0000
0000
0000
,  // measure 8
0000
0000
0000
0000
,  // measure 9
1000
0000
0000
0000
,  // measure 10
0000
0000
0000
0000
,  // measure 11
1000
0000
0000
0000
,  // measure 12
0000
0000
0000
0000
,  // measure 13
0001
0000
0000
0000
,  // measure 14
0000
0000
0000
0000
,  // measure 15
0001
0000
0000
0000
,  // measure 16
0000
0000
0000
0000
,  // measure 17
1000
0000
0000
0000
,  // measure 18
0000
0000
0000
0000
,  // measure 19
1000
0000
0000
0000
,  // measure 20
0000
0000
0000
0000
,  // measure 21
0001
0000
0000
0000
,  // measure 22
0000
0000
0000
0000
,  // measure 23
0001
0000
0000
0000
,  // measure 24
0000
0000
0000
0000
,  // measure 25
1000
0000
0000
0000
,  // measure 26
1000
0000
0000
0000
,  // measure 27
0001
0000
0000
0000
,  // measure 28
0001
0000
0000
0000
,  // measure 29
1000
0000
0000
0000
,  // measure 30
1000
0000
0000
0000
,  // measure 31
0001
0000
0000
0000
,  // measure 32
0001
0000
0000
0000
,  // measure 33
1000
0000
0000
0000
,  // measure 34
0000
0000
0000
0000
,  // measure 35
0001
0000
0000
0000
,  // measure 36
0000
0000
0000
0000
,  // measure 37
1000
0000
0000
0000
,  // measure 38
0000
0000
0000
0000
,  // measure 39
0001
0000
0000
0000
,  // measure 40
0000
0000
0000
0000
,  // measure 41
1000
0000
0000
0000
,  // measure 42
0000
0000
0000
0000
,  // measure 43
1000
0000
0000
0000
,  // measure 44
0000
0000
0000
0000
,  // measure 45
0001
0000
0000
0000
,  // measure 46
0000
0000
0000
0000
,  // measure 47
0001
0000
0000
0000
,  // measure 48
0000
0000
0000
0000
,  // measure 49
1000
0000
0000
0000
,  // measure 50
0000
0000
0000
0000
,  // measure 51
1000
0000
0000
0000
,  // measure 52
0000
0000
0000
0000
,  // measure 53
0001
0000
0000
0000
,  // measure 54
0000
0000
0000
0000
,  // measure 55
0001
0000
0000
0000
,  // measure 56
0000
0000
0000
0000
,  // measure 57
1000
0000
0000
0000
,  // measure 58
0000
0000
0000
0000
,  // measure 59
0001
0000
0000
0000
,  // measure 60
0000
0000
0000
0000
,  // measure 61
1000
0000
0000
0000
,  // measure 62
0000
0000
0000
0000
,  // measure 63
0001
0000
0000
0000
,  // measure 64
0000
0000
0000
0000
,  // measure 65
1000
0000
0000
0000
;
