#TITLE:ブラック★ロックシューター;
#SUBTITLE:;
#ARTIST:supercell feat. Hatsune Miku;
#TITLETRANSLIT:Black★Rock Shooter;
#SUBTITLETRANSLIT:;
#ARTISTTRANSLIT:;
#GENRE:;
#CREDIT:;
#BANNER:Black Rock Shooter.png;
#BACKGROUND:Black Rock Shooter-bg.png;
#LYRICSPATH:;
#CDTITLE:.\CDTITLES\DDRMAX6.PNG;
#MUSIC:Black Rock Shooter.ogg;
#OFFSET:0.300;
#SAMPLESTART:63.720;
#SAMPLELENGTH:15.000;
#SELECTABLE:YES;
#DISPLAYBPM:139.000:165.000;
#BPMS:0.000=165.000,12.000=140.000,36.000=167.000,40.000=165.000,68.000=167.000,72.000=166.000,76.000=165.000;
#STOPS:;
#BGCHANGES:;
#KEYSOUNDS:;

//---------------dance-single - ----------------
#NOTES:
     dance-single:
     :
     Easy:
     4:
     0.274,0.291,0.201,0.134,0.000,165.000,21.000,14.000,0.000,0.000,0.000,0.274,0.291,0.201,0.134,0.000,165.000,21.000,14.000,0.000,0.000,0.000:
0000
0000
0000
0000
,
0000
0000
0000
0000
,
0000
0000
0000
0000
,
0020
0130
0020
0130
,
2000
3001
1001
0000
,
0010
0100
1000
0010
,
1001
0000
0000
0000
,
0020
0031
0200
0310
,
2000
3001
0110
0000
,
2002
0000
0000
3003
,
0010
0010
0010
0010
,
0000
0001
0010
0100
,
1000
0010
0100
0001
,
1001
0000
0110
0000
,
0001
0000
0100
0000
,
0000
0010
1000
0100
,
1000
0010
0100
0001
,
1001
0000
0010
0000
,
0110
0000
0001
0000
,
0000
1000
0010
0100
,
0001
0010
0100
0010
,
0100
0000
0110
0000
,
0001
0000
1001
0000
,
0010
0000
0100
0001
,
1000
0010
1000
0100
,
0001
0001
0100
0100
,
0010
0000
1001
0000
,
0100
0000
0010
0000
,
0100
0100
0001
0001
,
1000
0100
0001
1000
,
0010
0000
0000
0000
,
1001
0001
0100
0000
,
1001
1000
0010
0100
,
0001
0000
0000
0000
,
0100
0000
0000
0000
,
0010
0100
0110
0000
,
1000
0100
1000
0010
,
0100
0000
0010
0000
,
0001
0000
0010
0000
,
0100
0010
0110
0000
,
1000
0000
0001
0000
,
1000
0000
0000
0000
,
0000
0000
0010
0100
,
0002
0103
2000
3010
,
0200
0310
1001
0000
,
0010
0000
0100
0000
,
0010
0000
0000
0000
,
1000
0001
0001
0000
,
0100
0010
0010
1000
,
0001
0000
0010
0000
,
1001
0000
0000
0000
,
2000
3001
0020
0130
,
0002
1003
1001
0000
,
0010
0000
0110
0000
,
1001
0000
0000
0001
,
0010
0000
0000
0010
,
0100
0000
0001
0010
,
0100
0000
0000
0000
,
0000
0000
0001
0100
,
1000
0000
0100
0000
,
0010
0000
0001
0000
,
1000
0000
0010
0000
,
0100
0000
0010
0001
,
0100
0000
0010
0000
,
1000
0000
0001
0000
,
0010
0000
0000
0000
,
0010
0000
0100
0000
,
0000
0000
1001
0000
;

//---------------dance-single - ----------------
#NOTES:
     dance-single:
     :
     Hard:
     9:
     0.601,0.550,0.470,0.192,0.072,370.000,49.000,20.000,0.000,0.000,0.000,0.601,0.550,0.470,0.192,0.072,370.000,49.000,20.000,0.000,0.000,0.000:
0000
0000
0000
0000
,
0000
0000
0000
0000
,
0000
0000
0000
0000
,
1001
1001
0011
0011
,
1100
0000
1100
0000
0110
0000
0000
0001
,
1000
0000
0010
0100
0000
0010
1000
0001
,
0000
0000
0100
0001
0010
0100
0001
0010
,
1010
1010
0011
0011
,
0101
0101
1001
1001
,
0220
0000
0000
0330
,
1000
0100
0010
0100
0010
0001
0100
0010
,
1000
0000
0100
0000
0010
0000
0001
0010
,
0100
1000
0010
0000
1000
0100
0001
0000
,
0010
0000
0100
0010
0110
0000
0001
1000
,
1001
0000
0100
0010
0001
1000
0010
0000
,
0100
0000
0001
0000
0010
0100
1000
0000
,
0010
1000
0001
0100
0010
1000
0010
0000
,
0100
0000
0011
0000
0100
0000
1010
0001
,
0010
0000
0101
0000
0011
0000
0010
1000
,
0001
0000
1000
0000
0100
0001
0010
0000
,
0100
1000
0001
0010
1000
0000
0010
0100
,
0001
0000
0010
1000
0001
0000
0100
0010
,
0001
0000
0010
1000
1001
0000
0010
0100
,
0110
0000
1000
0001
0100
0010
1000
0001
,
1000
0000
0010
0100
0001
0100
0010
0000
,
1000
0100
0010
0100
1000
0100
0010
0100
,
0001
0000
0010
0000
0100
0000
1000
0000
0001
0000
1000
0000
0010
0000
0100
0001
,
0100
1010
0001
0101
,
0011
0000
1001
0000
1000
0010
0100
0000
,
0010
0001
1000
0001
0100
0000
0010
1000
,
0001
0010
0001
0010
0100
0010
0100
1000
,
0100
0001
1000
0010
1000
0000
0100
0010
,
0001
0010
0100
0010
0001
1000
0100
0010
,
0001
0000
0000
0001
0010
0000
0000
0100
0010
0000
0000
1000
0001
0000
0000
0100
,
0010
1000
0001
0100
0010
1000
0001
0100
,
0010
0000
1000
0100
0110
0000
0010
0001
,
0100
0000
0010
1000
0001
0000
0100
0000
,
0010
0000
1010
0000
1001
0000
0100
0001
,
1000
0000
0100
0010
0001
0000
0110
0000
,
1000
0100
0010
0001
0100
0010
1000
0100
,
0010
0001
1010
0100
,
1000
0000
0001
0100
0000
0010
1000
0000
0100
0001
0000
1000
0010
0000
0100
0000
,
0001
0000
0000
0010
0000
1000
0001
0000
,
2000
3010
0200
0301
,
2000
0000
3001
0000
1001
0000
0000
0010
,
0101
0000
0010
1100
0000
0010
0100
0001
,
1000
0010
1000
0010
0100
0001
0010
0100
,
2000
3001
0020
0130
,
0002
1003
0020
0130
,
0001
0000
1000
0001
0000
0100
0000
0110
,
1000
0000
0010
0100
0000
0001
1000
0000
0010
0000
0100
0000
1000
0000
0010
0000
,
0200
0301
2000
3001
,
0020
0130
2002
3003
,
0010
0000
1000
0100
0000
0010
1000
0001
,
0100
0000
0010
0001
0000
1000
0010
0000
0100
0000
0010
0000
1000
0000
0100
0000
,
0020
0000
0031
0100
0010
1000
0100
0010
,
1000
0100
0010
0001
0101
0000
1001
0000
,
1010
0010
0100
0010
1000
0001
0100
0010
,
1000
0100
0010
0001
1000
0100
0010
0001
,
0200
0301
2000
3001
,
0011
0101
1001
1010
,
0100
0010
0001
0010
0100
0010
0001
0010
,
0200
0310
1001
0011
,
2000
3010
0002
0103
,
1001
0000
0001
0010
0100
1000
0010
0001
,
1000
0000
0000
0000
0000
0000
0000
0000
0000
0000
0000
0000
0010
0000
0000
0100
,
0000
0000
0001
0000
0000
0000
0000
1000
0000
0000
0000
0000
0000
0000
0000
0000
,
0000
0000
1001
0000
;

//---------------dance-single - ----------------
#NOTES:
     dance-single:
     :
     Medium:
     5:
     0.379,0.356,0.192,0.249,0.000,231.000,20.000,26.000,0.000,0.000,0.000,0.379,0.356,0.192,0.249,0.000,231.000,20.000,26.000,0.000,0.000,0.000:
0000
0000
0000
0000
,
0000
0000
0000
0000
,
0000
0000
0000
0000
,
2000
3001
0200
0310
,
2000
3001
1001
0000
,
0100
0000
0010
0000
0100
0000
0001
1000
,
0010
0000
0010
0000
,
0200
0301
2000
3100
,
0020
0130
0002
1003
,
2002
0000
0000
3003
,
0010
0010
0010
0010
,
0000
0001
0010
0100
,
1000
0100
0010
0001
,
1100
0000
0011
0000
,
0010
0000
0110
0000
,
0000
0001
0100
1000
,
0010
0100
0001
1000
,
1010
0000
0011
0000
,
0100
0010
0001
1000
,
0000
0010
1000
0100
,
1000
0010
1000
0100
,
1000
0000
0110
0000
,
0001
0000
0110
0000
,
1000
0100
1000
0010
,
0100
0010
0100
0001
,
0100
1000
0100
0001
,
1001
0010
0100
0010
,
1000
0001
1000
0001
,
1000
0010
0100
0001
,
0100
0010
0010
1000
,
0001
0001
0100
0100
,
0010
0000
1000
0100
0010
0000
0000
0000
,
0001
0000
0010
0000
0100
0001
1000
0000
,
0010
0100
0010
0100
,
0001
1000
0001
1000
,
0010
0000
0001
0100
0010
0000
1000
0000
,
0010
0100
0010
0001
,
0100
0000
1010
0000
,
0010
0000
0101
0000
,
0010
0000
0100
0000
1000
0010
0001
0000
,
0101
0011
0101
0011
,
1100
0000
0010
0000
,
0100
0000
0000
0001
0000
1000
0010
0000
,
0002
1003
0200
0310
,
2000
0000
3001
0000
1001
0000
0000
0001
,
0100
0000
0010
1000
0000
0000
0100
0000
,
0001
0000
0001
0000
0001
0000
0001
0010
,
0200
0310
2000
3001
,
0200
0310
0002
1003
,
0010
0100
0001
0001
,
1000
0100
1000
0010
,
2000
3100
0002
0103
,
0020
1030
1001
0000
,
0010
0100
0001
1000
,
0010
0000
0010
0000
0100
0000
0100
0010
,
0001
0001
0001
0001
,
1000
0000
0010
0000
1000
0000
0100
0010
,
0001
0010
1000
0010
,
0100
0010
0010
0010
,
0200
0301
0020
0130
,
2000
3001
0100
0000
,
0010
1000
0100
1000
,
0010
0100
0001
1000
,
0020
0130
0002
1003
,
0020
0130
0002
1003
,
0010
0000
0000
0000
,
0010
0000
0000
0000
,
0000
0000
1001
0000
;

//---------------dance-single - ----------------
#NOTES:
     dance-single:
     :
     Beginner:
     2:
     0.159,0.194,0.096,0.000,0.000,106.000,10.000,0.000,0.000,0.000,0.000,0.159,0.194,0.096,0.000,0.000,106.000,10.000,0.000,0.000,0.000,0.000: // measure 1
0000
0000
0000
0000
,  // measure 2
0000
0000
0000
0000
,  // measure 3
0000
0000
0000
0000
,  // measure 4
1000
0000
0010
0000
,  // measure 5
0001
0000
0100
0000
,  // measure 6
1000
0000
0010
0000
,  // measure 7
1001
0000
0000
0000
,  // measure 8
0001
0000
0100
0000
,  // measure 9
0010
0000
1000
0000
,  // measure 10
1001
0000
0000
0000
,  // measure 11
0010
0010
0010
0010
,  // measure 12
0000
0000
0100
0000
,  // measure 13
0110
0000
0001
0000
,  // measure 14
1001
0000
0010
0000
,  // measure 15
1000
0000
0100
0000
,  // measure 16
0000
0000
0010
0000
,  // measure 17
0100
0000
0010
0000
,  // measure 18
0010
0000
1000
0000
,  // measure 19
1000
0000
0100
0000
,  // measure 20
0000
0000
0010
0000
,  // measure 21
0100
0000
1001
0000
,  // measure 22
0010
0000
1000
0000
,  // measure 23
0100
0000
0000
0001
,  // measure 24
0001
0000
0010
0000
,  // measure 25
0100
0000
1000
0000
,  // measure 26
0010
0000
0100
0000
,  // measure 27
0110
0000
0000
0000
,  // measure 28
1000
0000
0001
0000
,  // measure 29
1000
0000
0010
0000
,  // measure 30
0100
0000
0010
0000
,  // measure 31
1000
0000
0000
0000
,  // measure 32
0010
0000
0010
0000
,  // measure 33
0001
0000
0001
0000
,  // measure 34
0110
0000
0000
0000
,  // measure 35
1001
0000
0000
0000
,  // measure 36
0001
0000
1000
0000
,  // measure 37
0010
0000
0100
0000
,  // measure 38
1001
0000
0000
0000
,  // measure 39
0110
0000
0000
0000
,  // measure 40
0001
0000
0010
0000
,  // measure 41
0100
0000
0010
0000
,  // measure 42
1000
0000
0000
0000
,  // measure 43
0000
0000
0000
1000
,  // measure 44
0010
0000
0100
0000
,  // measure 45
0001
0000
0100
0000
,  // measure 46
0010
0000
0010
0000
,  // measure 47
0100
0000
0000
0000
,  // measure 48
0010
0000
0100
0000
,  // measure 49
0001
0000
1000
0000
,  // measure 50
0010
0000
0100
0000
,  // measure 51
0010
0000
0000
0000
,  // measure 52
0001
0000
0010
0000
,  // measure 53
0100
0000
1000
0000
,  // measure 54
0010
0000
0100
0000
,  // measure 55
0001
0000
0000
1000
,  // measure 56
0001
0000
0000
0000
,  // measure 57
1000
0000
0000
0000
,  // measure 58
0010
0000
0000
0000
,  // measure 59
0000
0000
0000
0000
,  // measure 60
0100
0000
0001
0000
,  // measure 61
1000
0000
0010
0000
,  // measure 62
0100
0000
0000
0000
,  // measure 63
0010
0000
0000
0000
,  // measure 64
1000
0000
0010
0000
,  // measure 65
0100
0000
0001
0000
,  // measure 66
1000
0000
0000
0000
,  // measure 67
0000
0000
0000
0000
,  // measure 68
0000
0000
0010
0000
;
