#TITLE:Bailamos;
#SUBTITLE:;
#ARTIST:MVL;
#TITLETRANSLIT:;
#SUBTITLETRANSLIT:;
#ARTISTTRANSLIT:;
#GENRE:;
#CREDIT:;
#BANNER:Bailamos.png;
#BACKGROUND:Bailamos-bg.png;
#LYRICSPATH:;
#CDTITLE:.\CDTITLES\DDRMAX6.PNG;
#MUSIC:Bailamos.ogg;
#OFFSET:-0.020;
#SAMPLESTART:45.360;
#SAMPLELENGTH:15.000;
#SELECTABLE:YES;
#DISPLAYBPM:115.000;
#BPMS:0.000=115.000,36.000=114.000,40.000=116.000,44.000=115.000,64.000=114.000,68.000=116.000,72.000=115.000,84.000=114.000,88.000=115.000;
#STOPS:;
#BGCHANGES:;
#KEYSOUNDS:;

//---------------dance-single - ----------------
#NOTES:
     dance-single:
     :
     Easy:
     3:
     0.245,0.181,0.024,0.000,0.000,138.000,2.000,0.000,0.000,0.000,0.000,0.245,0.181,0.024,0.000,0.000,138.000,2.000,0.000,0.000,0.000,0.000:
0000
0000
0000
0000
,
0000
0000
0000
0000
,
1000
0100
0010
0010
,
1000
0100
0010
0010
,
1000
0100
0010
0010
,
1000
0100
0010
0010
,
1000
0001
0010
0010
,
1000
0001
0010
0010
,
1000
0001
0010
0010
,
1000
0001
0010
0010
,
1000
0100
0010
0001
,
1000
0100
0010
0001
,
1000
0100
0010
0001
,
1000
0100
0010
0001
,
1000
0100
0010
0001
,
1000
0100
0010
0001
,
1000
0100
0010
0001
,
1000
0100
0010
0001
,
1000
1000
1000
0100
,
0001
0001
0001
0010
,
0100
0010
0100
1000
,
1001
0000
0000
0000
,
0100
0010
0001
0001
,
0010
0100
1000
1000
,
0100
0010
0001
0001
,
0010
0100
1000
1000
,
0010
0001
0100
0100
,
0010
0001
0100
0100
,
0010
1000
0100
0100
,
0010
1000
0100
0100
,
0010
0001
0010
0010
,
0100
1000
0100
0100
,
0010
1000
0100
1000
,
0010
0001
0100
0001
,
0010
1000
0100
1000
,
0010
0001
0100
0001
,
0010
1000
0100
0001
,
1001
0000
0000
0000
;

//---------------dance-single - ----------------
#NOTES:
     dance-single:
     :
     Medium:
     5:
     0.308,0.272,0.257,0.122,0.000,145.000,21.000,10.000,0.000,0.000,0.000,0.308,0.272,0.257,0.122,0.000,145.000,21.000,10.000,0.000,0.000,0.000:
0000
0000
0000
0000
,
0000
0000
0000
0000
,
1000
0100
0100
0010
,
0001
0100
0100
0010
,
0100
0001
0001
0100
,
0010
0100
0100
1000
,
0011
0011
0010
0010
,
1010
1010
0010
0010
,
0110
0110
0010
0010
,
0011
0011
0010
0010
,
0120
0100
0100
0130
,
0100
0010
0100
0010
,
0012
0010
0010
0013
,
1000
0010
1000
0010
,
0120
0100
0100
0130
,
1000
0001
1000
0001
,
1002
1000
1000
1003
,
0100
1000
0100
0010
,
0100
0000
0010
0100
1000
0000
1000
0000
,
0100
0000
0010
0001
0100
0000
0010
0000
,
0100
0110
0001
1001
,
0110
0000
0010
0000
0100
0000
0100
0010
,
0002
1000
1000
1003
,
0020
1000
1000
1030
,
0200
0010
0010
0310
,
0010
0000
0100
0000
0110
0000
1000
0100
,
2000
0001
0001
3001
,
2000
0001
0001
3001
,
0020
0100
0100
0130
,
1000
1100
0010
0100
,
1001
0010
1001
0010
,
0110
0010
0011
0010
,
0100
0100
0100
0100
,
0010
1000
0010
1000
,
0100
0100
0100
0100
,
0001
0010
0001
0010
,
1000
1000
1000
1000
,
0010
0000
0000
0000
;

//---------------dance-single - ----------------
#NOTES:
     dance-single:
     :
     Hard:
     7:
     0.401,0.363,0.000,0.257,0.122,208.000,0.000,21.000,0.000,0.000,0.000,0.401,0.363,0.000,0.257,0.122,208.000,0.000,21.000,0.000,0.000,0.000:
0000
0000
0000
0000
,
0000
0000
0000
0000
,
1000
0100
1000
0000
0010
0001
0010
0000
,
0100
0010
0100
0000
0010
1000
0010
0000
,
0100
0010
0100
0000
0001
0010
0001
0000
,
0100
0010
0100
0000
0010
0001
0010
0000
,
0100
0100
0100
0000
0010
1000
1000
0000
,
0100
0100
0010
0000
0001
0100
0100
0000
,
0010
1000
1000
0000
0100
0010
0010
0000
,
0100
0001
1000
0000
0010
1000
0100
1000
,
0010
0000
0000
0000
0100
0000
0000
0000
0010
0000
0000
0010
0000
0000
0010
0000
,
0010
0100
1000
0000
0100
0010
0001
0000
,
1000
0010
0100
0001
0100
0010
1000
0100
,
0001
0001
0010
0000
0100
0100
0100
0000
,
0010
0000
1000
0000
0100
0000
0000
0000
0010
0000
0000
0010
0000
0000
0010
0000
,
0100
0001
0001
0000
1000
0010
1000
0000
,
0100
0010
0100
0010
0001
0010
0001
0010
,
0100
0000
0000
0000
1000
0000
0000
0000
0100
0000
0000
0010
0000
0001
0000
0000
,
0100
0000
0000
0010
0000
1000
0000
0001
0000
0000
0000
0010
0000
0010
0000
0000
,
0100
0000
0000
0010
0000
0001
0000
1000
0000
0000
0010
0000
0100
0000
0010
0000
,
1000
0000
0000
1000
0000
0000
0100
0000
0010
0000
0000
0010
0000
0000
0001
0000
,
1000
0100
1000
0010
0100
0000
0001
0100
,
2000
0000
0010
0000
0010
0000
3010
0001
,
0020
0000
0100
0000
0100
0000
0130
1000
,
0002
0000
1000
0000
1000
0000
1003
0010
,
0200
0000
0310
0000
0002
0000
1003
0010
,
0200
0000
0010
0000
0010
0000
0310
0001
,
2000
0000
0001
0000
0001
0000
3001
0010
,
0200
0000
0010
0000
0010
0000
0310
0001
,
2000
3010
0002
0103
,
2000
3002
0023
0032
,
2003
3002
2003
3002
,
0203
0000
0000
0000
0310
0000
0100
0010
0000
0000
0010
0000
0001
0000
1000
0000
,
0010
0000
0000
0010
0000
0000
0010
0000
0000
0010
0100
0000
0010
0000
1000
0000
,
0002
0000
0000
0000
0103
0000
1000
0100
0000
0000
0100
0000
0010
0000
1000
0000
,
0001
0000
0000
0001
0000
0000
0001
0000
0100
0000
1000
0000
0010
0000
1000
0000
,
0002
0000
0000
0000
1003
0000
0100
1000
0000
0000
0010
0000
0010
0000
0100
0000
,
0001
0000
0000
0000
;

//---------------dance-single - ----------------
#NOTES:
     dance-single:
     :
     Beginner:
     1:
     0.063,0.068,0.000,0.000,0.000,36.000,0.000,0.000,0.000,0.000,0.000,0.063,0.068,0.000,0.000,0.000,36.000,0.000,0.000,0.000,0.000,0.000: // measure 1
0000
0000
0000
0000
,  // measure 2
0000
0000
0000
0000
,  // measure 3
1000
0000
0000
0000
,  // measure 4
0000
0000
0000
0000
,  // measure 5
0001
0000
0000
0000
,  // measure 6
0000
0000
0000
0000
,  // measure 7
1000
0000
0000
0000
,  // measure 8
0000
0000
0000
0000
,  // measure 9
0001
0000
0000
0000
,  // measure 10
0000
0000
0000
0000
,  // measure 11
0001
0000
0001
0000
,  // measure 12
0001
0000
0000
0000
,  // measure 13
1000
0000
1000
0000
,  // measure 14
1000
0000
0000
0000
,  // measure 15
0001
0000
0001
0000
,  // measure 16
0001
0000
0000
0000
,  // measure 17
1000
0000
1000
0000
,  // measure 18
1000
0000
0000
0000
,  // measure 19
0001
0000
0000
0000
,  // measure 20
1000
0000
0000
0000
,  // measure 21
0001
0000
0000
0000
,  // measure 22
0000
0000
0000
0000
,  // measure 23
1000
0000
0000
0000
,  // measure 24
1000
0000
0000
0000
,  // measure 25
0001
0000
0000
0000
,  // measure 26
0001
0000
0000
0000
,  // measure 27
1000
0000
0000
0000
,  // measure 28
1000
0000
0000
0000
,  // measure 29
0001
0000
0000
0000
,  // measure 30
0001
0000
0000
0000
,  // measure 31
1000
0000
0000
0000
,  // measure 32
0000
0000
0000
0000
,  // measure 33
0001
0000
0000
0000
,  // measure 34
0001
0000
0001
0000
,  // measure 35
1000
0000
0000
0000
,  // measure 36
1000
0000
1000
0000
,  // measure 37
0001
0000
0000
0000
,  // measure 38
0001
0000
0000
0000
;
