#TITLE:BUTTERFLY (feat. Scott Valery);
#SUBTITLE:;
#ARTIST:SMiLE.dk;
#TITLETRANSLIT:;
#SUBTITLETRANSLIT:;
#ARTISTTRANSLIT:;
#GENRE:;
#CREDIT:;
#BANNER:BUTTERFLY (feat. Scott Valery).png;
#BACKGROUND:BUTTERFLY (feat. Scott Valery)-bg.png;
#LYRICSPATH:;
#CDTITLE:.\CDTITLES\DDRMAX6.PNG;
#MUSIC:BUTTERFLY (feat. Scott Valery).ogg;
#OFFSET:0.060;
#SAMPLESTART:56.760;
#SAMPLELENGTH:15.000;
#SELECTABLE:YES;
#DISPLAYBPM:135.000;
#BPMS:0.000=135.000,124.000=138.000,128.000=135.000;
#STOPS:;
#BGCHANGES:;
#KEYSOUNDS:;

//---------------dance-single - ----------------
#NOTES:
     dance-single:
     :
     Easy:
     3:
     0.267,0.274,0.300,0.000,0.000,136.000,26.000,0.000,0.000,0.000,0.000,0.267,0.274,0.300,0.000,0.000,136.000,26.000,0.000,0.000,0.000,0.000:
0000
0000
0000
0000
,
0000
0000
0000
0000
,
0000
0000
0000
0000
,
0000
0000
0000
0000
,
0000
0000
0000
0000
,
0000
0000
0000
0000
,
0000
0000
0000
0000
,
0000
0000
0000
0000
,
1000
0100
1000
0100
,
0010
0001
0010
0001
,
0100
1000
0100
1000
,
0001
0010
0001
0010
,
1000
0100
1000
0100
,
0001
0010
0001
0010
,
1000
0100
1000
0100
,
0010
0001
0010
0001
,
0000
1000
0100
1000
,
0000
0010
0100
0010
,
0000
0001
0010
0100
,
1000
0010
0110
0000
,
0000
0001
0010
0100
,
0000
1000
0010
0100
,
0000
0001
1000
0010
,
1000
0001
1001
0000
,
0010
0100
0110
0000
,
0001
1000
1001
0000
,
0010
0100
1000
0100
,
0010
0001
1001
0000
,
0010
0100
0110
0000
,
1000
0001
1001
0000
,
0010
0100
0010
0100
,
1000
0001
1001
0000
,
0110
0010
0110
0000
,
1001
1000
1001
0000
,
0110
0010
0110
0000
,
1001
1000
1001
0000
,
0110
0010
0110
0000
,
1001
1000
1001
0000
,
0110
0010
0110
0000
,
1001
1000
1001
0000
,
0010
0100
0100
0100
,
1000
0010
0010
0010
,
0100
0001
0001
0001
,
1000
0010
0110
0000
,
0100
0001
0001
0001
,
0100
0010
0010
0010
,
1000
0100
0100
0100
,
0010
1000
1001
0000
;

//---------------dance-single - ----------------
#NOTES:
     dance-single:
     :
     Medium:
     4:
     0.298,0.301,0.288,0.000,0.000,156.000,25.000,0.000,0.000,0.000,0.000,0.298,0.301,0.288,0.000,0.000,156.000,25.000,0.000,0.000,0.000,0.000:
0000
0000
0000
0000
,
0000
0000
0000
0000
,
0000
0000
0000
0000
,
0000
0000
0000
0000
,
0000
0000
0000
0000
,
0000
0000
0000
0000
,
0000
0000
0000
0000
,
0000
0000
0000
0000
,
1000
0100
0010
0001
,
1000
0100
0010
0001
,
1000
0100
0010
0001
,
1000
0100
0010
0001
,
1000
0100
0010
0001
,
1000
0100
0010
0001
,
1000
0100
0010
0001
,
1000
0100
0010
0001
,
1010
0100
0100
0100
,
0011
0100
0100
0100
,
0110
1000
1000
1000
,
0010
0001
1001
0000
,
1010
1000
1000
1000
,
0110
0100
0100
0100
,
0011
0010
0010
0010
,
1000
0001
1001
0010
,
1000
0100
0010
0001
,
1000
0100
0010
0001
,
0100
0001
0100
0001
,
1000
0001
1001
0010
,
1000
0100
0010
0001
,
1000
0100
0010
0001
,
0100
1000
0100
1000
,
0001
1000
1001
0000
,
0010
0010
0010
0100
,
0001
0001
0001
1100
,
0010
0010
0010
0100
,
0001
1000
1001
0011
,
0100
0100
0100
0010
,
1000
1000
1000
1010
,
0100
0100
0100
0010
,
0011
1100
0110
0100
,
1010
0010
0010
0010
,
0110
0001
0001
0001
,
1001
0010
0010
0010
,
1000
0010
0011
0000
,
0110
0100
0100
0100
,
1100
0010
0010
0010
,
0110
0001
0001
0001
,
1000
0010
0011
0000
;

//---------------dance-single - ----------------
#NOTES:
     dance-single:
     :
     Hard:
     6:
     0.344,0.356,0.438,0.000,0.000,171.000,38.000,0.000,0.000,0.000,0.000,0.344,0.356,0.438,0.000,0.000,171.000,38.000,0.000,0.000,0.000,0.000:
0000
0000
0000
0000
,
0000
0000
0000
0000
,
0000
0000
0000
0000
,
0000
0000
0000
0000
,
0000
0000
0000
0000
,
0000
0000
0000
0000
,
0000
0000
0000
0000
,
0000
0000
0000
0000
,
1010
1000
0010
0100
,
0110
0010
0001
0010
,
0110
0010
0100
0010
,
1100
0100
0010
0100
,
0110
0010
0001
0010
,
1010
0010
1000
0010
,
0110
0010
0100
0010
,
0011
0010
0100
0010
,
1010
1000
1000
1000
,
1100
0100
0100
0100
,
0110
0010
0010
0010
,
0001
0010
0001
0010
0001
0000
0000
0000
,
1010
0010
0010
0010
,
0110
0010
0010
0010
,
0011
0010
0010
0010
,
1000
0010
1000
0001
0100
0000
0010
1000
,
0100
0100
0010
1001
,
0010
0010
0100
1100
,
0010
0100
1000
0100
,
0010
0100
0010
0100
0010
0000
0001
0000
,
1001
0001
0001
0001
,
0101
0100
0100
0100
,
0110
1010
0110
0011
,
0001
1000
0001
1000
0010
0000
0000
0000
,
1100
1000
1100
0010
,
0011
0001
0011
0010
,
0110
0010
0110
0110
,
1000
0001
1000
0010
1000
0000
0000
0000
,
0011
0010
0010
0010
,
0110
0100
0100
0100
,
1100
0100
0100
0100
,
0010
0100
0010
0100
0001
0000
0000
0000
,
1001
1000
1000
1000
,
1010
0010
0010
0010
,
0011
0010
0010
0010
,
0100
0010
0100
0010
0100
0000
0000
0000
,
1010
0010
0010
0010
,
0011
0010
0010
0010
,
0110
0010
0010
0010
,
1000
0001
1000
0001
1000
0000
0000
0000
;

//---------------dance-single - ----------------
#NOTES:
     dance-single:
     :
     Challenge:
     8:
     0.497,0.493,0.346,0.000,0.092,272.000,30.000,0.000,0.000,0.000,0.000,0.497,0.493,0.346,0.000,0.092,272.000,30.000,0.000,0.000,0.000,0.000:
0000
0000
0000
0000
,
0000
0000
0000
0000
,
0000
0000
0000
0000
,
0000
0000
0000
0000
,
0000
0000
0000
0000
,
0000
0000
0000
0000
,
0000
0000
0000
0000
,
0000
0000
0000
0000
,
1000
0000
0010
0000
1000
0000
0100
0010
0000
0010
0100
0000
0010
0000
0100
0000
,
0001
0000
0100
0000
0001
0000
0010
0100
0000
0100
0010
0000
0100
0000
1000
0000
,
0100
0000
0010
0000
0100
0000
0001
0100
0000
0100
0001
0000
0100
0000
0010
0000
,
0100
0000
1000
0000
0100
0000
0010
0100
0000
0100
0010
0000
0001
0000
0010
0000
,
0100
0000
1000
0000
0100
0000
0010
1000
0000
1000
0010
0000
0100
0000
0010
0000
,
0001
0000
0100
0000
0010
0000
1000
0001
0000
0001
1000
0000
1000
0000
0010
0000
,
0100
0000
0001
0000
0100
0000
0100
0010
0000
0010
0100
0000
0100
0000
1000
0000
,
0010
0000
1000
0000
0100
0000
0010
0100
0000
0100
0010
0000
0010
0000
0001
0000
,
1000
0100
0010
0100
0010
0100
0010
0000
,
0001
0100
0010
0100
0010
0100
0010
0000
,
1000
0100
0010
0100
0010
0100
0010
0100
,
1000
0100
0010
0001
1001
0000
0000
0000
,
0010
0100
1000
0100
1000
0100
1000
0000
,
0010
0100
0001
0100
0001
0100
0001
0000
,
1000
0010
0100
0010
0100
0010
0100
0000
,
0001
0010
0100
1000
0010
0000
0100
0010
,
0001
1000
0100
0010
0110
0000
0001
0000
,
1000
0100
1000
0100
0110
0000
0001
0000
,
1100
0110
0011
0101
,
0010
1000
0100
1000
1010
0000
1000
0000
,
0100
0010
0100
0010
0110
0000
0001
0000
,
0010
1000
0010
1000
1010
0000
0010
0000
,
0110
0011
1001
0110
,
1000
0100
0010
0001
1001
0000
0000
0000
,
0011
0000
0011
0000
0011
0000
0010
0100
,
1000
0100
0010
1000
0001
1000
0010
0100
,
1100
0000
1100
0000
1100
0000
0010
0100
,
0010
1000
0100
0010
0100
0001
0100
0010
,
0011
0000
0011
0000
0011
0000
0010
0100
,
0010
0100
1000
0100
1000
0010
1000
0100
,
0110
0000
0110
0000
0110
0000
0010
1000
,
0100
0010
0001
1000
1001
0000
0000
0000
,
0010
1000
0100
1000
0100
1000
0010
0000
,
0100
0001
0010
0001
0010
0001
0100
0000
,
1000
0010
0100
0010
0100
0010
1000
0100
,
0010
0001
1000
0001
1001
0000
0000
0000
,
0010
1000
0100
1000
0100
1000
0100
0000
,
0001
0100
0010
0100
0010
0100
0010
0000
,
1000
0001
0100
0001
0100
0001
0100
0000
,
1000
0010
0100
0001
1001
0000
0000
0000
;

//---------------dance-single - ----------------
#NOTES:
     dance-single:
     :
     Beginner:
     1:
     0.165,0.164,0.000,0.000,0.000,100.000,0.000,0.000,0.000,0.000,0.000,0.165,0.164,0.000,0.000,0.000,100.000,0.000,0.000,0.000,0.000,0.000: // measure 1
0000
0000
0000
0000
,  // measure 2
0000
0000
0000
0000
,  // measure 3
0000
0000
0000
0000
,  // measure 4
0000
0000
0000
0000
,  // measure 5
0000
0000
0000
0000
,  // measure 6
0000
0000
0000
0000
,  // measure 7
0000
0000
0000
0000
,  // measure 8
0000
0000
0000
0000
,  // measure 9
1000
1000
1000
0000
,  // measure 10
0010
0010
0010
0000
,  // measure 11
0100
0100
0100
0000
,  // measure 12
0001
0001
0001
0000
,  // measure 13
0010
0010
0010
0000
,  // measure 14
0100
0100
0100
0000
,  // measure 15
1000
1000
1000
0000
,  // measure 16
0010
0010
0010
0000
,  // measure 17
0100
0000
0100
0000
,  // measure 18
0010
0000
0010
0000
,  // measure 19
0001
0000
0001
0000
,  // measure 20
0010
0010
0010
0000
,  // measure 21
0100
0000
0100
0000
,  // measure 22
1000
0000
1000
0000
,  // measure 23
0010
0000
0010
0000
,  // measure 24
0001
0001
0001
0000
,  // measure 25
0010
0010
0010
0000
,  // measure 26
0100
0100
0100
0000
,  // measure 27
1000
0000
1000
0000
,  // measure 28
0010
0010
0010
0000
,  // measure 29
0100
0100
0100
0000
,  // measure 30
0001
0001
0001
0000
,  // measure 31
1000
0000
0010
0000
,  // measure 32
0100
0100
0100
0000
,  // measure 33
0010
0000
0010
0000
,  // measure 34
0001
0000
0001
0000
,  // measure 35
1000
0000
1000
0000
,  // measure 36
0100
0100
0100
0000
,  // measure 37
0010
0000
0010
0000
,  // measure 38
1000
0000
1000
0000
,  // measure 39
0100
0000
0100
0000
,  // measure 40
0010
0010
0010
0000
,  // measure 41
0100
0000
0100
0000
,  // measure 42
0010
0000
0010
0000
,  // measure 43
0001
0000
0001
0000
,  // measure 44
0010
0010
0010
0000
,  // measure 45
0100
0000
0100
0000
,  // measure 46
1000
0000
1000
0000
,  // measure 47
0010
0000
0010
0000
,  // measure 48
0100
0100
0100
0000
;
