#TITLE:BOTEN ANNA;
#SUBTITLE:;
#ARTIST:BASSHUNTER;
#TITLETRANSLIT:;
#SUBTITLETRANSLIT:;
#ARTISTTRANSLIT:;
#GENRE:;
#CREDIT:;
#BANNER:BOTEN ANNA.png;
#BACKGROUND:BOTEN ANNA-bg.png;
#LYRICSPATH:;
#CDTITLE:./CDTITLES/The Witch's Bakery Lunne Bonus.PNG;
#MUSIC:BOTEN ANNA.ogg;
#OFFSET:1.074;
#SAMPLESTART:15.436;
#SAMPLELENGTH:15.000;
#SELECTABLE:YES;
#DISPLAYBPM:140.000;
#BPMS:0.000=140.000;
#STOPS:;
#BGCHANGES:;
#KEYSOUNDS:;

//---------------dance-single - ----------------
#NOTES:
     dance-single:
     :
     Easy:
     1:
     0.080,0.115,0.000,0.000,0.000,51.000,0.000,0.000,0.000,0.000,0.000,0.080,0.115,0.000,0.000,0.000,51.000,0.000,0.000,0.000,0.000,0.000:
0000
0000
0000
0000
,
0000
0000
0000
0000
,
0000
0000
0000
0000
,
0000
0000
0000
0000
,
0000
0000
0000
0000
,
0000
0000
0000
0000
,
0000
0000
0000
0000
,
0000
0000
0000
0000
,
0000
0000
0000
0000
,
0000
0000
0000
0000
,
1000
0000
1000
0000
,
0010
0000
0100
0000
,
0010
0000
0010
0000
,
0001
0000
0100
0000
,
0010
0000
0010
0000
,
1000
0000
0100
0000
,
1000
0000
1000
0000
,
0010
0000
0100
0000
,
0001
0000
0000
0000
,
1000
0000
0000
0000
,
0001
0000
0000
0000
,
1000
0000
0000
0000
,
0001
0000
0000
0000
,
0010
0000
0000
0000
,
0100
0000
0000
0000
,
0010
0000
0000
0000
,
0100
0000
0000
0000
,
1000
0000
0000
0000
,
0010
0000
0000
0000
,
0100
0000
0000
0000
,
1000
0000
0000
0000
,
0010
0000
0000
0000
,
0100
0000
0000
0000
,
0001
0000
0000
0000
,
0010
0000
0000
0000
,
0100
0000
0000
0000
,
1000
0000
0000
0000
,
0010
0000
0000
0000
,
0100
0000
0000
0000
,
0001
0000
0000
0000
,
0010
0000
0000
0000
,
0100
0000
0000
0000
,
1000
0000
0000
0000
,
0010
0000
0000
0000
,
0100
0000
0000
0000
,
0010
0000
0000
0000
,
0001
0000
0000
0000
,
1000
0000
0000
0000
,
0010
0000
0000
0000
,
0100
0000
0000
0000
,
0001
0000
0000
0000
,
0010
0000
0000
0000
,
1000
0000
0000
0000
;

//---------------dance-single - ----------------
#NOTES:
     dance-single:
     :
     Beginner:
     1:
     0.036,0.057,0.000,0.000,0.000,23.000,0.000,0.000,0.000,0.000,0.000,0.036,0.057,0.000,0.000,0.000,23.000,0.000,0.000,0.000,0.000,0.000:
0000
0000
0000
0000
,
0000
0000
0000
0000
,
0000
0000
0000
0000
,
0000
0000
0000
0000
,
0000
0000
0000
0000
,
0000
0000
0000
0000
,
0000
0000
0000
0000
,
0000
0000
0000
0000
,
0000
0000
0000
0000
,
0000
0000
0000
0000
,
0001
0000
0000
0000
,
0000
0000
0000
0000
,
0001
0000
0000
0000
,
0000
0000
0000
0000
,
1000
0000
0000
0000
,
0000
0000
0000
0000
,
1000
0000
0000
0000
,
0000
0000
0000
0000
,
0010
0000
0000
0000
,
1000
0000
0000
0000
,
0000
0000
0000
0000
,
0001
0000
0000
0000
,
0000
0000
0000
0000
,
1000
0000
0000
0000
,
0000
0000
0000
0000
,
0010
0000
0000
0000
,
0000
0000
0000
0000
,
0100
0000
0000
0000
,
0001
0000
0000
0000
,
0000
0000
0000
0000
,
1000
0000
0000
0000
,
0000
0000
0000
0000
,
0010
0000
0000
0000
,
0000
0000
0000
0000
,
0100
0000
0000
0000
,
0000
0000
0000
0000
,
0001
0000
0000
0000
,
0000
0000
0000
0000
,
0010
0000
0000
0000
,
0000
0000
0000
0000
,
1000
0000
0000
0000
,
0000
0000
0000
0000
,
0100
0000
0000
0000
,
0000
0000
0000
0000
,
0001
0000
0000
0000
,
0000
0000
0000
0000
,
0010
0000
0000
0000
,
0000
0000
0000
0000
,
0100
0000
0000
0000
,
0000
0000
0000
0000
,
1000
0000
0000
0000
,
0000
0000
0000
0000
,
0001
0000
0000
0000
;

//---------------dance-single - ----------------
#NOTES:
     dance-single:
     :
     Medium:
     3:
     0.174,0.201,0.221,0.000,0.000,90.000,20.000,0.000,0.000,0.000,0.000,0.174,0.201,0.221,0.000,0.000,90.000,20.000,0.000,0.000,0.000,0.000:
0000
0000
0000
0000
,
0000
0000
0000
0000
,
0000
0000
0000
0000
,
0000
0000
0000
0000
,
0000
0000
0000
0000
,
0000
0000
0000
0000
,
0000
0000
0000
0000
,
0000
0000
0000
0000
,
0000
0000
0000
0000
,
0000
0000
0000
0000
,
1000
1000
0000
0000
,
0010
0010
0000
0000
,
0001
0001
0000
0000
,
0100
0100
0000
0000
,
0010
0010
0000
0000
,
1000
1000
0000
0000
,
0100
0100
0000
0000
,
0001
0100
1000
0010
,
1000
0000
0000
0000
,
1001
0000
0010
0000
,
0110
0000
1000
0000
,
1001
0000
0010
0000
,
0110
0000
0010
0000
,
1001
0000
0010
0000
,
0110
0000
0010
0000
,
1001
0000
0100
0000
,
0110
0000
0001
0000
,
1000
0100
0010
0001
,
1000
0000
1001
0000
,
0010
0000
0110
0000
,
1000
0000
1001
0000
,
0010
0000
0110
0000
,
1000
0000
1001
0000
,
0010
0000
0110
0000
,
1000
0000
1001
0000
,
0010
0000
0110
0000
,
1000
0000
1000
0000
,
0100
0000
0100
0000
,
0001
0000
0001
0000
,
0010
0000
0010
0000
,
0100
0000
0100
0000
,
1000
0000
1000
0000
,
0010
0000
0010
0000
,
0001
0100
1000
0010
,
0100
0000
0110
0000
,
1000
0000
1001
0000
,
0010
0000
0100
0000
,
0010
0000
1000
0000
,
0010
0000
0110
0000
,
0001
0000
1001
0000
,
0010
0000
0100
0000
,
1000
0000
0010
0000
,
0100
0000
0000
0000
;

//---------------dance-single - ----------------
#NOTES:
     dance-single:
     :
     Hard:
     5:
     0.303,0.402,0.199,0.044,0.039,170.000,18.000,4.000,0.000,0.000,0.000,0.303,0.402,0.199,0.044,0.039,170.000,18.000,4.000,0.000,0.000,0.000:
0000
0000
0000
0000
,
0000
0000
0000
0000
,
0000
0000
0000
0000
,
0000
0000
0000
0000
,
0000
0000
0000
0000
,
0000
0000
0000
0000
,
0000
0000
0000
0000
,
0000
0000
0000
0000
,
0000
0000
0000
0000
,
0000
0000
0000
0000
0000
0000
0000
0000
1000
0100
0000
0010
,
0001
0001
0010
0010
,
0001
0001
0100
0100
,
0010
0010
1000
1000
,
0100
0100
0010
0010
,
0001
0001
0100
0100
,
0010
0010
1000
1000
,
0100
0100
0010
0010
,
0001
1001
0010
1010
,
0101
0000
0000
0000
,
0001
0100
1000
1000
,
1000
0100
0001
0001
,
0001
0010
0100
0100
,
0100
1000
0010
0010
,
0010
0001
0100
0100
,
0100
0010
1000
1000
,
1000
0100
0001
0001
,
0001
0100
0010
0010
,
1000
0001
0000
1000
0000
0100
0000
0010
0000
0000
0000
0000
,
0001
0010
0001
0001
,
0001
0010
0001
0001
,
0001
1000
0100
0100
,
0100
0010
0100
0100
,
0100
0001
0010
0010
,
0010
0100
1000
1000
,
1000
0010
0100
0100
,
0100
0001
0010
0010
,
0010
0100
1000
1000
,
1000
0100
0001
0001
,
0001
0010
0100
0100
,
0100
1000
0010
0010
,
0010
0100
0001
0001
,
0001
0100
0010
0010
,
0010
0100
1000
1000
,
0001
0000
0000
1000
0000
0100
0000
0010
0000
0000
0000
0000
,
0011
1010
0010
0010
,
1010
0011
0001
0001
,
0011
0110
0100
0100
,
1100
0110
0010
0010
,
1002
0103
1000
1000
,
1200
0310
0001
0100
,
1002
0013
0100
0100
,
0120
0031
1100
0110
,
1001
0000
0000
0000
;

//---------------dance-single - ----------------
#NOTES:
     dance-single:
     :
     Challenge:
     7:
     0.399,0.459,0.243,0.442,0.199,191.000,22.000,40.000,0.000,0.000,0.000,0.399,0.459,0.243,0.442,0.199,191.000,22.000,40.000,0.000,0.000,0.000: // measure 1
0000
0000
0000
0000
,  // measure 2
0000
0000
0000
0000
,  // measure 3
0000
0000
0000
0000
,  // measure 4
0000
0000
0000
0000
,  // measure 5
0000
0000
0000
0000
,  // measure 6
0000
0000
0000
0000
,  // measure 7
0000
0000
0000
0000
,  // measure 8
0000
0000
0000
0000
,  // measure 9
0000
0000
0000
0000
,  // measure 10
0000
0000
0000
0000
0000
0000
0000
0000
1000
0100
0000
0010
,  // measure 11
0001
0000
0000
0100
0000
0000
0100
0000
0100
0010
0000
0010
,  // measure 12
1000
0000
0100
0000
0000
1000
0000
0000
0010
0100
0000
1000
,  // measure 13
0001
0000
0000
0010
0000
0000
0010
0000
0000
0001
0000
0001
,  // measure 14
0100
0000
0000
0010
0000
1000
0000
0000
0100
0010
0000
0001
,  // measure 15
1000
0000
0000
0010
0000
0000
1000
0000
0100
1000
0000
0010
,  // measure 16
0100
0000
0000
0001
0000
1000
0000
0000
0100
0010
0000
0100
,  // measure 17
0000
0000
0001
0000
0000
0000
0010
0000
0000
1000
0000
0010
,  // measure 18
0100
0000
0010
1000
0000
0100
0000
0000
0010
1000
0000
0001
,  // measure 19
0000
0000
0000
0000
,  // measure 20
0012
1003
0100
1000
,  // measure 21
1020
0130
0001
1000
,  // measure 22
0102
1003
0010
1000
,  // measure 23
0120
0031
1000
0001
,  // measure 24
1020
0130
0001
1000
,  // measure 25
0201
0310
1000
0001
,  // measure 26
0012
1003
0100
1000
,  // measure 27
0210
0310
1000
0001
,  // measure 28
1000
0100
0000
0010
0000
1000
0000
0001
0000
0000
0000
0000
,  // measure 29
0002
0203
2300
3020
,  // measure 30
0230
0302
2003
3020
,  // measure 31
0230
0302
2003
3020
,  // measure 32
0230
0302
2003
3020
,  // measure 33
0230
0302
2003
3020
,  // measure 34
0230
0302
2003
3020
,  // measure 35
0230
0302
2003
3020
,  // measure 36
0230
0302
2003
3002
,  // measure 37
1003
1100
0100
0110
,  // measure 38
0010
0011
0001
0101
,  // measure 39
0100
0110
0010
1010
,  // measure 40
0010
0110
0010
0011
,  // measure 41
0001
0101
0100
0110
,  // measure 42
0010
1010
0010
0110
,  // measure 43
0100
1100
0100
0110
,  // measure 44
0010
0000
0000
0001
0000
1000
0000
0010
0000
0000
0000
0000
,  // measure 45
0100
0000
0010
0100
0000
0000
0010
0000
0000
1000
0000
0000
,  // measure 46
0001
0000
1000
0001
0000
0000
0010
0000
0000
0100
0000
0000
,  // measure 47
1000
0000
0010
0100
0000
0000
1000
0000
0000
0001
0000
0000
,  // measure 48
0100
0000
0010
1000
0000
0000
0100
0000
0000
0001
0000
0000
,  // measure 49
1000
0000
0010
0100
0000
0000
0001
0000
0000
1000
0000
0000
,  // measure 50
0010
0000
0100
0010
0000
0000
1000
0000
0000
0001
0000
0000
,  // measure 51
0100
0000
0010
1000
0000
0000
0100
0000
0000
0001
0000
0000
,  // measure 52
1000
0000
0100
0010
0000
0000
0001
0000
0000
0010
0000
0000
,  // measure 53
0100
0000
0000
0000
;
