#TITLE:Around The World;
#SUBTITLE:;
#ARTIST:Daft Punk;
#TITLETRANSLIT:;
#SUBTITLETRANSLIT:;
#ARTISTTRANSLIT:;
#GENRE:;
#CREDIT:;
#BANNER:Around The World.PNG;
#BACKGROUND:Around The World-bg.PNG;
#LYRICSPATH:;
#CDTITLE:./CDTITLES/The Witch's Bakery Lunne Bonus.PNG;
#MUSIC:Around The World.ogg;
#OFFSET:-0.006;
#SAMPLESTART:40.262;
#SAMPLELENGTH:12.000;
#SELECTABLE:YES;
#DISPLAYBPM:121.000;
#BPMS:0.000=121.300;
#STOPS:;
#BGCHANGES:;
#KEYSOUNDS:;

//---------------dance-single - ----------------
#NOTES:
     dance-single:
     :
     Easy:
     1:
     0.092,0.120,0.000,0.000,0.000,64.000,0.000,0.000,0.000,0.000,0.000,0.092,0.120,0.000,0.000,0.000,64.000,0.000,0.000,0.000,0.000,0.000:
0000
0000
0000
0000
,
0000
0000
0000
0000
,
0000
0000
0000
0000
,
0000
0000
0000
0000
,
1000
0000
0000
0000
,
1000
0000
0000
0000
,
1000
0000
0000
0000
,
1000
0000
0000
0000
,
0001
0000
0000
0000
,
0001
0000
0000
0000
,
0001
0000
0000
0000
,
0001
0000
0000
0000
,
1000
0000
0000
0000
,
0100
0000
0000
0000
,
1000
0000
0000
0000
,
0010
0000
0000
0000
,
1000
0000
0000
0000
,
0100
0000
0000
0000
,
1000
0000
0000
0000
,
0010
0000
0000
0000
,
0001
0000
0001
0000
,
0100
0000
0100
0000
,
0010
0000
0010
0000
,
1000
0000
1000
0000
,
0100
0000
0100
0000
,
0001
0000
0001
0000
,
0010
0000
0010
0000
,
0100
0000
0100
0000
,
1000
0000
0000
0000
,
1000
0000
0000
0000
,
0001
0000
0000
0000
,
0001
0000
0000
0000
,
0010
0000
0000
0000
,
0010
0000
0000
0000
,
0100
0000
0000
0000
,
0100
0000
0000
0000
,
1000
0000
0000
0000
,
1000
0000
0000
0000
,
0010
0000
0000
0000
,
1000
0100
0010
0001
,
1000
0000
1000
0000
,
0100
0000
0100
0000
,
0010
0000
0010
0000
,
0001
0000
0001
0000
,
0100
0000
0100
0000
,
0010
0000
0010
0000
,
0100
0000
0100
0000
,
1000
0000
1000
0000
,
0010
0000
0000
0000
;

//---------------dance-single - ----------------
#NOTES:
     dance-single:
     :
     Medium:
     3:
     0.222,0.193,0.140,0.000,0.000,141.000,14.000,0.000,0.000,0.000,0.000,0.222,0.193,0.140,0.000,0.000,141.000,14.000,0.000,0.000,0.000,0.000:
0000
0000
0000
0000
,
0000
0000
0000
0000
,
0000
0000
0000
0000
,
0000
0000
0000
0000
,
1000
1000
0100
0000
,
0010
0010
0010
0010
,
0001
0001
0100
0000
,
0010
0010
0010
0010
,
0100
0100
0010
0000
,
0001
0001
0001
0001
,
1000
1000
0010
0000
,
0100
0100
0100
0100
,
1000
1000
0100
0000
,
0010
0010
0010
0010
,
0001
0001
0100
0000
,
0010
0010
0010
0010
,
0100
0100
0010
0000
,
0001
0001
0001
0001
,
1000
1000
0001
0000
,
0010
0010
0010
0010
,
0100
0001
1000
0000
,
0010
1000
0001
0000
,
0100
0001
1000
0000
,
0010
1000
0001
0000
,
0100
0001
1000
0000
,
0010
1000
0001
0000
,
0100
0001
1000
0000
,
0010
1000
0001
0000
,
0100
0100
0100
0000
,
0010
0010
0010
0000
,
0001
0001
0001
0000
,
1000
1000
1000
0000
,
0010
0010
0010
0000
,
0100
0100
0100
0000
,
0001
0001
0001
0000
,
1000
0010
1001
0000
,
0010
0100
0110
0000
,
1000
0001
1001
0000
,
0010
0100
0110
0000
,
1000
0001
1000
0001
,
1001
0000
0110
0000
,
0100
0001
1001
0000
,
0100
0001
1001
0000
,
0010
1000
1001
0000
,
0010
0100
0110
0000
,
0010
1000
1001
0000
,
0010
0001
1001
0000
,
0010
0100
0110
0000
,
1001
0000
0000
0000
;

//---------------dance-single - ----------------
#NOTES:
     dance-single:
     :
     Beginner:
     1:
     0.066,0.048,0.010,0.000,0.000,45.000,1.000,0.000,0.000,0.000,0.000,0.066,0.048,0.010,0.000,0.000,45.000,1.000,0.000,0.000,0.000,0.000:
0000
0000
0000
0000
,
0000
0000
0000
0000
,
0000
0000
0000
0000
,
0000
0000
0000
0000
,
1000
0000
0000
0000
,
1000
0000
0000
0000
,
0010
0000
0000
0000
,
0010
0000
0000
0000
,
0001
0000
0000
0000
,
0001
0000
0000
0000
,
0100
0000
0000
0000
,
0100
0000
0000
0000
,
0010
0000
0000
0000
,
0010
0000
0000
0000
,
0100
0000
0000
0000
,
0100
0000
0000
0000
,
0001
0000
0000
0000
,
0001
0000
0000
0000
,
0010
0000
0000
0000
,
0010
0000
0000
0000
,
0100
0000
0000
0000
,
0100
0000
0000
0000
,
0010
0000
0000
0000
,
0010
0000
0000
0000
,
0001
0000
0000
0000
,
0001
0000
0000
0000
,
1000
0000
0000
0000
,
1000
0000
0000
0000
,
0010
0000
0000
0000
,
0010
0000
0000
0000
,
0100
0000
0000
0000
,
0100
0000
0000
0000
,
0010
0000
0000
0000
,
0010
0000
0000
0000
,
0001
0000
0000
0000
,
0001
0000
0000
0000
,
1000
0000
0000
0000
,
1000
0000
0000
0000
,
0010
0000
0000
0000
,
0010
0000
0000
0000
,
0100
0000
0000
0000
,
0100
0000
0000
0000
,
0010
0000
0000
0000
,
0010
0000
0000
0000
,
0001
0000
0000
0000
,
0001
0000
0000
0000
,
1000
0000
0000
0000
,
0001
0000
0000
0000
,
1001
0000
0000
0000
;

//---------------dance-single - ----------------
#NOTES:
     dance-single:
     :
     Hard:
     5:
     0.289,0.264,0.251,0.000,0.000,177.000,25.000,0.000,0.000,0.000,0.000,0.289,0.264,0.251,0.000,0.000,177.000,25.000,0.000,0.000,0.000,0.000:
0000
0000
0000
0000
,
0000
0000
0000
0000
,
0000
0000
0000
0000
,
0000
0000
0000
0000
,
1000
0000
0100
0000
1000
0000
0000
0010
,
0010
0010
1000
0100
,
1001
0000
0001
0000
0100
0000
0000
0010
,
0010
1000
0100
0010
,
0110
0000
0001
0000
1000
0000
0000
1000
,
1000
0100
1000
0010
,
0101
0000
0010
0000
1000
0000
0000
0010
,
0010
1000
0100
0010
,
1001
0000
0001
0000
0100
0000
0000
0010
,
0010
1000
0001
1000
,
1010
0000
0010
0000
0100
0000
0000
0010
,
0010
0100
0010
1000
,
1001
0000
0001
0000
0100
0000
0000
0010
,
0010
0100
0010
1000
,
1001
0000
0001
0000
0100
0000
0000
0010
,
0010
0100
0010
1000
,
0001
0000
0000
0010
0100
0000
1000
0100
,
0000
0010
0000
0001
0000
1000
0000
1001
,
0000
0000
0000
0001
0100
0000
0010
1000
,
0000
0100
0000
1000
0000
0010
0000
0110
,
0000
0000
0000
0010
0001
0000
0001
0100
,
0000
1000
0000
0010
0000
0100
0000
1001
,
0000
0000
0000
0010
0100
0000
1000
0001
,
0000
0100
0000
0010
0000
1000
0000
1001
,
0000
0000
0000
0010
0100
0000
0001
0100
,
0000
0010
0000
1000
0000
0100
0000
1001
,
0000
0000
0000
0010
0100
0000
0001
0100
,
0000
1000
0000
0010
0000
0100
0000
1001
,
0000
0000
0000
0010
1000
0000
0100
0001
,
0000
0100
0000
0010
0000
1000
0000
1001
,
0000
0000
0000
0010
0100
0000
0001
1000
,
0000
0010
0000
0100
0000
0001
0000
0011
,
0000
0011
0011
1000
,
0010
0110
0110
0001
,
0010
1100
1100
0010
,
0100
0001
1000
0010
,
1000
0000
0000
0001
0100
0000
1000
0010
,
0000
0100
0000
0001
0000
0010
0000
1001
,
0000
0000
0000
0010
0001
0000
0100
0010
,
0000
1000
0000
0001
0000
0100
0000
1001
,
0000
0000
0000
0010
0100
0000
1000
0001
,
0000
0100
0000
0010
0000
1000
0000
1001
,
0000
0000
0000
0100
0010
0000
1000
0001
,
0000
0010
0000
0100
0000
1000
0000
1001
;

//---------------dance-single - ----------------
#NOTES:
     dance-single:
     :
     Challenge:
     7:
     0.360,0.336,0.171,0.080,0.000,226.000,17.000,8.000,0.000,0.000,0.000,0.360,0.336,0.171,0.080,0.000,226.000,17.000,8.000,0.000,0.000,0.000:
0000
0000
0000
0000
,
0000
0000
0000
0000
,
0000
0000
0000
0000
,
0000
0000
0000
0000
,
1002
0000
0103
0000
1000
0000
0000
0010
,
0010
0100
1000
0100
0010
0100
0001
1000
,
1020
0000
0130
0000
0001
0000
0000
0001
,
0100
0010
0100
1000
0010
0100
1000
0100
,
0120
0000
0031
0000
0100
0000
0000
0010
,
1000
0100
1000
0010
0100
0001
1000
0010
,
0120
0000
0031
0000
0010
0000
0000
0010
,
1000
0001
0100
1000
0010
1000
0001
1000
,
0120
0000
1030
0000
0010
0000
0000
0010
,
1000
0100
1000
0010
0100
0001
0100
0001
,
1002
0000
0103
0000
0010
0000
0000
0010
,
0100
1000
0010
0100
0001
1000
0010
0100
,
1200
0000
0301
0000
0100
0000
0000
0010
,
1000
0001
0100
0010
1000
0100
0001
1000
,
1002
0000
0103
0000
1000
0000
0000
0010
,
1000
0100
1000
0010
0100
0001
1000
0010
,
0100
0000
0000
0010
0001
1000
0001
0100
,
0000
1000
0000
0010
0000
0100
0000
1001
,
0000
0000
0000
0010
0100
0001
1000
0010
,
0000
0100
0000
0001
0000
1000
0000
1001
,
0000
0000
0000
0010
0100
0001
1000
0001
,
0000
0100
0000
0010
0000
1000
0000
1001
,
0000
0000
0000
0010
0001
0100
0001
0100
,
0000
0010
0000
1000
0000
0001
0000
1001
,
0000
0000
0000
0010
0100
0001
1000
0001
,
0000
0100
0000
0010
0000
1000
0000
1001
,
0000
0000
0000
0010
0001
1000
0100
0010
,
0000
1000
0000
0001
0000
0100
0000
1001
,
0000
0000
0000
0010
0100
0001
1000
0001
,
0000
0100
0000
0010
0000
1000
0000
1001
,
0000
0000
0000
0010
0100
1000
0001
1000
,
0000
0010
0000
0100
0000
1000
0000
1001
,
0000
0000
0010
0000
0001
0000
0001
0010
,
0100
0000
0010
0000
0010
0000
1000
0010
,
0100
0001
0001
0010
,
0100
1000
0100
1000
0010
1000
0001
0000
,
0010
0000
0000
0100
0010
0100
0001
1000
,
0000
0010
0000
0100
0000
1000
0000
0010
,
0000
0000
0000
0010
0100
1000
0001
1000
,
0000
0100
0000
1000
0000
0010
0000
0100
,
0000
0000
0000
0010
0100
0001
1000
0001
,
0000
0100
0000
0010
0000
1000
0000
0001
,
0000
0000
0000
0100
0010
0001
1000
0100
,
0000
0010
0000
0001
0000
1000
0000
1001
;

//---------------dance-single - LUNNE----------------
#NOTES:
     dance-single:
     LUNNE:
     Edit:
     8:
     0.396,0.408,0.281,0.100,0.075,238.000,28.000,10.000,0.000,0.000,0.000,0.396,0.408,0.281,0.100,0.075,238.000,28.000,10.000,0.000,0.000,0.000: // measure 1
0000
0000
0000
0000
,  // measure 2
0000
0000
0000
0000
,  // measure 3
0000
0000
0000
0000
,  // measure 4
0000
0000
0000
0000
,  // measure 5
1100
0000
0000
0000
0120
0000
0000
0000
0031
0000
0000
0000
0000
0000
0001
0010
,  // measure 6
0001
0000
0010
0000
0100
0000
1000
0000
0100
0000
0010
0000
0001
0000
1000
0001
,  // measure 7
0000
0000
0000
0000
0120
0000
0000
0000
0031
0000
0000
0000
0000
0000
0010
1000
,  // measure 8
0010
0100
1000
0100
0010
0001
0010
0100
,  // measure 9
1001
0000
0000
0000
1020
0000
0000
0000
0130
0000
0000
0000
0000
0000
0010
0001
,  // measure 10
0010
0000
0100
0000
1000
0000
0100
0000
0010
0000
0001
0000
1000
0000
0100
0010
,  // measure 11
0000
0000
0000
0000
1002
0000
0000
0000
0103
0000
0000
0000
0000
0000
0010
1000
,  // measure 12
0010
0100
0001
0010
0100
1000
0100
0010
,  // measure 13
0101
0000
0000
0000
1002
0000
0000
0000
0013
0000
0000
0000
0000
0000
0010
1000
,  // measure 14
0001
0000
0100
0000
1000
0000
0100
0000
0010
0000
0001
0000
0010
0000
0100
1000
,  // measure 15
0000
0000
0000
0000
1002
0000
0000
0000
0103
0000
0000
0000
0000
0000
0010
1000
,  // measure 16
0010
1000
0100
1000
0100
0010
0001
0010
,  // measure 17
0110
0000
0000
0000
1002
0000
0000
0000
0013
0000
0000
0000
0000
0000
0010
1000
,  // measure 18
0010
0000
0100
0000
1000
0000
0100
0000
0010
0000
0001
0000
1000
0000
0100
0010
,  // measure 19
0000
0000
0000
0000
1002
0000
0000
0000
0013
0000
0000
0000
0000
0000
0010
1000
,  // measure 20
0010
0100
0001
1000
0010
1000
0100
1000
,  // measure 21
0001
0000
0000
0010
0001
0100
1000
0010
,  // measure 22
0000
0100
0000
1000
0000
0010
0000
1001
,  // measure 23
0000
0000
0000
0010
1000
0100
1000
0001
,  // measure 24
0000
0010
0000
0100
0000
1000
0000
1001
,  // measure 25
0000
0000
0000
0010
0100
1000
0010
0100
,  // measure 26
0000
0010
0000
0001
0000
1000
0000
1001
,  // measure 27
0000
0000
0000
0010
1000
0100
1000
0001
,  // measure 28
0000
0010
0000
0100
0000
1000
0000
1001
,  // measure 29
0000
0000
0000
0010
0100
1000
0010
0001
,  // measure 30
0000
1000
0000
0100
0000
1000
0000
1001
,  // measure 31
0000
0000
0000
0010
0100
1000
0010
0100
,  // measure 32
0000
0001
0000
1000
0000
0010
0000
1001
,  // measure 33
0000
0000
0000
0010
1000
0100
1000
0001
,  // measure 34
0000
0010
0000
0100
0000
1000
0000
1001
,  // measure 35
0000
0000
0000
0010
0100
1000
0010
0100
,  // measure 36
0000
0010
0000
1000
0000
0001
0000
1001
,  // measure 37
0000
0000
0000
0000
0120
0000
0000
0000
0031
0000
0000
0000
0010
0000
0100
0010
,  // measure 38
0100
0000
0000
0000
1020
0000
0000
0000
0130
0000
0000
0000
0001
0000
1000
0001
,  // measure 39
1000
0101
1010
0100
,  // measure 40
1000
0000
0100
0000
0010
0000
0001
0000
1000
0000
0100
0000
0010
0000
0100
0001
,  // measure 41
0100
0000
0000
0010
1000
0100
0010
0001
,  // measure 42
0000
0010
0000
0100
0000
1000
0000
1001
,  // measure 43
0000
0000
0000
0010
0001
0100
1000
0010
,  // measure 44
0000
0100
0000
1000
0000
0010
0000
1001
,  // measure 45
0000
0000
0000
0010
1000
0100
1000
0010
,  // measure 46
0000
1000
0000
0100
0000
0010
0000
0011
,  // measure 47
0000
0000
0000
0010
1000
0100
1000
0010
,  // measure 48
0000
1000
0000
0100
0000
0010
0000
1001
;
