#TITLE:Angel;
#SUBTITLE:;
#ARTIST:Laurent Newfield & Ravenant;
#TITLETRANSLIT:;
#SUBTITLETRANSLIT:;
#ARTISTTRANSLIT:;
#GENRE:;
#CREDIT:;
#BANNER:Angel.png;
#BACKGROUND:Angel-bg.png;
#LYRICSPATH:;
#CDTITLE:.\CDTITLES\DDRMAX6.PNG;
#MUSIC:Angel.ogg;
#OFFSET:-0.240;
#SAMPLESTART:56.680;
#SAMPLELENGTH:15.000;
#SELECTABLE:YES;
#DISPLAYBPM:170.000;
#BPMS:0.000=170.000;
#STOPS:;
#BGCHANGES:;
#KEYSOUNDS:;

//---------------dance-single - ----------------
#NOTES:
     dance-single:
     :
     Easy:
     3:
     0.182,0.277,0.134,0.000,0.000,145.000,17.000,0.000,0.000,0.000,0.000,0.182,0.277,0.134,0.000,0.000,145.000,17.000,0.000,0.000,0.000,0.000:
0000
0000
0000
0000
,
0000
0000
0000
0000
,
0000
0000
0000
0000
,
0000
0000
0000
0000
,
0010
0000
0000
0000
,
0000
0000
0000
0000
,
0100
0000
0000
0000
,
0000
0000
0000
0000
,
0010
0000
0010
0000
,
0010
0000
0010
0000
,
0100
0000
0100
0000
,
0100
0000
0100
0000
,
0001
0000
0001
0000
,
0001
0000
0001
0000
,
1000
0000
1000
0000
,
1000
0000
1000
0000
,
0000
0010
0100
0000
,
1000
0000
0010
0000
,
0000
0100
0001
0000
,
0010
0000
0100
0000
,
1000
0000
0010
0000
,
0010
0000
0010
0000
,
0100
0000
0100
0000
,
0001
0000
0001
0000
,
0000
0010
0100
0000
,
1000
0000
1000
0000
,
0000
0100
0010
0000
,
0100
0000
0100
0000
,
0001
0000
0010
0000
,
1001
0000
0010
0000
,
0110
0110
0000
0000
,
1001
1001
0000
0000
,
1000
0000
0000
0000
,
0000
0000
0000
0000
,
0001
0000
0000
0000
,
0000
0000
0010
0010
,
0010
0000
0100
0000
,
1000
0000
0100
0000
,
0010
0000
1000
0000
,
0010
0100
0110
0000
,
0001
0000
0000
0000
,
0000
0000
0000
0000
,
1000
0000
0000
0000
,
0000
0000
0000
0000
,
0100
0000
1001
0000
,
0010
0000
0110
0000
,
1000
0000
0100
0000
,
0010
0000
0001
0000
,
1000
1000
0100
0000
,
0010
0000
0010
0000
,
0001
0001
0100
0000
,
0010
0000
0010
0000
,
0100
0100
0010
0000
,
0010
0000
0010
0000
,
1000
1000
0001
0000
,
0100
0000
0100
0000
,
0010
0000
0010
0000
,
0100
0000
0100
0000
,
0001
0000
0001
0000
,
1000
0000
1000
0000
,
0010
0000
0100
0000
,
0001
0000
1000
0000
,
0110
0000
0000
0000
,
1001
0000
0000
0000
,
0010
0000
0000
0000
,
0000
0000
0000
0000
,
0100
0000
0000
0000
,
0000
0000
0000
0000
,
0010
0000
0010
0000
,
0100
0000
0100
0000
,
0010
0000
0010
0000
,
0100
0010
0110
0000
,
1001
0000
0001
0000
,
0110
0000
1000
0000
,
0110
0000
0001
0000
,
1001
0000
0010
0100
,
1000
0000
1000
0000
,
0010
0000
0010
0000
,
0100
0000
0010
0000
,
0110
0000
1001
0000
,
0010
0000
0010
0000
,
0100
0000
0000
0000
,
0100
0000
0100
0010
,
0000
0000
0000
0000
,
0001
0000
0000
0000
,
1000
0000
0000
0000
,
0010
0000
0000
0000
,
0000
0000
0000
0000
,
0010
0000
0000
0000
;

//---------------dance-single - ----------------
#NOTES:
     dance-single:
     :
     Hard:
     8:
     0.458,0.416,0.205,0.000,0.000,381.000,26.000,0.000,0.000,0.000,0.000,0.458,0.416,0.205,0.000,0.000,381.000,26.000,0.000,0.000,0.000,0.000:
0000
0000
0000
0000
,
0000
0000
0000
0000
,
0000
0000
0000
0000
,
0000
0000
0000
0000
,
1000
0000
0001
1000
0000
0010
0000
0100
,
0000
0010
0000
1000
0000
0000
0000
0000
,
0100
0000
0001
0100
0000
0010
0000
1000
,
0000
0100
0000
0010
0000
0001
0000
1000
,
0001
0000
0010
0000
0100
0000
0010
0100
,
0000
1000
0000
0010
0000
0100
0010
0100
,
0010
0000
1000
0000
0001
0000
0100
0010
,
0000
1000
0000
0001
0000
0100
0010
0100
,
0010
0000
1000
0000
0100
0000
0001
0010
,
0000
0100
0000
1000
0000
0010
1000
0010
,
1000
0000
0100
0000
0001
0000
1000
0010
,
0000
0100
0000
0010
0000
1000
0001
0000
,
0000
0000
0010
0100
0010
0100
0010
0100
,
0010
0000
1000
0001
0000
0100
0000
0010
,
0000
0000
0001
0010
0001
0010
0001
0010
,
0001
0000
0010
0100
0000
0010
0000
1000
,
0000
1000
0010
0100
,
0010
0000
1000
0000
0001
0000
0010
0110
,
0000
1001
0000
0000
0000
0000
0100
0110
,
0000
1001
0000
0000
0000
0000
0000
0000
,
1000
0000
0100
0010
0100
0010
0100
0010
,
0100
0000
0001
1000
0000
0010
0000
0100
,
0000
0000
0001
1000
0001
1000
0001
1000
,
0001
0000
0010
0100
0000
1000
0000
0010
,
0000
0100
0010
0100
,
0001
0000
0010
0000
0100
0000
1000
1001
,
0000
0110
0000
0000
0001
0000
1000
1010
,
0000
1001
0000
0000
0010
0100
0010
0100
,
0010
0000
1001
0000
,
0100
0000
0110
0000
,
0001
0000
1001
0000
,
0010
0000
0110
0110
,
0001
0000
1000
0010
0000
1000
0000
0100
,
0000
0010
0000
0001
0000
0010
0100
1000
,
0010
0000
1000
0001
0000
0100
0000
0010
,
0000
1000
0000
0001
0000
0100
0010
1000
,
0001
0000
0001
0000
0001
0000
0001
0010
,
0100
0000
0100
0000
0100
0000
0100
1000
,
0010
0000
0010
0000
0010
0000
0010
1000
,
0100
0100
0001
0010
,
1001
0000
1000
0001
0000
0100
0000
0010
,
0000
0100
0000
1000
0000
0001
0100
0010
,
0100
0000
1000
0010
0000
0100
0000
0001
,
0000
0010
0000
0100
0000
1000
0000
0001
,
1000
0000
0100
0000
1000
0000
0010
0100
,
0000
0001
0000
0100
0000
0010
1000
0010
,
1000
0000
0100
0000
0010
0000
1000
0001
,
0000
0100
0000
0010
0000
1000
0001
1000
,
0001
0000
0100
0000
0010
0000
1000
0010
,
0000
0100
0000
0001
0000
0010
0100
0010
,
0100
0000
0001
0000
0010
0000
0100
1000
,
0000
0010
0000
0100
0000
0001
0100
0000
,
0000
0000
0010
0100
0010
0100
0010
0100
,
0010
0000
1000
0001
0000
0100
0000
0010
,
0000
0000
1000
0010
1000
0010
1000
0010
,
1000
0000
0100
0001
0000
0100
0000
0010
,
0000
1000
0100
0001
,
0010
0000
0100
0000
1000
0000
0001
1001
,
0000
0110
0000
0000
0001
0000
1000
1001
,
0000
0110
0000
0000
1000
0001
1000
0001
,
1000
0000
1001
0000
,
0010
0000
0110
0000
,
0001
0000
0011
0000
,
0100
0000
1100
0110
,
0010
0000
0100
0001
0000
0100
0000
0010
,
0000
1000
0000
0001
0000
0010
0100
1000
,
0010
0000
0100
0001
0000
1000
0000
0010
,
0000
0100
0000
0001
0000
1000
0010
1000
,
0001
0000
0001
0000
0001
0000
0001
0100
,
0010
0000
0010
0000
0010
0000
0010
1000
,
0100
0000
0100
0000
0100
0000
0100
0010
,
0001
0001
0011
1100
,
0010
0000
0100
0010
0000
0100
0000
1000
,
0000
0010
0000
0100
0000
0001
1000
0000
,
0010
0000
0100
0110
0000
1000
0000
0010
,
0000
0100
0000
0001
0000
0010
0000
1000
,
0001
0000
1000
0000
0010
0000
1000
0001
,
0000
0100
0000
0010
0000
1000
0100
1000
,
0100
0000
0010
0000
0100
0000
0001
0100
,
0000
0010
0000
0100
0000
1000
0010
1000
,
0010
0000
0100
0000
0010
0000
0001
0010
,
0000
0100
0000
0010
0000
1000
0001
1000
,
0010
0000
0100
0000
0001
0000
1000
0010
,
0000
0100
0000
0001
0000
0010
0100
1000
,
0001
0000
0000
0000
;

//---------------dance-single - ----------------
#NOTES:
     dance-single:
     :
     Medium:
     6:
     0.367,0.416,0.291,0.031,0.000,285.000,37.000,4.000,0.000,0.000,0.000,0.367,0.416,0.291,0.031,0.000,285.000,37.000,4.000,0.000,0.000,0.000:
0000
0000
0000
0000
,
0000
0000
0000
0000
,
0000
0000
0000
0000
,
0000
0000
0000
0000
,
1000
0000
1000
0000
,
0010
0000
0010
0000
,
0100
0000
0100
0000
,
0010
0000
0010
0000
,
1000
1000
1100
1100
,
0010
0010
0011
0011
,
0010
0010
0110
0110
,
1000
1000
1100
1100
,
0010
0010
0011
0011
,
0010
0010
0110
0110
,
1000
1000
1001
1001
,
0010
0010
0110
0110
,
0000
1000
0100
1000
,
0100
1000
0100
1000
,
0010
0001
0010
0001
,
0010
0001
0010
0001
,
0010
0100
1000
0100
,
0010
0000
0100
0000
0001
0000
1000
1000
,
0000
0010
0000
0000
0100
0000
0001
0001
,
0000
0010
0000
0000
0000
0000
0000
0000
,
1000
0100
0010
0010
,
0100
0001
0010
0010
,
0100
1000
0010
0010
,
0100
0001
1000
1000
,
0010
0100
0001
0010
,
0100
0000
1000
0000
0010
0000
0100
0001
,
0000
1000
0000
0000
0010
0000
0100
0010
,
0000
1000
0000
0000
0000
0000
0000
0000
,
0001
0000
1001
0000
,
0010
0000
0110
0000
,
1000
0000
1001
0000
,
0010
0000
0110
0000
,
0010
0010
0010
0010
,
0001
0001
0001
0001
,
0100
0100
0100
0100
,
1000
1001
0110
0000
,
1000
1000
1000
1000
,
0100
0010
0100
0010
,
0001
0001
0001
0001
,
0010
0100
0010
0100
,
1000
0100
0001
0010
,
0100
1000
1001
0000
,
0010
0010
0010
0010
,
0100
0001
0100
0001
,
1000
0100
0010
1000
,
0001
0010
0100
0100
,
1000
0010
0100
0010
,
1000
0001
0100
0100
,
0010
0010
0011
0011
,
1000
1000
1100
1100
,
0010
0010
0110
0110
,
0100
0100
0110
0110
,
0000
0100
0010
0100
,
0010
0100
0010
0100
,
0001
0010
0100
0010
,
0100
0010
0100
0010
,
1000
0010
0100
0010
,
0100
0000
0001
0000
1000
0000
0010
0100
,
0000
0001
0000
0000
0010
0000
1000
0001
,
0000
0100
0000
0000
0000
0000
0000
0000
,
1000
0000
0110
0000
,
0001
0000
0110
0000
,
1000
0000
1001
0000
,
0010
0000
0110
0000
,
0100
0100
0010
1000
,
0010
0010
0100
0010
,
0100
0001
0010
0100
,
1000
0010
1001
0000
,
1000
0001
0100
0100
,
0010
1000
0001
0001
,
0100
0010
1000
1000
,
0010
0100
0010
0001
,
1000
0001
0100
0010
,
0100
1000
1001
0000
,
0010
0100
0010
0100
,
0001
0100
0010
1000
,
0002
0100
0103
0000
,
0010
0000
0000
0000
,
2000
0010
3001
0000
,
0100
0000
0000
0000
,
0020
0100
0031
0000
,
0010
0000
0000
0000
,
0200
0010
1300
0000
,
1000
0000
0000
0000
,
0010
0000
0000
0000
;

//---------------dance-single - ----------------
#NOTES:
     dance-single:
     :
     Beginner:
     1:
     0.094,0.139,0.000,0.000,0.000,84.000,0.000,0.000,0.000,0.000,0.000,0.094,0.139,0.000,0.000,0.000,84.000,0.000,0.000,0.000,0.000,0.000: // measure 1
0000
0000
0000
0000
,  // measure 2
0000
0000
0000
0000
,  // measure 3
0000
0000
0000
0000
,  // measure 4
0000
0000
0000
0000
,  // measure 5
1000
0000
0000
0000
,  // measure 6
0000
0000
0000
0000
,  // measure 7
0010
0000
0000
0000
,  // measure 8
0000
0000
0000
0000
,  // measure 9
0001
0000
0001
0000
,  // measure 10
0010
0000
0010
0000
,  // measure 11
0100
0000
0100
0000
,  // measure 12
1000
0000
1000
0000
,  // measure 13
0010
0000
0010
0000
,  // measure 14
0100
0000
0100
0000
,  // measure 15
0001
0000
0001
0000
,  // measure 16
0010
0000
0010
0000
,  // measure 17
1000
0000
0000
0000
,  // measure 18
0000
0000
0000
0000
,  // measure 19
0001
0000
0000
0000
,  // measure 20
0000
0000
0000
0000
,  // measure 21
1000
0000
0000
0000
,  // measure 22
0000
0000
0000
0000
,  // measure 23
0001
0000
0000
0000
,  // measure 24
0000
0000
0000
0000
,  // measure 25
0010
0000
0000
0000
,  // measure 26
0000
0000
0000
0000
,  // measure 27
0100
0000
0000
0000
,  // measure 28
0000
0000
0000
0000
,  // measure 29
1000
0000
0000
0000
,  // measure 30
0000
0000
0000
0000
,  // measure 31
0000
0000
0000
0000
,  // measure 32
0000
0000
0000
0000
,  // measure 33
0001
0000
0000
0000
,  // measure 34
0000
0000
0000
0000
,  // measure 35
1000
0000
0000
0000
,  // measure 36
0000
0000
0000
0000
,  // measure 37
0001
0000
0000
0000
,  // measure 38
0000
0000
0000
0000
,  // measure 39
0000
0000
0000
0000
,  // measure 40
0000
0000
0000
0000
,  // measure 41
0010
0000
0000
0000
,  // measure 42
0010
0000
0010
0000
,  // measure 43
0100
0000
0000
0000
,  // measure 44
0000
0000
0000
0000
,  // measure 45
1000
0000
0010
0000
,  // measure 46
0100
0000
0001
0000
,  // measure 47
1000
0000
0000
0000
,  // measure 48
0000
0000
0000
0000
,  // measure 49
0001
0000
0001
0000
,  // measure 50
0010
0000
0010
0000
,  // measure 51
0100
0000
0100
0000
,  // measure 52
1000
0000
1000
0000
,  // measure 53
0010
0000
0010
0000
,  // measure 54
0100
0000
0100
0000
,  // measure 55
0001
0000
0001
0000
,  // measure 56
1000
0000
1000
0000
,  // measure 57
0010
0000
0000
0000
,  // measure 58
0000
0000
0000
0000
,  // measure 59
0100
0000
0000
0000
,  // measure 60
0000
0000
0000
0000
,  // measure 61
0010
0000
0000
0000
,  // measure 62
0000
0000
0000
0000
,  // measure 63
0000
0000
0000
0000
,  // measure 64
0000
0000
0000
0000
,  // measure 65
0001
0000
0000
0000
,  // measure 66
0000
0000
0000
0000
,  // measure 67
1000
0000
0000
0000
,  // measure 68
0000
0000
0000
0000
,  // measure 69
0010
0000
0000
0000
,  // measure 70
0000
0000
0000
0000
,  // measure 71
0000
0000
0000
0000
,  // measure 72
0000
0000
0000
0000
,  // measure 73
0100
0000
0000
0000
,  // measure 74
0100
0000
0100
0000
,  // measure 75
0010
0000
0000
0000
,  // measure 76
0000
0000
0000
0000
,  // measure 77
0001
0000
0001
0000
,  // measure 78
1000
0000
1000
0000
,  // measure 79
0010
0000
0100
0000
,  // measure 80
0010
0000
0100
0000
,  // measure 81
0001
0000
0001
0000
,  // measure 82
0100
0000
0000
0000
,  // measure 83
1000
0000
1000
0000
,  // measure 84
0010
0000
0000
0000
,  // measure 85
0100
0000
0100
0000
,  // measure 86
0010
0000
0000
0000
,  // measure 87
0001
0000
0001
0000
,  // measure 88
0010
0000
0000
0000
,  // measure 89
0100
0000
0000
0000
;
