#TITLE:AM-3P (Blue Trance mix);
#SUBTITLE:;
#ARTIST:KTz remixed by Tsukasa;
#TITLETRANSLIT:;
#SUBTITLETRANSLIT:;
#ARTISTTRANSLIT:;
#GENRE:;
#CREDIT:;
#BANNER:AM-3P (Blue Trance mix).png;
#BACKGROUND:AM-3P (Blue Trance mix)-bg.png;
#LYRICSPATH:;
#CDTITLE:.\CDTITLES\DDRMAX6.PNG;
#MUSIC:AM-3P (Blue Trance mix).ogg;
#OFFSET:-0.040;
#SAMPLESTART:54.900;
#SAMPLELENGTH:15.000;
#SELECTABLE:YES;
#DISPLAYBPM:140.000;
#BPMS:0.000=140.000;
#STOPS:;
#BGCHANGES:;
#KEYSOUNDS:;

//---------------dance-single - ----------------
#NOTES:
     dance-single:
     :
     Easy:
     3:
     0.178,0.229,0.143,0.000,0.000,123.000,16.000,0.000,0.000,0.000,0.000,0.178,0.229,0.143,0.000,0.000,123.000,16.000,0.000,0.000,0.000,0.000:
0000
0000
0000
0000
,
0000
0000
0000
0000
,
0000
0000
0000
0000
,
0000
0000
0000
0000
,
0000
0000
0000
0000
,
0000
0000
0000
0000
,
0000
0000
0000
0000
,
0000
0000
0000
0000
,
1000
0000
0000
0100
,
0010
0000
0000
0001
,
0010
0000
0000
0100
,
1000
0000
0000
0000
,
0010
0000
0000
0000
,
0000
0000
0000
0000
,
0100
0000
0110
0000
,
0001
0000
1001
0000
,
0110
0000
0000
0000
,
0000
0000
0000
0000
,
1000
0000
0100
0000
,
1000
0000
0000
0010
,
0100
0000
0010
0000
,
0100
0000
0000
0001
,
0100
0000
0010
0000
,
0100
0000
0000
1000
,
0010
0000
0100
0000
,
0001
0000
0000
0010
,
0100
0000
0010
0000
,
0100
0000
0010
0000
,
1000
0000
0001
0000
,
1000
0000
0001
0000
,
0010
0000
0110
0000
,
1000
0100
0001
0100
,
1000
0000
0000
1000
,
1001
0000
0000
0010
,
0110
0000
0000
1000
,
1001
0000
0000
0010
,
0110
0000
0100
0000
,
0001
0000
0100
0000
,
1000
0000
0100
0000
,
1000
0000
0100
0000
,
0010
0000
0000
0100
,
1001
0000
0000
0010
,
1001
0000
0000
1000
,
0110
0000
0000
0001
,
0110
0000
1000
0000
,
0100
0000
1000
0000
,
0010
0000
0100
0000
,
0010
0000
0100
0000
,
0001
0010
0010
0000
,
0100
0100
1000
0000
,
0010
0010
0100
0000
,
0001
0001
1000
0100
,
0010
1000
0001
0000
,
1000
0001
0010
1000
,
0100
0010
0100
0000
,
0001
0001
0010
0001
,
0100
0000
0110
0000
,
1000
0000
1001
0000
,
0010
0000
0110
0000
,
1000
0000
1001
0000
,
0100
0000
0010
0000
,
0001
0000
0100
0000
,
1000
0010
0100
1000
,
0100
0001
0010
0010
,
0100
0000
0000
0000
;

//---------------dance-single - ----------------
#NOTES:
     dance-single:
     :
     Hard:
     8:
     0.483,0.602,0.197,0.000,0.309,355.000,22.000,0.000,0.000,0.000,0.000,0.483,0.602,0.197,0.000,0.309,355.000,22.000,0.000,0.000,0.000,0.000:
0000
0000
0000
0000
,
0000
0000
0000
0000
,
0000
0000
0000
0000
,
0000
0000
0000
0000
,
0000
0000
0000
0000
,
0000
0000
0000
0000
,
0000
0000
0000
0000
,
0000
0000
0000
0000
,
1000
0000
0000
1000
0000
0000
1000
0000
0000
0000
1000
0000
0010
0000
0100
0000
,
0001
0000
0000
0001
0000
0000
0001
0000
0000
0000
0001
0000
0010
0000
0001
0000
,
0100
0000
0000
0100
0000
0000
0100
0000
0000
0000
0010
0000
0100
0000
0010
0000
,
0100
0010
0000
1000
0001
0000
0100
0010
0000
1000
0100
0000
0000
0000
0000
0000
,
0100
0000
0000
0100
0000
0000
0010
0000
0100
0000
0000
0000
1000
0000
0000
0000
,
0110
0011
0100
0010
,
1000
0100
0100
0010
0001
0001
0100
0010
,
0010
1000
0100
0100
0001
0010
0001
0010
,
1001
0000
0000
0000
,
0000
0000
0000
0000
,
1000
0000
0000
1000
0000
0000
0100
0000
0000
0000
0010
0000
0001
0000
0010
0000
,
0100
0000
0000
0100
0000
0000
0010
0000
0000
0000
0001
0000
0010
0000
0001
0000
,
0100
0000
0000
0100
0000
0000
0010
0000
0000
0000
1000
0000
0100
0000
0010
0000
,
0100
0000
0000
0100
0000
0000
0001
0000
0000
0000
0010
0000
0001
0000
0100
0000
,
0010
0000
0000
0010
0000
0000
0100
0000
0000
0000
0010
0000
1000
0000
0001
0000
,
0100
0000
0000
0100
0000
0000
0010
0000
0000
0000
0100
0000
0010
0000
1000
0000
,
0001
0000
0000
0001
0000
0000
0100
0000
0000
0000
0010
0000
1000
0000
0100
0000
,
1000
0000
0000
1000
0000
0000
0010
0000
0000
0000
0100
0000
0010
0000
0100
0000
,
0001
0000
0000
0010
0000
0000
0100
0000
0000
0000
0010
0000
0100
0000
0010
0000
,
1000
0000
0000
0001
0000
0000
0100
0000
0000
0000
0010
0000
0100
0000
1000
0000
,
0001
0000
0000
0010
0000
0000
0001
0000
0000
0000
0100
0000
0010
0000
1000
0000
,
0001
0000
0000
0100
0000
0000
0010
0000
0000
0000
0010
0000
0100
0000
1000
0000
,
0010
0000
0000
0100
0000
0000
0010
0000
0000
0000
0100
0000
0010
0000
1000
0000
,
0001
0000
0000
0100
0000
0000
0010
0000
0000
0000
0001
0000
0100
0000
0010
0000
,
1000
1010
0010
0100
,
0010
0011
0010
0100
,
0010
1010
0100
0010
,
0011
0000
0000
0000
0010
0000
0000
0000
1100
0000
0100
0010
0100
0010
0100
0000
,
0010
0000
0000
0010
0000
0000
0010
0000
0000
0000
0010
0000
0010
0000
0100
0000
,
1000
0000
0000
1000
0000
0000
1000
0000
0000
0000
0010
0000
0100
0000
0010
0000
,
0001
0000
0000
0001
0000
0000
0001
0000
0000
0000
0010
0000
0100
0000
0010
0000
,
0100
0010
0000
1000
0001
0000
0100
0010
0000
1000
0001
0000
0000
0000
0000
0000
,
0010
1010
0100
0100
,
0001
0011
0010
0010
,
1010
0110
0001
0100
,
1010
0000
0000
0000
0100
0000
0000
0000
1001
0000
0001
1000
0001
1000
0001
0000
,
0100
0000
0000
0100
0000
0000
0010
0000
0000
0000
0100
0000
0010
0000
1000
0000
,
0001
0000
0000
0001
0000
0000
1000
0000
0000
0000
0100
0000
0010
0000
1000
0000
,
0100
0000
0000
0010
0000
0000
1000
0000
0000
0000
0010
0000
0100
0000
0001
0000
,
1000
0010
0000
0100
0010
0000
1000
0001
0000
0100
0010
0000
0000
0000
0000
0000
,
0001
0000
0100
0000
0101
0000
0010
0100
0010
0000
1000
0000
0010
0100
0010
0000
,
1000
0000
1100
0000
0100
0000
0010
0100
0000
0010
0000
1000
0000
0010
0100
0000
,
0010
0000
0110
0000
0010
0000
0001
0010
0001
0000
0100
0000
1000
0010
1000
0000
,
0100
0000
0010
0000
0001
0010
0000
0100
0000
1000
0000
0010
0100
0000
0010
0000
,
0001
0000
1000
0000
1100
0000
0010
0100
0010
0000
0100
0000
0001
0100
0001
0000
,
0010
0000
0100
0000
1000
0010
0000
0100
0000
0001
0000
1000
0000
0010
0100
0000
,
1000
0000
0010
0000
0011
0000
0010
0100
0010
0000
1000
0000
0001
0100
0001
0000
,
0010
0100
1000
0100
0010
0100
1000
0100
,
0001
0000
0000
0001
0000
0000
0001
0000
0000
0000
0010
0000
0100
0000
0010
0000
,
1000
0000
0000
1000
0000
0000
0100
0000
0000
0000
0010
0000
0100
0000
0010
0000
,
0001
0000
0000
0001
0000
0000
0100
0000
0000
0000
0010
0000
1000
0000
0001
0000
,
0100
0010
0000
0001
0100
0000
0010
0100
0000
0001
1000
0000
0000
0000
0000
0000
,
0100
0000
0000
0010
0000
0000
0100
0000
0010
0000
0000
0000
1000
0000
0000
0000
,
0100
1100
0011
0101
,
1000
0010
0010
0100
0001
0001
0100
0010
,
0010
1000
0100
0100
0010
1000
0001
1000
,
0010
0000
0000
0000
;

//---------------dance-single - ----------------
#NOTES:
     dance-single:
     :
     Medium:
     6:
     0.298,0.459,0.430,0.000,0.000,185.000,48.000,0.000,0.000,0.000,0.000,0.298,0.459,0.430,0.000,0.000,185.000,48.000,0.000,0.000,0.000,0.000:
0000
0000
0000
0000
,
0000
0000
0000
0000
,
0000
0000
0000
0000
,
0000
0000
0000
0000
,
0000
0000
0000
0000
,
0000
0000
0000
0000
,
0000
0000
0000
0000
,
0000
0000
0000
0000
,
1000
0000
0000
1000
,
1001
0000
0000
0001
,
0011
0000
0000
0010
,
0110
0100
0010
0100
,
1000
0000
0011
0110
,
0100
0010
0100
0010
,
1000
1000
0100
0100
0010
0010
0001
0001
,
0100
0100
0010
0010
1000
0010
1000
0001
,
0100
0000
0000
0000
,
0000
0000
0000
0000
,
0010
0100
0110
0000
,
0010
0100
0110
0000
,
0010
1000
1010
0000
,
0010
0001
0011
0000
,
0100
0010
0110
0000
,
0010
1000
1010
0000
,
0010
0100
0110
0000
,
0010
0001
0011
0100
,
0110
0000
0000
1010
,
0110
0000
0000
0011
,
0110
0000
0000
1100
,
1100
0000
0000
0011
,
0011
0000
0000
1100
,
0110
0000
0000
0101
,
1000
0001
1000
0010
,
0110
0010
1000
0100
,
1001
1000
0001
0010
,
0110
0000
0110
0000
0000
0010
0100
0010
,
0100
0000
0000
0001
,
0011
0000
0000
0100
,
1100
0000
0000
0010
,
0110
0000
1001
0000
,
0010
1000
0010
1000
,
1010
0010
0100
0010
,
0110
0010
0001
0010
,
0110
0000
0110
0000
0000
0010
0100
0010
,
0100
0000
0000
0001
,
1001
0000
0000
0010
,
1001
0000
0000
0100
,
0110
0000
0000
0101
,
0010
0100
1000
0100
,
1000
0100
0010
0100
,
1000
0100
0010
0100
,
0010
0001
0010
0010
,
0100
0010
0100
0010
,
0100
0010
0100
0010
,
0001
1000
0001
1000
,
0001
1000
0001
1000
,
0010
0000
0000
0010
,
0110
0000
0000
1000
,
1001
0000
0000
0010
,
0110
0000
1001
0000
,
0011
0000
1100
0110
,
0100
0010
0100
0010
,
1000
1000
0100
0100
0010
0010
0001
0001
,
0100
0100
0010
0010
1000
0001
1000
0001
,
1000
0000
0000
0000
;

//---------------dance-single - ----------------
#NOTES:
     dance-single:
     :
     Beginner:
     1:
     0.073,0.115,0.000,0.000,0.000,57.000,0.000,0.000,0.000,0.000,0.000,0.073,0.115,0.000,0.000,0.000,57.000,0.000,0.000,0.000,0.000,0.000: // measure 1
0000
0000
0000
0000
,  // measure 2
0000
0000
0000
0000
,  // measure 3
0000
0000
0000
0000
,  // measure 4
0000
0000
0000
0000
,  // measure 5
0000
0000
0000
0000
,  // measure 6
0000
0000
0000
0000
,  // measure 7
0000
0000
0000
0000
,  // measure 8
0000
0000
0000
0000
,  // measure 9
1000
0000
0000
0000
,  // measure 10
0000
0000
0000
0000
,  // measure 11
0001
0000
0000
0000
,  // measure 12
0000
0000
0000
0000
,  // measure 13
1000
0000
0000
0000
,  // measure 14
0000
0000
0000
0000
,  // measure 15
0010
0000
0000
0000
,  // measure 16
0000
0000
0000
0000
,  // measure 17
0100
0000
0000
0000
,  // measure 18
0000
0000
0000
0000
,  // measure 19
0001
0000
0000
0000
,  // measure 20
0000
0000
0000
0000
,  // measure 21
1000
0000
0000
0000
,  // measure 22
0000
0000
0000
0000
,  // measure 23
0010
0000
0000
0000
,  // measure 24
0000
0000
0000
0000
,  // measure 25
0100
0000
0000
0000
,  // measure 26
0000
0000
0000
0000
,  // measure 27
0001
0000
0000
0000
,  // measure 28
0000
0000
0000
0000
,  // measure 29
0010
0000
0000
0000
,  // measure 30
0000
0000
0000
0000
,  // measure 31
0100
0000
0000
0000
,  // measure 32
0000
0000
0000
0000
,  // measure 33
1000
0000
0000
0010
,  // measure 34
0010
0000
0000
0010
,  // measure 35
0010
0000
0000
0001
,  // measure 36
0001
0000
0000
0100
,  // measure 37
0100
0000
0000
0000
,  // measure 38
0000
0000
0000
0000
,  // measure 39
0010
0000
0000
0000
,  // measure 40
0000
0000
0000
0000
,  // measure 41
0100
0000
0000
0100
,  // measure 42
0100
0000
0000
0001
,  // measure 43
0001
0000
0000
1000
,  // measure 44
1000
0000
0000
0010
,  // measure 45
0010
0000
0000
0000
,  // measure 46
0000
0000
0000
0000
,  // measure 47
0100
0000
0000
0000
,  // measure 48
0000
0000
0000
0000
,  // measure 49
0010
0000
0010
0000
,  // measure 50
0010
0000
0010
0000
,  // measure 51
0100
0000
0100
0000
,  // measure 52
0100
0000
0100
0000
,  // measure 53
1000
0000
1000
0000
,  // measure 54
1000
0000
1000
0000
,  // measure 55
0001
0000
0001
0000
,  // measure 56
0001
0000
0001
0000
,  // measure 57
0010
0000
0000
0000
,  // measure 58
0000
0000
0000
0000
,  // measure 59
0100
0000
0000
0000
,  // measure 60
0000
0000
0000
0000
,  // measure 61
0010
0000
0000
0000
,  // measure 62
0100
0000
0000
0000
,  // measure 63
0010
0000
0100
0000
,  // measure 64
0010
0000
0100
0000
,  // measure 65
0010
0000
0000
0000
;
