#TITLE:the shadow;
#SUBTITLE:;
#ARTIST:kors k;
#TITLETRANSLIT:;
#SUBTITLETRANSLIT:;
#ARTISTTRANSLIT:;
#CREDIT:Steps by Telperion;
#BANNER:the-shadow.png;
#BACKGROUND:the-shadow-bg.png;
#LYRICSPATH:;
#CDTITLE:;
#MUSIC:the shadow.ogg;
#OFFSET:-0.379;
#SAMPLESTART:28.071;
#SAMPLELENGTH:12.000;
#SELECTABLE:YES;
#BPMS:0=156,29=78,31=156,33=312,63=156,64=312,84=78,85=312,89=78,90=312,151=78,165=156,168=312,278=156,286=78,293=156,295=312,364=624,372=312,396=78,398=312,451=78,453=312;
#STOPS:120.000=0.192
,145.000=0.192
,146.000=0.192
,168.000=0.385
,198.000=0.192
,260.000=0.192
,359.000=1.346
,436.000=0.192
,439.000=0.192
,442.000=0.192
,443.000=0.192
,444.000=0.192
,445.000=0.192
,446.000=0.192
,447.000=0.192
,448.000=0.192
,449.000=0.192
,450.000=0.192
;
#BGCHANGES:;

//---------------dance-double - ----------------
#NOTES:
     dance-double:
     :
     Challenge:
     13:
     0.989,1.000,0.923,0.302,0.357:
00000000
00000000
00000000
00000000
,
00000000
00000000
00000000
00000000
,
00000000
00000000
00000000
00000000
00000000
00000000
00000000
00000000
00000000
00000000
00000000
00000000
00010000
00000000
00000000
00100000
,
01000000
00000000
00000000
00010000
00000000
00000000
00001000
00000000
00000000
01000000
00000000
00000000
00001000
00000000
00000000
00000000
00000000
00000000
00001000
00000000
00010000
00000000
00001000
00000000
,
00000100
00000000
00000000
00000010
00010000
00000000
00000100
00000000
00010000
00001000
00000000
00000000
00100000
00000000
00000000
10000000
,
01000000
00000000
00100000
00000000
00001000
00000000
00100000
00000000
00010000
00000000
10000000
00000000
00001000
00000000
00000000
00010000
,
00000010
00000000
00000100
00000000
00010000
00000000
01000000
00000000
00100000
00010000
00001000
00000000
00001000
00100000
01000000
00000000
,
01000000
00010000
00001000
00000000
00001000
10000000
01000000
00010000
00001000
00000100
00000001
00000010
00001000
00000000
00010000
00000000
,
00100000
00000000
10000000
00000000
01000000
00000000
00000000
00000000
10000000
00000000
00000000
00100000
01000000
00000000
00000000
00000000
,
00001000
00000000
00000000
00000000
00010000
00000000
00000000
00000000
01000000
00000000
00000000
00100000
01000000
00000000
00000000
00000000
,
00010000
00000000
00000000
00000000
00001000
00000000
00000000
00000000
00000100
00000000
00000000
00000010
00000100
00000000
00000000
00000000
,
00000001
00000000
00000000
00000000
00000010
00000000
00000000
00000000
00001000
00000000
00000000
00000010
00000100
00000000
00000000
00000000
,
00001000
00000000
00000000
00000000
00010000
00000000
00000000
00000000
01000000
00000000
00000000
00100000
01000000
00000000
00000000
00000000
,
10000000
00000000
00000000
00000000
00010000
00000000
00000000
00000000
10000000
00000000
00000000
00010000
10000000
00000000
00000000
00000000
,
00001000
00000000
00000000
00000000
00010000
00000000
00000000
00000000
00001000
00000000
00000000
00010000
00001000
00000000
00000000
00000000
,
00010000
00000000
00000000
00000000
00000001
00000000
00000000
00000000
00001000
00000000
00000000
00000001
00001000
00000000
00000110
00000000
,
00001000
00000000
00001000
00010000
00001000
00000000
01000000
00000000
,
00010000
00000000
00100000
01000000
10000000
00000000
00100000
00000000
,
00010000
00000000
00000100
00001000
00000100
00000000
00010000
00000000
,
00100000
00000000
01000000
10000000
01000000
00000000
00010000
00000000
,
00001000
00000000
00000010
00000100
00000010
00000000
00000100
00000000
,
00000001
00000100
00010000
01000000
10000000
00000000
00000000
00000000
00100000
00000000
01000000
00000000
00010000
00000000
00000000
00000000
,
00100000
00000000
00000000
00000000
10000000
00100000
00001000
00000010
00000001
00000000
00000000
00000000
00001000
00000000
00000010
00000000
,
00010000
00000010
00001000
00000000
00000110
00000000
00001000
00100000
,
00001000
00010000
00001000
00000000
00110000
00000000
01000000
00010000
,
00100000
00010000
01000000
00000000
01100000
00000000
10000000
00010000
,
00100000
01000000
00001000
00000000
01100000
00000000
00100000
01000000
,
00100000
00010000
00100000
00000000
00001000
00100000
00000000
00000100
,
00100000
00000000
00000010
00100000
00010000
00000000
10000000
01000000
,
10000000
00000000
00100000
01000000
00100000
00000000
00010000
00000000
,
10100000
00000000
00001010
00000000
00000100
00001000
00000100
00010000
,
00000100
00000000
00011000
00000000
00001000
00100000
00010000
00100000
,
00001000
00000000
00110000
00000000
00100000
01000000
00100000
10000000
,
00100000
00000000
11000000
00000000
00010000
01000000
10000000
01000000
,
00010000
00000000
00011000
00000000
00010000
00001000
00010000
00000000
,
00000010
00000100
00000000
00000010
00001000
00000000
00000010
00100000
,
00000000
00000110
00011000
01100000
,
10010000
00000000
00000000
00000000
00010000
00000000
00100000
00000000
01000000
00000000
00100000
00000000
00010000
10000000
01000000
00100000
,
00001000
00000000
01000000
00000000
00100000
00000000
00010000
00001000
00010000
00000000
00010000
00000000
00010000
00000000
00101000
00000000
00010000
00000000
01001000
00000000
00010000
00000000
00100000
01000000
00100000
00000000
00100000
00010000
00100000
00000000
00010000
00000000
,
00000000
00000000
00001100
00000000
00000000
00000000
00000010
00000001
00000010
00000000
00000000
00000000
00000000
00000000
00000101
00000000
00000000
00000000
00010010
00000000
00000000
00000000
01000000
00001000
01000000
00010000
01000000
00000000
00000000
00000000
10100000
00000000
,
00000000
00000000
01010000
00000000
00000000
00000000
00100000
00001000
00100000
00010000
00100000
00000000
00000000
00000000
00010010
00000000
00000000
00000000
00001100
00000000
00000000
00000000
00000100
00000001
00000100
00001000
00000100
00000000
00000000
00000000
00010010
00000000
,
00000001
00000010
00001000
00100000
10000000
00000000
01000000
00000000
00010000
00000000
00000010
00000000
00001000
00000000
00000100
00000000
,
00100010
00000000
00010000
00001000
00100000
00000000
01100000
00000000
,
10010000
00000000
00100000
00001000
00010000
00000000
00001100
00000000
,
00000011
00000000
00000010
00000100
00001000
00000000
00010100
00000000
,
00101000
00000000
00010000
00100000
01000000
00000000
10100000
00000000
,
01010000
00000000
00010000
10000000
00010000
01000000
00010000
00001000
,
00010000
00000100
00010000
00001000
00010000
01000000
00010000
00000000
,
10000000
00000000
01100000
00000000
10010000
00000000
00010000
00001000
,
00000100
00000110
00001001
00110000
,
00010000
00100000
02000000
00000000
10000000
03000000
01100000
00000000
,
01000000
00010000
00002000
00000000
00000010
00003000
00011000
00000000
,
00010000
00100000
20000000
00000000
01000000
30000000
10100000
10000000
,
01000000
10000000
00010000
00000000
01100000
00000000
10010000
00000000
,
00001000
00020000
00002000
00100000
00000010
00000000
10000000
00000001
,
00000000
00100000
00033010
00000000
00011000
00000000
02002000
00000000
,
00100000
10000000
00100000
10000000
03103000
00000000
01001000
00000000
,
00010100
00000000
00002002
00000000
00003003
00000000
00000001
00001000
,
00000001
00000000
00000120
00000000
00000130
00010000
00000100
00010000
,
00000000
00001000
00100000
00001000
00100000
00000000
00010000
10000000
,
00010000
00000000
02100000
00000000
03100000
10000000
00010000
01000000
,
00000000
00000100
00010000
00000010
00001000
00000000
00000001
00000010
,
00000001
00000000
00002100
00000000
00003001
00000010
00000001
00000100
,
00000000
00000010
00001000
00000100
00001000
00000000
00010000
00001000
,
00010000
00000000
01100000
00000000
01000000
10000000
01000000
10000000
,
02000000
00000000
03000000
00000000
10010000
00000000
00100000
00010000
,
01000000
00100000
00000000
00010000
00001000
00010000
00000100
00000000
,
00001000
00000001
00000010
00000000
00000110
00000000
00000010
00000001
,
00010000
00000100
00000000
00001000
00010000
01000000
00010000
00000000
,
10000000
00000000
01000000
00000000
10000000
00000000
00000000
00000000
01000000
00000000
00010000
00000000
00000100
00000000
01000000
00010000
,
00001000
00000000
00010000
00000000
11000000
00000000
00110000
00000000
00001000
00000100
00100000
00000000
00010000
01000000
00000010
00000000
,
00001000
00000000
00000100
00000000
01000000
00000000
00000000
00000000
00001000
00000000
00100000
00000000
00000010
00000000
00000000
00000000
00000101
00000000
00000000
00000001
00000010
00000000
00000100
00000000
00002000
00000000
00000000
00000000
00010010
00000000
00000000
00000000
,
00103001
00000000
00000000
00000100
00010000
00000000
01000000
00000000
20000000
00000000
00000000
00000000
00110000
00000000
00000000
00000000
31010000
00000000
00000000
00000000
00100000
00000000
00010000
00000000
00022000
00000000
00000000
00000000
00100100
00000000
00000000
00000000
,
01033010
00000000
00001000
00000100
00000001
00000000
00000010
00000000
00010000
00000000
01000000
00000000
10000000
00000000
00100000
00000000
,
10000000
00000000
00220000
00000000
00330000
00000000
00100000
00001000
,
00100000
00000000
00000100
00010000
00000100
00000000
00001000
00000010
,
00001000
00000000
00000202
00000000
00000303
00000000
00000010
00000001
,
00000010
00000000
00001000
00000100
00001000
00000000
00100000
00010000
,
00100000
00000000
22000000
00000000
33000000
00000000
01000000
00010000
,
00100000
00000000
00000010
00001000
00000100
00000000
00000010
00000001
,
00000100
00000000
00002020
00000000
00003030
00000000
00000100
00010000
,
00001000
00000000
01000000
00100000
00010000
00000000
10000000
00010000
,
10000000
00000000
01100000
00000000
10010000
00000000
00100000
00001000
,
01000000
00000000
00110000
00000000
01001000
00000000
00010000
00000100
,
00001000
00000000
00010010
00000000
00001100
00000000
00000010
00000001
,
00000100
00000011
00001100
00000020
,
00020030
00030200
02000300
03020000
,
20030000
30200000
00310000
00011000
,
00010100
00000000
00101000
00000000
01010000
00000000
10000000
01000000
,
00100000
00001000
00010000
00000100
00000001
00000100
00011000
00000000
,
00001000
00000000
00000000
00000100
00000010
00000000
00000000
00000000
00010000
00000000
00000000
00000100
00000010
00000000
00000000
00000000
,
00000001
00000010
00000100
00010000
,
00001000
00100000
01000000
10000000
,
00100000
01000000
10000000
00000000
01000000
00010000
00000000
00100000
,
01000000
10000000
01000000
00000000
00010000
00001000
00000000
01000000
,
00100000
00010000
00100000
00000000
01000000
00001000
00010000
00000100
,
00000010
00000100
00001000
00000000
00000001
00010000
00000001
00000000
,
00000100
00000001
00000100
00000000
00001010
00000000
00010100
00000000
,
00100000
00001000
00100000
00010000
00100000
01000000
00100000
00000000
,
10100000
00000000
01000000
00000000
00110000
00000000
01000000
00100000
00001000
00000000
00010000
00000000
00000100
00000010
00000001
00000000
00000001
00000000
00000000
00000000
00000000
00000000
00000000
00000000
00000100
00000000
00000000
00000000
00000000
00000000
00000000
00000000
,
00010000
00100000
01000000
00001000
,
00000100
01000000
00010000
10000000
,
00100000
00001000
00100000
00010000
,
00000100
00000001
00000100
00001010
,
00000100
00010010
00001000
00110000
,
01000000
10100000
00010000
11000000
,
00100000
01010000
00100000
01001000
,
00022000
00000110
00033110
00011000
,
00011000
00000000
01000000
00100000
00010000
00000000
01000000
00000000
,
10010000
00000000
00000001
00000100
00000010
00000001
00001100
00000000
,
10000000
01000000
00100000
10000000
01010000
00000000
00001100
00000000
,
10100000
00010010
01001000
00100100
,
01000010
00000000
00000000
00000000
00000000
00000000
00000000
00000000
00000101
00000000
00000000
00000000
00000000
00000000
00000000
00000000
10010000
00000000
00000000
00000000
00000000
00000000
00000000
00000000
10000000
00000000
00000000
00010000
00000000
00000000
00100000
00000000
,
00000100
00001000
00000001
00000000
00022000
00000000
00000000
00000000
00000000
00000000
00000000
00000000
00033000
00000000
00000000
00000000
;

//---------------dance-double - ----------------
#NOTES:
     dance-double:
     :
     Hard:
     10:
     0.868,1.000,0.462,0.445,0.214:
00000000
00000000
00000000
00000000
,
00000000
00000000
00000000
00000000
,
00000000
00000000
00000000
00000000
00000000
00000000
00010000
01000000
,
00100000
00000000
00000000
01010000
00000000
00000000
10100000
00000000
00000000
01000000
00001000
00010000
,
01000000
00000000
00011000
00000000
00010100
00000000
00001000
00000010
,
00000100
00000000
00000011
00000000
00001100
00000000
00010000
00001000
,
00100000
00000000
00000000
00000000
00011000
00000000
00000000
00001000
00000100
00000000
00001000
00000000
00010000
00000000
00100000
00000000
,
01000000
00000000
00100000
00000000
00010000
10000000
01000000
00100000
00001000
00010000
00000100
00000010
00000202
00000000
00000000
00000000
,
00001313
00000000
00000101
00000000
00000010
00000100
00001000
00000000
,
00000010
00000000
00000100
00000000
00001000
00010000
00000100
00000000
,
00001000
00000000
00010000
00000000
00100000
00001000
00010000
00000000
,
00100000
00000000
01000000
00000000
00010000
10000000
00010000
00000000
,
01000000
00000000
10000000
00000000
01000000
00010000
00100000
00000000
,
01000000
00000000
00010000
00000000
00001000
00010000
01000000
00000000
,
00010000
00000000
00001000
00000000
00100000
01000000
00010000
01000000
,
00100000
01000000
00010000
00000000
00001000
00000000
00022000
00000000
,
00033000
00000000
00000100
00010000
00001000
00000000
00000100
00000000
,
00000010
00000000
00001000
00000100
00000010
00000000
00000001
00000000
,
00000100
00000000
00001000
00010000
00000100
00000000
00000010
00000000
,
00001000
00000000
00010000
01000000
00100000
00000000
00001000
00000000
,
01000000
00000000
00010000
10000000
00010000
00000000
00100000
00000000
,
01000000
00010000
00001000
00000100
00000001
00000000
00001000
00000000
00000001
00000000
00001000
00000000
00000001
00000000
00000000
00000000
,
00001001
00000000
00000000
00000000
00000100
00001000
00010000
01000000
10000000
00000000
00100000
00000000
01000000
00000000
00001000
00000000
,
00010000
00000000
00001000
00000000
00010000
00000100
00001000
00000000
,
00000010
00000100
00000001
00000000
00000010
00000100
00001000
00000000
,
00000100
00010000
00001000
00000000
00010000
00001000
01000000
00000000
,
00100000
00010000
00001000
00000000
00011000
00000000
00001000
00100000
,
00000000
00010000
01000000
00000000
00001000
00100000
00000000
00000100
,
00010000
00000000
00011000
00000000
00010000
00000000
00100000
01000000
,
10000000
01000000
00100000
00000000
10000000
00000000
02000000
00000000
,
00110000
00000000
03000000
00000000
00100000
01000000
00010000
00000000
,
00010000
10000000
01000000
00000000
00100000
01000000
00001000
00000000
,
00001000
00000100
00000010
00000000
00000001
00000100
00001000
00000000
,
00001000
00000100
00000010
00000000
00010000
00000100
00001000
00000000
,
00200000
00000000
00300000
00000000
10000000
01000000
00000000
00100000
,
00001000
00000000
00010000
00000100
00000000
00000010
00000001
00000000
,
00001001
00000110
00011000
01100000
,
01100000
00000000
00000000
00000000
00010000
00000000
00100000
00000000
01000000
00000000
10000000
00000000
01100000
00000000
10000000
00100000
,
01000000
00010000
00100000
01000000
00010000
00001000
00100000
01000000
10000000
01000000
00100000
00001000
00000100
00001000
00010000
00000100
,
00000010
00000000
00001000
00000000
00000010
00000000
00000001
00000000
00000100
00000000
00000010
00000000
00001000
00000000
00000100
00000000
00010000
00000000
00001000
00000000
00010000
00001000
00010000
00001000
00010000
00000000
00001000
00000000
00100000
00000000
01000000
00000000
,
00010000
00001000
01000000
00100000
00010000
00001000
00000100
00000010
00010000
00000100
00000010
00000100
00010000
00001000
00100000
01000000
,
00100000
00010000
00001000
01000000
00000100
00000000
00010000
00000000
00001000
00000000
00100000
00000000
00000010
00000000
00010000
00000000
,
00001000
00000000
00100000
01000000
00100000
00000000
00010000
00000000
,
01100000
00000000
10010000
00000000
,
00001000
00000000
00000100
00000010
00000100
00000000
00000001
00000000
,
00000110
00000000
00001001
00000000
,
00010000
00000000
00100000
01000000
00000000
00010000
00001000
00000000
,
00000100
00000010
00000000
00001000
00010000
00000000
00011000
00000000
,
00010000
00000000
10000000
01000000
00100000
00000000
00010000
00000000
,
00001000
00000001
00000110
00000001
,
00000010
00000100
00000001
00000000
00000100
00000000
00001000
00000000
,
00000010
00001000
00010000
00000000
00001000
00000000
00000010
00000000
,
00010000
00001000
00100000
00000000
00001000
00000000
00010000
00000000
,
00001000
01000000
00100000
01000000
00000000
00000000
00000000
00000000
,
00001000
01000000
00100000
01000000
00000000
00000000
00010000
00100000
,
00000000
01000000
10000000
00000000
00100000
00010000
00000000
00000000
,
00001000
00010000
00000100
00010000
00000000
00001000
00000000
00010000
,
00000100
00000010
00000001
00000100
00000010
00000000
00010000
00001000
,
00010000
00000000
00001000
00100000
00000000
00001000
01000000
00010000
,
01000000
00000000
00100000
10000000
00100000
00000000
10000000
01000000
,
10000000
00000000
00100000
01000000
00000000
00010000
00100000
00001000
,
00100000
00000000
00000100
00010000
00000100
00000000
00001000
00000010
,
00001000
00000000
00000001
00000010
00000000
00000100
00001000
00000010
,
00001000
00000000
00000100
00010000
00000100
00000000
00100000
00001000
,
00000000
00010000
00001000
00010000
00001000
00000000
00011000
00000000
,
00022000
00000000
00033000
00000000
00010000
00002000
00020000
00000000
,
00100000
00000000
00033010
00000000
00010000
02000000
00020000
00000000
,
10000000
00000000
03130000
00000000
10000000
02000000
20000000
00000000
,
00100000
00000000
33010000
00000000
00001000
02000000
00002000
00000000
,
00010000
00000000
03103000
00000000
00001000
00010000
00100000
01000000
,
10000000
00100000
00010000
00001000
00000010
00000001
00000100
00000010
,
00001000
00000000
00000000
00000000
00010000
00000000
00000000
00000000
01000000
00000000
00000000
00000000
00100000
00000000
00000000
00000000
10000000
00000000
00000000
00010000
10000000
00000000
00010000
00000000
10000000
00000000
00000000
00000000
00100000
00000000
00000000
00000000
,
01000000
00000000
00000000
00000000
00000000
00000000
00000000
00000000
01100000
00000000
00000000
00000000
00000000
00000000
00000000
00000000
00010000
00000000
00000000
00001000
00010000
00000000
00001000
00000000
00010000
00000000
00000000
00000000
00001000
00000000
00000000
00000000
,
00000100
00000000
00000110
00000000
00000110
00000000
00000001
00001000
,
00000001
00000000
00000220
00000000
00000330
00000000
00001000
00010000
,
00000100
00000000
00010000
00001000
00100000
00000000
00001000
00010000
,
00001000
00000000
00022000
00000000
00033000
00000000
00100000
01000000
,
10000000
00000000
00100000
01000000
00010000
00000000
10000000
00010000
,
10000000
00000000
02200000
00000000
03300000
00000000
00010000
00001000
,
00100000
00000000
00001000
00010000
00000010
00000000
00010000
00001000
,
00010000
00000000
00022000
00000000
00033000
00000000
00000100
00000010
,
00000001
00000000
00000100
00000010
00001000
00000000
00000220
00000000
,
00000000
00001331
00000000
00002200
,
00000000
00013310
00000000
00020200
,
00000000
00131300
00000000
02020000
,
00000000
13130000
00000000
00110000
,
00000000
00001100
00000000
01010000
,
00000000
00001010
00000000
00100000
,
00001000
00000000
00010000
00000000
00000010
00000000
01000000
00000100
,
01000000
00000100
01000000
00000100
01000000
00000100
00022000
00033000
,
00001000
00000010
00000100
00000000
00000001
00000010
00000100
00000000
,
00010000
00000000
01000000
00000000
,
10000000
00000000
00100000
00000000
,
00010000
00001000
00010000
00000000
00001000
00010000
00000000
00001000
,
00100000
00010000
00100000
00000000
00010000
01000000
00010000
00000000
,
00100000
01000000
00100000
00000000
10000000
00100000
00000000
01000000
,
00010000
00100000
00010000
01000000
00001000
00010000
00001000
00000000
,
00100000
00001000
00100000
00000000
00000100
00010000
00000000
00000100
,
00001000
00000010
00000100
00000001
00001000
00000010
00010000
00001000
,
10000000
01000000
00100000
00001000
00010000
00000100
00000010
00000001
00000100
00000000
00000001
00000000
00000100
00000000
00000000
00000000
,
00000010
00001000
00000000
00000020
00002000
00000000
00000000
00000000
,
00010000
00000000
00003030
00000000
00000100
00010000
00000100
00000000
,
00100000
00001000
00000000
00200000
00002000
00000000
00000000
00000000
,
10000000
00000000
00303000
00000000
01000000
00100000
01000000
00000000
,
00010000
10000000
00000000
00020000
20000000
00000000
00000000
00000000
,
01100000
00000000
30030000
00000000
00010000
00001000
00000010
00000000
,
00000100
00000001
00000000
00000020
00000200
00000000
00000000
00000000
,
00001001
00000000
00000330
00000000
00000100
00000010
00010000
00000100
,
00010000
00000000
00000000
00000000
00100000
00001000
00010000
00000000
,
00101000
00000000
01000000
00010000
01000000
00000000
10100000
00000000
,
01000000
10000000
01000000
00000000
02010000
00000000
03002000
00000000
,
00023000
02030000
03200000
00320000
,
00032000
00000000
00000000
00000000
00000000
00000000
00000000
00000000
00003020
00000000
00000000
00000000
00000000
00000000
00000000
00000000
00000230
00000000
00000000
00000000
00000000
00000000
00000000
00000000
00000301
00000000
00000000
00000010
00000000
00000000
00000100
00000000
,
00001000
00010000
00100000
00000000
00022000
00000000
00000000
00000000
00000000
00000000
00000000
00000000
00033000
00000000
00000000
00000000
;

//---------------dance-double - ----------------
#NOTES:
     dance-double:
     :
     Medium:
     8:
     0.572,1.000,0.210,0.176,0.126:
00000000
00000000
00000000
00000000
,
00000000
00000000
00000000
00000000
,
00000000
00000000
00010000
00100000
,
00001000
00000000
00010000
00000000
00000100
00000000
00000010
00001000
,
00001000
00010000
00001000
00100000
,
01000000
00010000
01000000
10000000
,
00100000
00010000
00100000
10000000
,
01000000
00000000
00100000
00010000
00001000
00000100
00000010
00000000
,
00001000
00010000
00000000
10000000
,
01000000
10000000
00000000
00100000
,
00010000
00100000
00000000
10000000
,
00010000
10000000
00000000
00100000
,
00001000
00100000
00000000
00010000
,
00000100
00010000
00000000
00001000
,
00000010
00001000
00000000
00000001
,
00000100
00000001
00000000
00000202
,
00001313
00000000
00000001
00000010
,
00000100
00000000
00001000
00000010
,
00000100
00000000
00010000
00000010
,
00000100
00000000
00010000
00000100
,
00100000
00000000
01000000
00010000
,
00100000
01000000
10000000
00100000
01000000
00000000
00000000
00000000
00000000
00000000
00000000
00000000
00001000
00000000
00000000
00000000
,
00010000
00000000
00000000
00000000
00001000
01000000
00001000
00010000
00001000
00000000
00000000
00000000
00000000
00000000
00000000
00000000
,
01000000
00100000
01000000
00000000
,
01000000
00000000
10010000
00000000
,
00010000
00001000
00010000
00000000
,
00010000
00000000
00000000
00000000
00000110
00000000
00000000
00000001
,
00000000
00000000
00000010
00000000
00000000
00000100
00000000
00000000
,
00001000
00000010
00000110
00000000
,
00000100
00000001
00000010
00000000
,
00000220
00001331
00000000
00000000
,
00000010
00000100
00000000
00001000
,
00000000
00010000
00000000
00100000
,
01000000
00010000
00000000
00001000
,
00000000
00000000
00000100
00000000
00000000
00000010
00000000
00000000
,
00010000
00000000
00000000
00001000
00000000
00000000
01000000
00000000
,
00000000
00010100
01001000
00022000
,
00000000
00000000
00000000
00000000
00100010
00000000
00000000
00000000
00033000
00000000
00000000
00000000
00011000
00000000
00010000
00001000
,
00100000
00010000
00100000
00001000
00010000
00000000
00010000
00000100
00001000
00000010
00001000
00000100
00010000
00000000
00010000
00001000
,
01000000
00010000
00100000
00010000
01000000
00000000
01000000
00100000
10000000
00000000
10100000
00000000
10100000
00000000
10000000
00100000
,
01000000
00010000
00100000
01000000
10000000
00000000
00010000
00100000
00001000
00010000
00000100
00010000
00001000
00000000
00010000
00000010
,
00000100
00000010
00000100
00000010
00000100
00000000
00000010
00000000
00000100
00000000
00000010
00000000
00000100
00000000
00000010
00000000
,
00000100
00000010
00000100
00000010
,
00000100
00000000
00001000
00000000
,
00010000
00000000
01000000
00100000
,
10000000
00000000
01000000
00000000
,
00010000
00000000
01000000
00100000
,
10000000
00000000
00010000
00000000
,
00100000
00001000
00010000
00000100
,
00001000
00000010
00000100
00000000
,
00000001
00001000
00000001
00000010
,
00000000
00000010
00000000
00001010
,
00000000
00001000
00000100
00010000
,
00000000
00001000
00000000
00011000
,
00000000
00010000
00001000
00100000
,
00000000
01000000
00000000
01100000
,
00000000
00000000
00000000
10000000
00000000
01000000
00000000
00010000
,
00000000
01000000
00000000
00000000
00000000
00000000
10000000
00000000
,
00100000
10000000
00100000
01000000
,
00010000
01000000
00001000
00100000
,
00001000
00010000
00000100
00010000
,
00000010
00001000
00000001
00000010
,
00000001
00001000
00000001
00010000
,
00000100
00010000
00001000
00100000
,
00001000
01000000
00010000
10000000
,
00200000
10000000
10300000
00010000
,
01000000
00010000
00100000
00001000
,
00010000
00000010
00010000
00000100
,
00001000
00000010
00001000
00000100
,
00001000
00000001
00000100
00000010
,
00001000
00000100
00000001
00000010
,
00001000
00000000
00000000
00000000
00000100
00000000
00000000
00000000
00000010
00000000
00000001
00000010
00000100
00000000
00000100
00000000
,
00001010
00000000
00000100
00001000
00010000
00000000
00010000
00000000
00011000
00000000
00001000
00010000
00100000
00000000
00100000
00000000
,
01100000
00000000
01000000
10000000
00100000
00000000
00000000
00000000
00100000
00000000
00000000
00000000
00100000
00000000
01000000
00000000
,
00100000
01000000
00100000
00000000
00000000
00000000
00000000
00000000
,
00000000
00000000
00000000
00000000
00000000
00000000
01000000
00001000
,
01000000
00001000
01000000
00000000
00000000
00000000
00000000
00000000
,
00000000
00000000
00000000
00000000
00000000
00000000
00010000
00000010
,
00010000
00000010
00010000
00000000
00000000
00000000
00000000
00000000
,
00000000
00000000
00000000
00000000
00000000
00000000
00000010
00001000
,
00000010
00001000
00000010
00000000
00000000
00000000
00000000
00000000
,
00000000
00000000
00000000
00000000
00000000
00000000
00000001
00000100
,
00000001
00000100
00000001
00000000
00000000
00000000
00001000
00000010
,
00001000
00000010
00001000
00000000
00000000
00000000
00000100
00010000
,
00000100
00010000
00000100
00000000
00000000
00000000
00100000
00001000
,
00100000
00001000
00100000
00000000
00000000
00000000
00100000
00000000
,
10000000
00010000
01000000
00001000
,
00100000
00000100
00010000
00000010
,
00001000
00000001
00000010
00000100
,
00001000
00000010
00000100
00001001
,
00000001
00000010
00000100
00010000
,
00001000
00000000
00100000
00000000
,
01000000
00000000
10000000
00000000
,
00100000
01000000
00010000
00000000
,
10000000
01000000
00100000
00001000
,
00010000
01000000
00100000
00000000
,
00000010
00000000
00001000
00000010
,
00000100
00000001
00000010
00000100
,
00010000
00001000
00100000
00010000
,
01000000
10010000
01100000
10010000
01000000
00000000
10000000
00000000
,
00100000
00000000
01000000
00001000
,
00010000
00000100
00010000
00000010
,
00000100
00000000
00000001
00001000
,
00000100
00010000
00001000
00100000
,
00010000
00000000
10000000
01000000
,
00100000
00010000
10000000
01000000
,
00100000
00000000
00001000
00010000
,
00000100
00010000
00001000
00100000
,
00001000
00010000
00000100
00020000
,
00031000
01000000
00200000
01300000
,
00010000
20000000
30020000
02030000
,
03002000
00203000
00300200
00020300
,
00030020
00000000
00000000
00000000
00000000
00000000
00000000
00000000
00002030
00000000
00000000
00000000
00000000
00000000
00000000
00000000
00003002
00000000
00000000
00000000
00000000
00000000
00000000
00000000
00010003
00000000
00000000
00001000
00000000
00000000
00010000
00000000
,
00001000
00010000
00001000
00000000
00022000
00000000
00000000
00000000
00000000
00000000
00000000
00000000
00033000
00000000
00000000
00000000
;

//---------------dance-double - ----------------
#NOTES:
     dance-double:
     :
     Easy:
     4:
     0.339,0.668,0.101,0.126,0.000:
00000000
00000000
00000000
00000000
,
00000000
00000000
00000000
00000000
,
00000000
00000000
00000000
00000000
,
00000000
00000000
00000000
00000000
,
00000000
00000000
00000000
10000000
,
00000000
01000000
00100000
00010000
,
00000000
10000000
01000000
00010000
,
01000000
00000000
10000000
01000000
00100000
01000000
00010000
00000000
,
01000000
00100000
00000000
00001000
,
00000000
01000000
00000000
00001000
,
00000000
00010000
00000000
00001000
,
00000000
00100000
00000000
00001000
,
00000000
00010000
00000000
00000010
,
00000000
00010000
00000000
00000100
,
00000000
00010000
00000000
00001000
,
00000000
00010000
00000000
00101000
,
00010000
00000000
00000010
00000000
,
00000100
00000000
00000001
00000000
,
00000010
00000000
00000100
00000000
,
00010000
00000000
00001000
00000000
,
00100000
00000000
00010000
00000000
,
01000000
10100000
00000000
00010000
,
00000000
00100000
00011000
00000000
,
00000010
00000000
00000100
00000000
,
00000001
00000000
00000010
00000000
,
00000100
00000000
00010000
00000000
,
00000010
00000000
01000000
00000000
,
00000001
00000000
00010000
00000000
,
00000001
00000000
00100000
00000000
,
00001000
00000000
10000000
00000000
,
01100000
00010000
00000000
00100000
,
00000000
00001000
00000000
00001000
,
00000000
00010000
00000000
00000010
,
00000000
00001000
00000000
00001000
,
00000000
00010000
00000000
00001000
,
00000000
01000000
00000000
00010000
,
00000000
10000000
00100000
01000000
,
00010000
00100000
00010000
10000000
,
00001000
00010000
00000001
00000010
,
00000001
00010000
00001000
10000000
,
00100000
10000000
00001000
01000000
,
00001000
00010000
00000100
00000010
,
00000001
00000000
00000001
00000000
,
00001000
00000000
00001000
00000000
,
00000010
00000000
00000010
00000000
,
00000100
00000000
00000100
00000000
,
00000001
00000000
00001000
00000000
,
00000100
00000000
00010000
00000000
,
00001000
00000000
00100000
00000000
,
00010000
00000000
00010000
10100000
,
00000000
01000000
00000000
01000000
,
00000000
00100000
00000000
00100000
,
00000000
00010000
00000000
00010000
,
00000000
00001000
00000000
00001000
,
00000000
00100000
00000000
00000010
,
00000000
00010000
00000000
00000100
,
00000000
00000000
00001000
00000010
,
00000000
00000000
00000100
00000001
,
00000000
00001000
00000000
00000010
,
00000000
00010000
00000000
00000100
,
00000000
00100000
00000000
00001000
,
00000000
01000000
00000000
00010000
,
00000000
10000000
00000000
00100000
,
00000000
01000000
00000000
00010000
,
00000000
00100000
00000000
00001000
,
00000000
00010000
00000010
00000000
,
00001000
00000000
00000001
00000000
,
00000100
00000000
00000010
00000000
,
00001000
00000000
00000100
00000000
,
00001000
00000000
00000010
00000000
,
00000001
00000000
00000010
00000001
,
00000010
00000001
00000010
00000010
,
00001000
00000200
00100300
00100000
,
00001000
02000000
00000000
03010000
,
00000000
10000000
00000000
00100000
,
00000000
01000000
00000000
00010000
,
00000000
10000000
00000000
00100000
,
00000000
01000000
00000000
00001000
,
00000000
00100000
00000000
00010000
,
00000000
01000000
00000000
00001000
,
00000000
00100000
00000000
00010000
,
00000000
01000000
00000000
00000100
,
00000000
00010000
00000000
00000010
,
00000000
00001000
00000000
00000100
,
00000000
00010000
00000000
00000010
,
00000000
00001000
00000000
00000001
,
00000000
00000100
00000000
00000010
,
00000000
00001000
00000000
00000001
,
00000010
00000100
00001000
00000001
,
00000010
00000100
00001000
00000001
,
00000110
00000000
00000110
00000000
,
00002002
00000000
00000000
00000000
,
00000000
00000000
00003003
00000000
,
00000010
00000000
00000100
00000000
,
00000001
00000000
00001000
00000000
,
00000100
00000000
00010000
00000000
,
00001000
00000000
00100000
00000000
,
00000010
00000000
00010000
00000000
,
00001000
00000000
00100000
00000000
,
00010000
01100000
10010000
00000000
,
00100000
00000000
01000000
00000000
,
00010000
00000000
01000000
00000000
,
00100000
00000000
01000000
00000000
,
10000000
00000000
00100000
00000000
,
01000000
00000000
00010000
00000000
,
00010000
00000000
00001000
00000000
,
00010000
00000000
00001000
00010000
,
00001000
00010000
00001000
00000000
,
00000010
00000000
00000000
00000001
,
00000100
00000000
00000010
00001000
,
00000000
00000100
00020000
00032000
,
00203000
00320000
02030000
03200000
,
20300000
32000000
03200000
00310000
,
01001000
00220000
00000000
00330000
;

//---------------dance-single - ----------------
#NOTES:
     dance-single:
     :
     Challenge:
     13:
     0.955,1.000,0.848,0.420,0.327: // measure 1
0000
0000
0000
0000
,  // measure 2
0000
0000
0000
0000
,  // measure 3
0000
0000
0000
0000
0000
0000
0000
0000
0000
0000
0000
0000
0001
0000
0000
0010
,  // measure 4
0100
0000
0000
1000
0000
0000
0010
0000
0000
0100
0000
0000
1001
0000
0000
0000
0000
0000
2200
0000
0001
0000
0010
0000
,  // measure 5
3301
0000
1000
0000
0022
0000
0033
0000
2020
0000
3030
0000
0010
0000
0000
1000
,  // measure 6
0100
0000
0010
0000
0000
0000
0010
0000
0001
0000
0010
0000
1000
0000
0000
0100
,  // measure 7
0010
0000
0001
0000
0001
0000
0100
0000
0010
1001
0000
0000
1000
0010
0100
0000
,  // measure 8
0100
0001
0100
0000
0010
1000
0100
0001
0010
1000
0100
0001
0010
0000
1000
0000
,  // measure 9
0100
0000
0001
0000
0010
0000
0000
0000
1000
0000
0000
0010
0100
0000
0000
0000
,  // measure 10
0001
0000
0000
0000
0010
0000
0000
0000
0100
0000
0000
0010
0100
0000
0000
0000
,  // measure 11
0001
0000
0000
0000
0001
0000
0000
0000
1000
0000
0000
0001
0010
0000
0000
0000
,  // measure 12
0100
0000
0001
0000
0010
1000
0100
1000
,  // measure 13
0010
0000
0000
0000
0101
0000
0000
0000
0010
0000
0000
0100
0010
0000
0000
0000
,  // measure 14
1000
0000
0000
0000
0001
0000
0000
0000
1000
0000
0000
0001
1000
0000
0000
0000
,  // measure 15
0010
0000
0000
0000
0101
0000
0000
0000
1000
0000
0000
0010
1000
0000
0000
0000
,  // measure 16
0100
0000
1010
0000
0100
0000
0101
1000
,  // measure 17
0110
0000
0000
0101
0000
0000
1010
0000
,  // measure 18
0001
0010
0000
0101
0000
0000
0011
0000
,  // measure 19
1000
0100
0000
0020
0000
0030
0100
0000
,  // measure 20
0010
1000
0010
0001
0010
1000
0010
0100
,  // measure 21
0001
0000
0000
0000
1000
0000
0000
0010
0100
0000
0000
0000
0001
0000
0000
0000
,  // measure 22
1000
0010
0001
0100
1000
0000
0000
0000
0010
0000
0100
0000
0001
0000
0000
0000
,  // measure 23
0010
0000
0000
0000
1000
0010
0001
0100
1000
0000
0000
0000
0000
0000
0000
0000
,  // measure 24
0202
0000
0000
0010
,  // measure 25
1000
0010
0303
0000
0100
0000
0000
0000
,  // measure 26
2200
0000
0000
0010
,  // measure 27
0001
0010
3300
0000
0100
0000
0010
0001
,  // measure 28
0010
0000
0100
0010
1000
0010
0000
0001
,  // measure 29
0010
0000
0100
0010
1000
0000
1010
0000
,  // measure 30
0101
0000
0010
0100
0010
0000
0001
0000
,  // measure 31
1010
0000
0001
1000
0001
1000
0001
1000
,  // measure 32
0001
1000
0010
0100
0001
0010
0100
1000
,  // measure 33
0010
0100
0001
0010
0100
1000
0010
1000
,  // measure 34
0010
0000
1100
0000
0001
0100
1000
0100
,  // measure 35
0001
0000
0001
0000
0001
1000
0000
0010
,  // measure 36
0100
0000
0001
0010
0000
0100
1000
0000
,  // measure 37
0101
0011
1100
0110
,  // measure 38
1001
0000
0000
0000
0001
0000
0010
0000
1000
0000
0100
0000
0001
1000
0100
1000
,  // measure 39
0001
0000
0100
0000
0010
0000
0001
0010
0001
0000
0001
0000
0001
0000
0110
0000
0001
0000
1100
0000
0001
0000
0010
0100
0010
0000
0010
1000
0010
0000
0001
0000
,  // measure 40
0001
0000
0100
0000
0100
0000
0010
1000
0100
0000
0001
0100
0010
0000
0100
1000
0100
0000
0001
0100
0001
0000
0100
0000
0010
0001
0100
0000
0000
0000
1010
0000
,  // measure 41
0000
0000
0101
0000
0000
0000
0010
0000
0010
0001
0010
0000
0000
0000
1100
0000
0100
0001
0000
0010
0100
0000
1010
0000
0001
0100
1000
0000
0000
0000
0110
0000
,  // measure 42
0000
0011
0000
0010
1000
0000
0100
0000
0001
0000
0010
0000
1000
0000
0100
0000
,  // measure 43
0010
0001
0010
1001
,  // measure 44
0100
0010
0001
1100
,  // measure 45
0010
0100
1000
0011
,  // measure 46
0100
0000
0001
0010
0100
0000
1001
0000
,  // measure 47
0101
0000
0001
1000
0001
0100
1000
0000
,  // measure 48
0110
0000
0001
1000
0100
0000
0010
0000
,  // measure 49
0101
0110
1010
0101
,  // measure 50
0011
1100
0011
0011
,  // measure 51
0001
0010
0200
0000
1000
0300
0110
0000
,  // measure 52
0100
0001
0020
0000
1000
0000
0031
0000
,  // measure 53
0001
0010
2000
0000
0100
3000
1010
1000
,  // measure 54
0100
1000
0001
0100
0010
0100
1001
0000
,  // measure 55
0202
0000
0000
0310
0000
0000
2000
0000
,  // measure 56
0000
0010
3003
0000
0100
0000
0200
0000
,  // measure 57
0010
1000
0010
1000
0310
0000
0100
0000
,  // measure 58
0001
0000
1000
0000
0000
0000
0001
1000
,  // measure 59
0010
0000
0100
0001
0000
0001
0010
0100
,  // measure 60
1000
0000
0010
0100
1000
0100
0001
1000
,  // measure 61
0001
0000
1000
0100
0000
1000
0001
0100
,  // measure 62
0010
0000
0001
1000
0100
0000
0001
0100
,  // measure 63
1000
0000
0100
0001
0000
0010
1000
0010
,  // measure 64
0001
0000
0100
1000
0100
0000
0001
0000
,  // measure 65
0001
0000
0110
0000
0100
1000
0100
1000
,  // measure 66
0200
0000
0300
0000
1001
0000
0010
0001
,  // measure 67
0100
0010
0000
0001
0100
0010
0001
0000
,  // measure 68
0100
0010
0001
0000
1000
0100
0010
0001
,  // measure 69
0010
0100
0000
1000
0001
0100
0001
0000
,  // measure 70
1000
0000
0100
0000
1000
0000
0000
0000
0100
0000
0001
0000
0010
0000
0100
0001
,  // measure 71
0010
0000
0001
0000
1100
0000
0011
0000
0010
0100
0001
0010
1000
0001
0100
0000
,  // measure 72
1010
0000
0101
0000
2020
0000
3030
0000
2000
0000
0100
0010
3001
0000
1001
0000
,  // measure 73
0210
0000
0001
0010
1300
0000
1100
0000
0102
0000
0010
0010
1003
0000
0101
0000
,  // measure 74
0021
0000
0001
0001
0031
0000
0001
0000
0001
0000
1000
0000
1000
0000
0010
0000
,  // measure 75
1000
0022
0033
0010
,  // measure 76
0010
0000
0001
0000
1000
0000
0010
0100
,  // measure 77
0010
2002
3003
0100
,  // measure 78
0100
0000
0001
0000
0010
0000
1000
0010
,  // measure 79
1000
0000
2200
0000
3300
0000
0100
0001
,  // measure 80
0010
0000
0100
1000
0010
0000
0100
0001
,  // measure 81
0010
0000
0022
0000
0033
0000
0010
0001
,  // measure 82
0100
0000
0100
0010
0001
0000
0001
1000
,  // measure 83
0001
0000
0110
0000
1001
0000
0010
0001
,  // measure 84
0100
0000
0011
0000
0100
0000
1000
0010
,  // measure 85
0100
0000
0011
0000
0100
0000
0010
0001
,  // measure 86
0100
1010
0100
0021
,  // measure 87
1000
0032
0203
1000
,  // measure 88
0001
0320
1000
0031
,  // measure 89
0101
0000
1010
0000
1100
0000
1000
0100
,  // measure 90
0010
0001
0100
0010
0001
1000
0010
0000
,  // measure 91
1000
0100
0010
0001
,  // measure 92
1000
0100
0010
1000
,  // measure 93
0100
0001
0010
0100
,  // measure 94
0010
0100
1000
0000
0200
0000
0010
0001
,  // measure 95
0010
0301
0000
0000
0001
0100
0001
0000
,  // measure 96
1000
0100
1000
0000
0020
0000
0001
1000
,  // measure 97
0001
1030
0000
0001
0010
1000
0100
0000
,  // measure 98
0010
0001
0010
0100
,  // measure 99
1000
0100
1000
0100
0001
0100
0001
0000
,  // measure 100
0010
0000
0100
0000
1010
0000
0100
0010
0001
0000
0010
0000
1100
0000
0011
0000
0110
0000
0000
0000
0000
0000
0000
0000
1000
0000
0000
0000
0000
0000
0000
0000
,  // measure 101
0100
0001
0010
0100
,  // measure 102
0001
0010
0100
0010
,  // measure 103
1000
0001
0010
0001
,  // measure 104
0100
0010
1001
0100
,  // measure 105
0011
1000
0110
0001
,  // measure 106
1100
0010
0101
1000
,  // measure 107
0011
0100
1010
0100
,  // measure 108
0002
0000
0003
0001
,  // measure 109
0001
0000
0100
0010
0001
0000
0100
0000
,  // measure 110
1001
0000
0001
0100
0010
0001
1100
0000
,  // measure 111
1000
0100
0010
1000
0202
0000
0023
0000
,  // measure 112
2300
0230
3021
1300
,  // measure 113
2100
0000
0000
0000
0000
0000
0000
0000
0032
0000
0000
0000
0000
0000
0000
0000
3113
0000
0000
0000
0000
0000
0000
0000
1001
0000
0000
0110
0000
0000
0011
0000
,  // measure 114
0110
1100
1001
0000
0220
0000
0000
0000
0000
0000
0000
0000
0330
0000
0000
0000
;

//---------------dance-single - ----------------
#NOTES:
     dance-single:
     :
     Hard:
     10:
     0.809,1.000,0.260,0.529,0.235:
0000
0000
0000
0000
,
0000
0000
0000
0000
,
0000
0000
0000
0000
0000
0000
0001
0100
,
0010
0000
0000
1100
0000
0000
0011
0000
0000
0100
1000
0001
,
0100
0000
0000
0000
1010
0000
0000
0000
0101
0000
0000
0000
1000
0000
0000
0010
,
0100
0000
0001
0000
0010
0000
0000
0200
2000
0000
3300
0000
0001
0000
0000
0010
,
0000
0000
1000
0000
0000
0000
0100
0020
0002
0000
0000
0000
0000
1033
0000
0000
,
0001
0000
0000
0000
0010
1000
0100
0010
0001
0100
0010
1000
0100
0000
0010
0000
,
0001
1000
0100
0000
0000
0010
0100
0000
,
1000
0000
0100
0000
0000
0001
0100
0000
,
0001
0010
0001
0000
0000
1000
0001
0000
,
0100
0000
0001
0000
0010
0000
0100
0010
,
0100
1000
0100
0000
0000
0010
0100
0000
,
0100
0000
0001
0000
0000
0100
0001
0000
,
0001
0000
0000
0000
0010
0100
0001
0100
,
0010
0100
0002
0000
2000
0000
0010
0000
,
3003
0000
1000
0001
1000
0000
0100
0000
,
0010
0000
0001
1000
0001
0000
0100
0000
,
0010
0000
1000
0001
1000
0000
0100
0000
,
0010
0000
0001
0100
0001
0000
0000
0000
,
0100
0000
0010
0100
0010
0000
0100
0000
,
0010
0001
0100
0001
1000
0000
0000
0000
0010
0000
0000
0000
0100
0000
0000
0000
,
0001
0000
0000
0000
1000
0010
1000
0100
1000
0000
0000
0000
0100
0000
0000
0000
,
0001
0100
1000
0010
,
1000
0001
1000
0010
,
0001
0010
1000
0100
,
0010
0000
0001
0000
0001
0000
0010
0001
,
0000
0001
0100
0000
0100
0010
0000
0010
,
1000
0000
1001
0000
0001
0000
0010
0100
,
1000
0100
0010
0000
1000
0000
0200
0000
,
0011
0300
0010
0001
,
0100
0000
0010
0000
1000
0100
0010
0000
,
0010
1001
0100
0010
,
1000
0000
0100
0000
0001
0100
0010
0000
,
0220
0000
0330
0000
1000
0100
0000
0010
,
1000
0000
0100
0001
0000
0010
0100
0000
,
0110
1010
0101
0110
,
0110
0000
0000
0000
0001
0000
0010
0000
0100
0000
1000
0000
0110
0000
1000
0010
,
0100
0001
0010
0100
1000
0001
0100
1000
0100
0010
1000
0100
0001
0100
0010
0001
,
0100
1000
0100
0001
0100
1000
0100
0010
1000
0100
0001
0001
0001
0000
0010
0100
,
0001
0000
0100
0000
0010
0000
1000
0000
0010
0100
0000
0010
1000
0000
1000
0000
0010
1000
0000
1000
0001
0000
0010
0000
0100
0000
0001
0000
0100
0000
0010
0000
,
1000
0010
0001
0100
1000
0000
0100
0000
0010
0000
0100
0000
0002
0000
0200
0000
,
1313
0000
0010
0100
0010
0000
0001
0000
,
1010
0000
0101
0000
,
0000
0000
0100
0010
0100
0000
1000
0000
,
0011
0000
1100
0000
,
0001
0000
0010
0100
0000
0001
0010
0001
,
0100
0000
0001
1000
0000
0001
1000
0000
,
0001
0000
1000
0100
0010
0000
0200
0000
,
2000
0002
3313
1000
,
0100
0000
1000
0000
0100
1000
0001
0000
,
0010
0000
0001
0000
0010
0001
0100
0000
,
0010
0100
0010
0001
,
0001
0100
0010
0100
0000
0000
0000
0000
,
1000
0100
0010
0100
0000
0000
0001
0010
,
0000
0100
1000
0000
0010
0001
1000
0000
,
0010
0100
1000
0001
1000
0001
0000
0100
,
0000
0000
1001
0000
0000
0000
0001
1000
,
0001
0000
0010
0000
0010
0000
0100
0001
,
0100
0000
0010
1000
0010
0000
1000
0100
,
1000
0000
0010
0100
0000
0001
0010
0000
,
0010
0000
0010
0001
0010
0100
0010
0001
,
0010
0000
1000
0001
0000
1000
0001
0010
,
0100
0010
0100
0010
,
0000
0001
0000
1000
0000
0001
2000
0000
,
0002
3003
0002
0200
,
0010
0000
0303
0000
0001
2000
0002
0000
,
0010
0000
3003
0000
1000
0200
2000
0000
,
0010
0000
3300
0000
0001
0200
0002
0000
,
1000
0000
0303
0000
0220
1000
0001
1000
,
1000
0001
1000
0001
0001
1000
0001
1000
,
0331
0000
0000
0000
0001
0000
0000
0000
0100
0000
0000
0000
0010
0000
0000
0000
1000
0000
0000
0001
1000
0000
0001
0000
1000
0000
0000
0000
0010
0000
0000
0000
,
0100
0000
0000
0000
0000
0000
0000
0000
0110
0000
0000
0000
0000
0000
0000
0000
0001
0000
0000
1000
0001
0000
1000
0000
0001
0000
0000
0000
0100
0000
0000
0000
,
0010
0000
0110
0000
0110
0000
1000
0001
,
1000
0000
0220
0000
0330
0000
0000
0001
,
0000
0000
0001
0000
0001
0000
0010
0100
,
0010
0000
2002
0000
3003
0000
0000
0010
,
0000
0000
0010
0000
0010
0000
0010
1000
,
0100
0220
0330
0001
,
0010
0001
0100
0001
0000
0000
0001
0010
,
0001
0000
2200
0000
3300
0000
0000
1000
,
0000
0100
0010
0001
0100
0000
1000
0000
,
0100
0020
0031
0100
,
0010
0002
0013
0100
,
0001
0020
0130
0010
,
0100
2000
3010
0002
,
0013
2000
3100
0002
,
0103
2000
3100
0020
,
0032
0203
2300
3020
,
0032
0000
0203
0000
2300
0000
0002
3003
,
1000
0000
0000
0001
1000
0000
0000
0000
0001
0000
0000
1000
0001
0000
0000
0000
,
0001
0000
0100
0000
,
1000
0000
0010
0000
,
0001
0000
0001
0000
0000
0001
0000
0000
,
0010
0001
0010
0000
0001
0100
0001
0000
,
0010
0100
0010
0000
0000
0010
0000
0000
,
0100
0001
0010
0001
0100
0001
1000
0001
,
1000
0010
1000
0000
0000
0001
0000
0000
,
1000
0000
0100
0010
0001
0000
0100
0000
,
1000
0100
1000
0010
0100
0001
0100
0010
1000
0000
0100
0000
1000
0000
0000
0000
,
0000
0100
0000
1000
0010
1000
0010
0000
,
0100
0010
0100
0000
0001
0100
0001
0000
,
0000
0100
0000
0001
0200
0000
0010
0000
,
0010
0010
0001
0010
,
0010
0000
0310
0000
0001
1000
0001
0000
,
0100
1000
0100
0000
1000
0010
1000
0000
,
0010
0100
0010
0000
1000
0000
1000
0000
,
0001
0001
0100
0010
,
0010
0001
0010
1000
,
0100
0000
0100
0001
0100
0000
1010
0000
,
0100
1000
0100
0000
0201
0000
0320
0000
,
0032
0203
0320
0032
,
0023
0000
0000
0000
0000
0000
0000
0000
0230
0000
0000
0000
0000
0000
0000
0000
0302
0000
0000
0000
0003
0000
0000
0000
0001
0000
0000
0100
0000
0000
1000
0000
,
0010
0001
0010
0000
2002
0000
0000
0000
0000
0000
0000
0000
3003
0000
0000
0000
;

//---------------dance-single - ----------------
#NOTES:
     dance-single:
     :
     Medium:
     8:
     0.553,1.000,0.185,0.185,0.097:
0000
0000
0000
0000
,
0000
0000
0000
0000
,
0000
0000
0000
1000
,
0100
0001
0100
1000
,
0100
0001
0000
0010
,
1000
0010
0001
0010
,
0100
1000
0001
1000
,
0000
0000
0010
0001
0100
1000
0010
0000
,
0001
1000
0000
1000
,
0100
1000
0000
0010
,
0100
0010
0000
1000
,
0001
1000
0000
0001
,
0010
0001
0000
0010
,
0100
0010
0000
0100
,
0010
0100
0000
0010
,
1000
0010
0000
2001
,
3010
0000
0100
0001
,
0010
0000
0100
1000
,
0010
0000
0001
0100
,
0010
0000
1000
0100
,
0010
0000
0100
0001
,
0010
0100
1000
0010
0100
0000
0000
0000
0000
0000
0000
0000
0110
0000
0000
0000
,
0000
0000
0000
0000
0001
0100
0010
0001
0100
0000
0000
0000
0000
0000
0000
0000
,
0100
0010
0100
0000
,
0110
0000
1001
0000
,
1000
0010
1000
0000
,
1001
0000
0110
0100
,
0000
0001
0000
0000
0010
0000
0000
1000
,
0000
0100
0001
0000
,
1000
0000
0000
0000
1000
0001
0000
0000
,
0220
0330
0000
1000
,
0010
1000
0000
0101
,
0000
1010
0000
0010
,
0100
0001
0000
0110
,
0000
0000
1100
0000
0001
0000
0000
0010
,
0000
0000
1000
0000
0000
0100
0000
0000
,
0001
1000
0100
0002
,
0000
0000
0200
0000
0303
0000
1000
1000
,
0010
0100
0010
0000
0001
0000
0001
0000
0100
0010
0100
0000
0001
0000
0001
0000
,
0010
0100
0010
0001
0100
0000
0100
0010
1000
0000
0101
0000
1010
0000
1000
0010
,
0100
0001
0010
0100
1000
0000
0001
0010
0100
0001
0100
0010
0001
0000
1000
0001
,
1000
0000
0001
1000
0001
0000
1000
0000
0001
0000
1000
0000
0001
0000
0000
0000
,
1001
0000
1000
0010
,
1000
0000
0100
0001
,
0010
0000
0100
0010
,
1000
0000
0100
0010
,
0001
0000
0100
0000
0000
1000
0000
0000
,
0010
0000
0000
0001
0000
0000
0100
0000
,
0010
0000
1000
0100
,
1000
0000
0210
0301
,
0000
1000
0010
0100
,
0000
0100
0001
0010
,
0000
0010
0100
1000
,
0001
0010
0100
1000
,
0001
0000
0000
0100
0000
0000
1000
0000
,
0000
0010
0000
0000
0001
0000
0010
0000
,
0000
0000
0000
0100
0000
1000
0000
0001
,
0000
0100
0000
0000
0000
0000
1000
0000
,
0010
1000
0010
0100
,
0001
0100
0001
0010
,
0001
0010
0100
1000
,
0010
1000
0000
0001
,
0100
0001
0100
0010
,
0100
0010
0100
1000
,
0100
1000
0100
0010
,
0020
1000
1030
0001
,
0100
0001
0010
0001
,
0100
0010
1000
0010
,
0100
0010
1000
0100
,
1000
0000
0001
0000
1000
0000
1000
0100
,
0001
0000
0100
0000
1000
0010
0001
0010
,
1000
0000
0000
0000
1000
0000
0000
0000
1000
0000
0000
0001
1000
0000
0001
0000
,
1000
0000
0000
0000
0110
0000
0000
0000
0110
0000
0000
0001
0010
0000
0010
0000
,
0110
0000
0100
1000
0010
0000
0000
0000
0010
0000
0000
0000
0010
0000
0100
0000
,
0010
0100
0010
0000
0000
0000
0000
0000
,
0000
0000
0000
0000
0000
0000
0100
0001
,
0100
0001
0100
0000
0000
0000
0000
0000
,
0000
0000
0000
0000
0000
0000
0001
1000
,
0001
1000
0001
0000
0000
0000
0000
0000
,
0000
0000
0000
0000
0000
0000
1000
0100
,
1000
0100
1000
0000
0000
0000
0000
0000
,
0000
0000
0000
0000
0000
0000
0100
0010
,
0100
0010
0100
0000
0000
0000
0010
1000
,
0010
1000
0010
0000
0000
0000
0010
0001
,
0010
0001
0010
0000
0000
0000
0100
1000
,
0100
1000
0100
0000
0000
0000
0010
0000
,
1000
0001
0100
0010
,
1000
0100
0010
0001
,
0100
0010
1000
0100
,
0001
0100
1000
0200
,
0301
0100
1000
0001
,
1000
0000
0100
0000
,
0010
0000
0001
0000
,
0010
0100
0001
0000
,
1000
0100
0010
0000
,
0001
0100
0010
0000
,
0001
1000
0010
0000
,
1000
0100
0010
0000
,
0001
0010
0100
1000
,
0100
1001
0110
1001
0100
0000
1000
0000
,
0010
0000
0100
1000
,
0001
0000
0001
0010
,
0100
1000
0100
0010
,
0001
0000
0001
0010
,
0001
0000
0100
1000
,
0100
0000
0001
1000
,
0100
0010
0001
1000
,
0100
0010
0001
0010
,
0001
0000
0001
0002
,
0103
0100
0020
1030
,
0001
2000
3002
0203
,
0302
0023
0032
0203
,
0320
0000
0000
0000
0000
0000
0000
0000
2030
0000
0000
0000
0000
0000
0000
0000
3200
0000
0000
0000
0000
0000
0000
0000
0301
0000
0000
1000
0000
0000
0001
0000
,
0100
0001
0010
0000
2002
0000
0000
0000
0000
0000
0000
0000
3003
0000
0000
0000
;

//---------------dance-single - ----------------
#NOTES:
     dance-single:
     :
     Easy:
     5:
     0.345,0.573,0.168,0.176,0.000:
0000
0000
0000
0000
,
0000
0000
0000
0000
,
0000
0000
0000
0000
,
0000
0000
0000
0000
,
0000
0000
0000
1000
,
0001
0100
0010
0001
,
0010
1000
0100
0001
,
0100
0000
1000
0100
0010
0100
0001
0000
,
0100
0010
0000
0000
,
0000
0100
0000
0000
,
0000
0001
0000
0000
,
0000
0010
0000
0001
,
0000
0001
0000
0000
,
0000
1001
0000
0000
,
0000
0110
0000
0000
,
0000
0001
0000
0010
,
0001
0000
0000
0000
,
0100
0000
0000
0000
,
1000
0000
0000
0000
,
0001
0000
0010
0000
,
0001
0000
0100
0000
,
0010
1100
0000
0001
,
0000
0010
0101
0000
,
0010
0000
1000
0000
,
0100
0000
0010
0000
,
0001
0000
0100
0000
,
0010
0000
0100
0001
,
0000
0000
0001
0000
,
0000
0001
0010
0000
,
0100
0000
0001
0000
,
0110
0001
0000
0010
,
0000
0100
0000
0001
,
0000
0010
0000
0100
,
0000
1000
0000
0010
,
0000
0001
1000
0000
,
0000
1000
0000
0000
,
1000
0010
0010
0010
,
1000
0010
1000
0100
,
0100
0000
0001
0000
0001
0010
0010
0000
,
0001
0000
1000
0100
0010
0001
1000
0000
,
0010
0000
0100
0000
0001
0001
0100
0000
,
0010
0010
1000
0000
1000
0000
0020
0000
,
0130
0000
1000
0000
,
0001
0000
0100
0000
,
0010
0000
1000
0000
,
0100
0000
0010
0000
,
0200
0001
0000
0000
,
0001
0300
0000
0001
,
0100
0000
0010
0000
,
0001
0000
0001
1010
,
0000
0100
0000
0100
,
0000
0010
0000
0010
,
0000
0001
0000
0001
,
0000
0100
0000
2000
,
0010
0000
0000
0010
,
3000
0000
0010
1000
,
0000
0001
0000
1000
0000
0001
0000
0000
,
1000
0001
0000
1000
,
0000
0100
0000
0010
,
0000
0110
0000
0010
,
0000
0001
0000
0100
,
0000
0110
0000
0010
,
0000
0001
0000
1000
,
0000
1001
0000
0010
,
0000
0010
0000
0020
,
0000
0030
0010
0000
,
1000
0000
0100
0000
,
0001
0000
0010
0000
,
1000
0000
0100
0000
,
0010
0000
0000
0000
0000
0001
0000
0100
,
0000
0010
0000
0100
0000
1000
0000
0100
,
0000
0010
0000
1000
0100
0000
0010
0000
,
0001
0100
0010
0001
,
0010
0200
0000
0301
,
0000
1000
0000
0010
,
0000
0100
0000
0001
,
0000
1000
0000
0010
,
0000
0100
0000
0001
,
0000
0010
0000
0100
,
0000
1000
0000
0001
,
0000
0010
0000
0100
,
0000
1000
0000
0100
,
0000
0001
0000
0100
,
0000
1000
0000
0100
,
0000
0001
0000
0100
,
0000
1000
0000
0010
,
0000
0100
0000
1000
,
0000
0100
0000
0010
,
0000
0100
0000
0001
,
0000
0100
0000
1010
,
0101
0000
0101
0000
,
2200
0000
0000
0000
,
0000
0000
3300
0000
,
1000
0000
0100
0000
,
1000
0000
0010
0100
,
0001
0000
0010
0000
,
0001
0000
0100
0001
,
0010
0000
0100
0000
,
0010
0000
1000
0000
,
1001
0110
1001
0000
,
0010
0000
0100
0000
,
0001
0000
0100
0000
,
0010
0000
0100
0000
,
1000
0000
0010
0000
,
0100
0000
0001
0000
,
0001
0000
0000
0000
,
0001
0000
0000
0001
,
0000
0001
0000
0000
,
1001
0000
0000
0000
,
0220
0330
0000
2002
,
3003
0000
0002
0003
,
0020
0032
0203
0320
,
2030
3200
0320
0031
,
0100
0220
0000
0330
;

//---------------dance-single - ----------------
#NOTES:
     dance-single:
     :
     Beginner:
     2:
     0.191,0.477,0.059,0.109,0.000:
0000
0000
0000
0000
,
0000
0000
0000
0000
,
0000
0000
0000
0000
,
0000
0000
0000
0000
,
0000
0000
0000
1000
,
0000
0001
0000
1000
,
0000
0001
0000
0100
,
0000
0010
0100
0010
,
0000
1000
0000
0000
,
0000
1000
0000
0000
,
0000
1000
0000
0000
,
0000
0000
0000
0000
,
0000
0001
0000
0000
,
0000
0001
0000
0000
,
0000
0001
0000
0000
,
0000
0000
0000
0000
,
0010
0000
0000
0000
,
0010
0000
0000
0000
,
0010
0000
0000
0000
,
0000
0000
0000
0000
,
0100
0000
0000
0000
,
0100
0100
0000
0000
,
0000
0100
1000
0000
,
1000
0000
1000
0000
,
0000
0000
0001
0000
,
0001
0000
0001
0000
,
0000
0000
0010
0000
,
0000
0000
0010
0000
,
0000
0000
0010
0000
,
0010
0000
0010
0000
,
0000
0100
0000
0100
,
0000
0100
0000
0000
,
0000
1000
0000
1000
,
0000
1000
0000
0000
,
0000
0001
0000
0001
,
0000
0001
0000
0000
,
0000
0010
0010
0010
,
0000
0000
0000
0100
,
0001
0100
0000
0010
,
0001
0100
0000
0010
,
1000
0100
0000
0001
,
1000
1000
0000
0000
,
0100
0000
0000
0000
,
0100
0000
0000
0000
,
0100
0000
0000
0000
,
0000
0000
0000
0000
,
0200
0000
0000
0000
,
0001
0000
0000
0000
,
0301
0000
0000
0000
,
0000
0000
0000
0010
,
0000
0000
0000
0010
,
0000
0000
0000
0010
,
0000
0000
0000
0000
,
0000
0000
0000
2000
,
0000
0000
0000
0100
,
0000
0000
0000
3100
,
0000
0000
0000
0000
0000
0001
0000
0000
,
0000
0000
0000
0001
,
0000
0001
0000
0001
,
0000
0000
0000
1000
,
0000
0000
0000
1000
,
0000
0000
0000
0010
,
0000
0010
0000
0010
,
0000
0000
0000
0100
,
0000
0000
0000
0200
,
0300
0000
1000
0000
,
1000
0000
1000
0000
,
0000
0000
0001
0000
,
0000
0000
0001
0000
,
0000
0000
0010
0000
,
0010
0000
0100
0000
,
0100
0000
0001
1000
,
0001
1000
0010
0100
,
0010
0200
0300
0001
,
0000
0000
0000
1000
,
0000
0000
0000
0001
,
0000
0000
0000
1000
,
0000
0000
0000
0010
,
0000
0000
0000
0100
,
0000
0000
0000
0010
,
0000
0000
0000
0100
,
0000
0000
0000
0001
,
0000
0000
0000
1000
,
0000
0000
0000
0001
,
0000
0000
0000
1000
,
0000
0000
0000
0010
,
0000
0000
0000
0100
,
0000
0000
0000
0010
,
0000
0000
0000
0100
,
0000
0000
0000
0110
,
0010
0000
0010
0000
,
0020
0000
0000
0000
,
0030
0000
0000
0000
,
0010
0000
0000
0000
,
1000
0000
0000
0000
,
0001
0000
0000
0000
,
0100
0000
0000
0000
,
0010
0000
0000
0000
,
1000
0000
0000
0000
,
0001
0100
0110
0000
,
0000
0000
0100
0000
,
0000
0000
0010
0000
,
0000
0000
0001
0000
,
0000
0000
1000
0000
,
0000
0000
0100
0000
,
0000
0000
0010
0000
,
0000
0000
0001
0000
,
0000
0000
0000
0000
,
0110
0000
0000
0000
,
0220
0330
0000
0220
,
0330
0000
0220
0000
,
0000
0000
0000
0000
,
0000
0000
0330
0001
,
1000
2002
0000
3003
;
