#TITLE:ZIV Sucks;
#SUBTITLE:;
#ARTIST:Monkey In The Zoo;
#TITLETRANSLIT:;
#SUBTITLETRANSLIT:;
#ARTISTTRANSLIT:;
#GENRE:;
#CREDIT:Telperion;
#BANNER:;
#BACKGROUND:;
#LYRICSPATH:;
#CDTITLE:;
#MUSIC:zivsucks.ogg;
#OFFSET:-0.467000;
#SAMPLESTART:0.467000;
#SAMPLELENGTH:9.600000;
#SELECTABLE:YES;
#DISPLAYBPM:100.000000;
#BPMS:0.000000=100.000000;
#STOPS:;
#DELAYS:;
#TIMESIGNATURES:0.000000=4=4
;
#BGCHANGES:;
#KEYSOUNDS:;
#ATTACKS:;

//---------------dance-single - Telperion----------------
#NOTES:
     dance-single:
     Telperion:
     Hard:
     8:
     0.504,0.403,0.074,0.394,0.493,124.000,3.000,16.000,0.000,0.000,0.000,0.000,0.504,0.403,0.074,0.394,0.493,124.000,3.000,16.000,0.000,0.000,0.000,0.000:
1000
0000
1000
0000
0001
0100
0000
0000
0010
0000
0100
0000
0101
0000
0000
0000
,
1000
0000
1000
0001
0010
0001
0000
0001
0100
0000
0010
0000
0100
0000
0000
0000
,
0001
0000
0001
0000
1000
0100
0000
0000
0020
0000
0230
0000
1300
0001
1000
0000
,
0001
0000
0001
1000
0010
1000
0000
0001
0010
0000
0010
0000
0100
0000
0000
0000
,
1000
0000
1000
0000
0001
0100
0000
0001
0100
0000
0100
0000
0020
0000
0030
0000
,
1000
0000
0001
1000
0010
1000
0000
0001
0010
0000
0000
0100
0010
0100
0000
0100
,
2000
0000
3002
0000
0203
0000
0320
0000
0032
0000
0013
1000
0100
0000
0000
0000
,
0010
0000
0100
1000
0001
1000
0000
0001
0100
0000
0100
0000
0010
0000
0000
0000
,
1000
0000
0001
0000
0010
0000
0100
0000
1000
0000
0020
0000
0000
0000
0000
0130
0000
0000
0001
0000
0000
0000
0000
0000
,
1000
0000
1000
0001
0010
0001
0000
0001
1000
0000
0001
0100
0020
0000
0030
0000
,
0000
0000
0200
0000
0300
0000
0010
0100
0001
0000
0000
0001
1000
0000
0000
0000
,
0001
0000
0001
1000
0010
1000
0000
0100
0010
0000
0010
0000
0200
0000
0300
0000
,
0020
0000
0032
0000
2003
0000
0000
3001
1000
0000
0000
0000
0110
0000
0000
0000
,
0101
0000
0000
0001
1000
0000
0000
1000
0100
0000
0100
0000
0010
0100
0000
0000
,
0010
0000
0000
0000
0010
0000
0100
1000
0001
0000
0000
0001
0200
0000
0300
0000
;

//---------------dance-single - Telperion----------------
#NOTES:
     dance-single:
     Telperion:
     Medium:
     5:
     0.356,0.293,0.320,0.025,0.000,87.000,13.000,1.000,0.000,0.000,0.000,0.000,0.356,0.293,0.320,0.025,0.000,87.000,13.000,1.000,0.000,0.000,0.000,0.000:
1000
0000
0001
0000
0100
0010
0110
0000
,
0001
0000
1000
0000
0100
0010
0110
0000
,
1000
0000
0001
0000
0100
0010
0110
0000
,
0001
0000
1000
0000
0100
0010
0110
0000
,
1000
0000
1000
0000
0001
1000
0110
0000
,
0001
0000
0001
0000
1000
0001
0110
0000
,
1000
0000
1000
0000
0001
1000
0110
0000
,
0001
0000
0001
0000
1000
0001
0110
0000
,
1000
0100
0010
0001
0100
0000
0110
0000
,
0001
0100
0010
1000
0100
0000
0110
0000
,
1000
0001
0010
0100
0010
0000
1001
0000
,
0001
1000
0010
0100
0010
0000
1001
0000
,
0010
0100
0100
0010
0010
0100
0100
0010
,
0010
0100
0100
0010
0010
1000
0100
0001
,
0010
1000
0010
0001
0100
0010
0120
0030
;

//---------------dance-single - Telperion----------------
#NOTES:
     dance-single:
     Telperion:
     Easy:
     2:
     0.144,0.118,0.025,0.025,0.000,39.000,1.000,1.000,4.000,0.000,0.000,0.000,0.144,0.118,0.025,0.025,0.000,39.000,1.000,1.000,4.000,0.000,0.000,0.000:
1000
0000
0001
0000
,
0100
0001
1000
0000
,
0001
0000
0100
0000
,
0001
1000
0100
0000
,
1000
0000
0001
0000
,
0100
0010
1000
0000
,
0001
0000
0010
0000
,
0001
0010
0100
0000
,
1000
0000
0001
0000
,
0100
0010
1000
0000
,
0100
0000
1000
0000
,
0001
0010
0100
0000
,
1000
0000
0001
0000
,
0100
0010
1000
0000
,
0010
0000
0100
0000
0010
0000
0120
0030
,
0000
0000
0000
0000
,
MMMM
0000
0000
0000
;

//---------------dance-single - DJ RAVERS----------------
#NOTES:
     dance-single:
     DJ RAVERS:
     Edit:
     10:
     0.490,0.414,0.000,0.074,1.000,136.000,0.000,3.000,0.000,0.000,0.000,0.000,0.490,0.414,0.000,0.074,1.000,136.000,0.000,3.000,0.000,0.000,0.000,0.000: // measure 1
0001
0000
0000
0000
0000
0000
1000
0000
0000
0000
0000
0000
0100
0000
0000
0010
0000
0000
0001
0000
0010
0000
0000
0000
0000
0000
0100
0000
0000
0000
0000
0000
1000
0000
0000
0000
0001
0010
0000
0000
0000
0000
0000
0100
0000
0000
0000
0000
,  // measure 2
0000
0000
0000
0000
1000
0000
0001
0000
0000
1000
0000
0000
0000
0000
0000
0100
0000
0000
0010
0000
0000
0000
0000
0100
0000
0000
0000
0000
0000
0000
0000
1000
0000
0010
0000
0000
0000
0000
0000
0100
0000
0000
0000
0000
0000
0000
0000
0000
,  // measure 3
0000
0000
0001
0000
0000
0010
0000
0000
0000
0000
0000
0000
0001
0000
0000
0000
0000
0100
0000
0000
0000
0000
0000
0000
0100
0000
0000
0000
0000
0000
0010
0000
0000
0000
0000
0000
1000
0000
0000
0010
0000
0000
0100
0000
0000
0000
0000
0000
,  // measure 4
0001
0000
0000
0000
0000
0000
0010
0000
0000
0000
0000
0000
0001
0000
0000
0000
0000
0000
1000
0000
0000
0000
0000
0100
0000
0000
0010
0000
0000
0100
0000
0000
0000
0000
0000
1000
0000
0000
0000
0000
0000
0000
0000
0000
0001
0000
0000
0000
,  // measure 5
0000
0100
0000
0000
0000
0000
0000
0010
0000
0000
0000
0000
0000
0000
0000
1000
0000
0000
0000
0001
0000
0000
0000
0000
0000
0000
0000
0000
0100
0000
0000
0010
0000
0000
1000
0000
0000
0000
0000
0000
0100
0000
0000
0000
0000
0000
0000
1000
,  // measure 6
0000
0001
0000
0000
0000
0000
0000
0000
0000
0100
0000
0000
0000
0000
0000
0000
0000
0000
0000
0000
0000
0000
0000
0010
0000
0000
0000
0000
0000
1000
0000
0000
0000
0000
0001
0000
0000
0010
0000
0000
0000
0000
0000
0000
0000
0000
0000
0000
,  // measure 7
0000
0000
0000
0100
0000
0000
0000
0010
0000
0000
0000
0000
0001
0000
0000
0000
0000
0000
0100
0000
0000
0000
0000
0000
0000
0010
0000
0000
0000
0100
0000
0000
0000
0000
0000
0001
0000
0000
0000
0010
0000
0000
0000
0000
0000
0000
0000
0000
,  // measure 8
0100
0000
0000
0000
1000
0000
0100
0000
0000
0000
0000
0000
0010
0000
0000
0000
0000
0000
0000
0100
0000
0000
1000
0000
0000
0000
0000
0000
0001
0000
0000
0000
0000
0000
0000
0100
0000
0000
0001
0000
0000
0000
0000
0000
0000
0000
0000
0000
,  // measure 9
1000
0000
0000
0000
0010
0000
0000
0000
0100
0000
0000
0000
0001
0000
0000
0000
0010
0000
0000
0000
0100
0000
0000
0000
0000
0000
0000
0000
0000
0000
1000
0000
0000
0001
0000
0000
0000
1000
0000
0000
0100
0000
0000
0010
0000
0000
0000
0000
,  // measure 10
0000
0000
0000
0000
0020
0000
0000
0000
0000
0000
0000
0000
0030
0000
0100
0000
0000
0000
0000
1000
0000
0000
0000
0001
0000
0000
0000
0000
0000
0100
0000
0000
1000
0000
0100
0000
0000
0000
0000
0000
0001
0000
0000
0000
0000
0000
0010
0000
,  // measure 11
0000
0000
0000
0000
0000
0000
0100
0000
0000
0000
0000
0000
0000
0000
0000
0000
1000
0000
0000
0000
0000
0100
0000
0000
0000
0000
0000
0000
0010
0000
0000
0001
0000
0000
0000
0000
0000
0000
1000
0000
0000
0000
0010
0000
0000
0000
0100
0000
,  // measure 12
0000
0000
0000
0000
0000
0010
0000
0000
0000
0000
0000
0000
0000
0000
1000
0000
0000
0000
0000
0000
0000
0010
0000
0000
0000
0000
0000
0100
0000
0000
0000
0000
0010
0000
0000
0000
0000
0000
0000
0000
0000
0000
0000
0000
0000
0000
0001
0000
,  // measure 13
0000
0000
0010
0000
0000
1000
0000
0000
0000
0000
0000
0000
0100
0000
0000
0000
0000
0000
0000
0001
0100
0000
0000
0000
0000
0000
1000
0000
0000
0000
0000
0000
0000
0000
0000
0000
0000
0000
0000
0020
0000
0000
0000
0000
0000
0000
0100
0000
,  // measure 14
0030
0000
0000
0100
0000
0000
0000
0000
0000
0000
0000
0000
0000
0000
0000
0001
0000
0000
0000
1000
0000
0000
0001
0000
0000
0000
0000
0000
0100
0000
0000
0000
0000
0000
0000
1000
0000
0001
0000
0000
0000
0000
0000
0010
0000
0000
0000
0000
,  // measure 15
0000
0000
0000
0000
0000
0000
0200
0000
0000
0000
0000
0000
0000
0000
0300
0100
0000
0000
0000
0001
0000
0000
0000
0000
1000
0000
0000
0001
0000
0000
0000
0000
0000
0000
0000
0000
0000
0000
0000
0000
0000
0000
0000
0000
0000
0000
0000
0000
,  // measure 16
0010
0000
0000
0000
0000
0000
0000
0000
0000
1000
0000
0000
0000
0000
0000
0000
0000
0000
0001
0000
0000
0000
0010
0000
0000
0000
0000
0100
0000
0000
0001
0000
0000
0000
1000
0000
0000
0000
0000
0000
0000
0000
0010
0000
0100
0001
0000
1000
;
