#TITLE:Witch Doctor;
#SUBTITLE:;
#ARTIST:BanYa;
#TITLETRANSLIT:;
#SUBTITLETRANSLIT:;
#ARTISTTRANSLIT:;
#GENRE:;
#CREDIT:Telperion;
#BANNER:;
#BACKGROUND:;
#LYRICSPATH:;
#CDTITLE:;
#MUSIC:Witch Doctor.ogg;
#OFFSET:-4.990;
#SAMPLESTART:35.759;
#SAMPLELENGTH:12.000;
#SELECTABLE:YES;
#DISPLAYBPM:*;
#BPMS:0.000=195.000,67.000=390.000,68.000=195.000,71.000=390.000,72.000=195.000,73.000=390.000,74.000=195.000,75.000=390.000,76.000=195.000,115.000=390.000,116.000=195.000,119.000=390.000,120.000=195.000,123.000=390.000,124.000=195.000,132.000=48.750,136.000=97.500,138.000=195.000,167.000=585.000,167.500=195.000,168.000=585.000,168.500=195.000,171.000=585.000,171.500=195.000,172.000=585.000,172.500=195.000,175.000=585.000,175.500=195.000,176.000=585.000,176.500=195.000,182.000=390.000,310.000=97.500;
#STOPS:67.000=0.154
,71.000=0.154
,73.000=0.154
,75.000=0.154
,115.000=0.154
,119.000=0.154
,123.000=0.154
,167.000=0.103
,168.000=0.103
,171.000=0.103
,172.000=0.103
,175.000=0.103
,176.000=0.103
;
#BGCHANGES:;
#KEYSOUNDS:;

//---------------dance-single - Telperion----------------
#NOTES:
     dance-single:
     Telperion:
     Challenge:
     12:
     0.934,1.000,0.280,0.058,0.432:
0000
0000
0000
0000
,
0000
0000
0000
0000
,
0000
0000
0000
0000
,
0000
0000
0000
0000
,
0001
0100
1000
0010
0100
1000
0100
0001
,
0010
0100
0001
0100
0010
1000
0001
0100
,
1000
0001
0100
0010
0001
1000
0100
0001
,
0010
0001
1000
0100
0001
1000
0010
0100
,
1000
0001
0100
1000
0100
0001
0010
0100
,
0001
0100
1000
0100
0010
0001
1000
0010
,
0001
1000
0100
0010
0100
0001
0010
1000
,
0001
0100
0010
0001
1000
0001
0100
0001
,
0010
0001
0010
0000
0100
0000
1000
0100
1000
0100
1000
0000
0100
0000
0010
0000
,
0001
0100
0001
0000
0100
0000
0010
1000
0010
1000
0010
0000
1000
0000
0010
0000
,
0100
0001
0100
0000
0010
0000
1000
0100
0010
0100
1000
0000
0010
0000
1000
0000
,
0001
0010
0001
0000
0100
0000
0001
0100
0001
0010
0100
0000
0010
0000
0001
0000
,
0100
0010
1000
0100
0010
0001
0110
0000
,
0100
0001
1000
0100
0001
1000
0110
0000
,
0010
0001
0110
0000
0010
1000
0110
0000
,
0001
0000
0010
0000
0001
0000
1000
0000
0010
1000
0001
0010
0001
1000
0010
1000
,
0001
0000
0000
0000
1000
0000
0000
0000
0001
0010
0001
0010
0100
1000
0100
1000
,
0001
0000
0000
0000
1000
0000
0000
0000
0010
1000
0010
1000
0001
0100
0001
0100
,
0010
0000
0000
0000
1000
0000
0000
0000
0100
1000
0100
1000
0001
1000
0001
0100
,
0010
0000
0000
0000
0100
0000
0000
0000
0010
0100
0010
1000
0001
1000
0100
0010
,
0100
0000
0010
0000
0100
0000
1000
0000
0001
0100
0001
0000
1000
0100
1000
0000
,
0001
0000
0010
0000
1000
0000
0010
0000
0001
0010
0001
0000
1000
0010
1000
0000
,
0100
0000
0010
0000
0001
0000
0100
0000
0010
0100
0010
0000
1000
0100
1000
0000
,
0001
0000
0100
0000
1000
0000
0100
0000
0010
0100
0010
0000
1000
0100
1000
0000
,
0001
0000
0100
0000
0010
0000
0001
0000
0010
0100
0010
0100
0010
0000
0000
0000
,
1000
0000
0100
0000
0010
0000
0100
0000
0001
0100
0001
0100
0001
0000
0000
0000
,
0100
0000
0010
0000
0001
0000
0100
0000
1000
0100
1000
0100
1000
0000
0000
0000
,
0100
0010
0100
0000
0001
0100
0001
0000
0010
0001
0010
0000
0100
0010
0100
0000
,
1000
0100
0010
0000
0001
0100
0010
0000
1000
0000
0100
0000
0001
0100
0010
0002
,
2000
3003
0220
0000
,
0030
0000
0010
0310
0110
1000
0100
0001
,
0100
0001
0100
0001
0100
1000
0100
1000
0001
0000
0000
0000
0001
0000
1000
0000
,
0010
0001
0010
0001
0010
1000
0010
1000
0001
0000
0000
0000
0001
0000
1000
0000
,
0010
1000
0010
1000
0001
1000
0001
0010
0100
0000
0010
0000
0010
0000
0001
0000
,
0001
0100
0100
0000
0110
0010
1000
0100
,
1000
0001
0100
0001
1000
0000
0000
0000
0110
0000
1000
0000
0001
0000
0100
0000
,
0001
1000
0100
1000
0001
0000
0000
0000
0110
0000
0010
1000
0000
1000
0100
0000
,
0010
0000
0010
0001
0000
0001
0100
0000
0010
0000
1010
0000
0000
0000
0101
0000
,
0000
0011
0100
1000
1010
0101
0000
1100
,
0000
0011
0100
1000
1001
0110
0000
1001
,
0000
0110
1000
0100
0001
0010
1000
0001
,
0100
0010
0001
1000
0100
0000
1000
0000
,
0001
0100
1000
0100
,
0101
0000
0001
1000
,
0100
0001
0100
1000
,
1001
0000
0001
0010
,
0100
1000
0001
0100
,
1000
0001
0010
0100
,
0001
1000
0100
0010
,
1000
0000
0001
0000
0100
0010
0100
0000
,
1000
0001
0100
1000
,
1100
0000
0000
0000
0010
0100
0010
0000
,
1000
0100
0001
0100
,
0110
0000
0000
0000
0001
1000
0001
0000
,
0100
0010
1000
0001
,
0100
0010
1000
0100
,
0001
0100
1000
0001
,
0100
0000
1000
0000
0100
0010
0100
0000
,
0001
0000
0010
0000
0100
0010
0100
0000
,
1000
0000
0001
0000
0100
0010
0100
0000
,
1000
0000
0100
0000
0010
0100
0010
0000
,
1000
0000
0100
0000
0001
0100
0001
0000
,
0100
0000
0010
0000
0001
0100
0001
0000
,
0010
0000
0100
0000
1000
0001
0100
0000
,
0010
1000
0100
0000
0010
0001
1000
0000
,
0001
0010
0100
0000
1000
0001
1000
0000
,
0100
1000
0100
0000
0010
0001
0010
0100
,
1000
0100
0010
0000
0001
0100
0001
0000
,
1000
0100
1000
0000
0010
0100
0001
0010
,
0001
0100
0001
0000
1000
0010
0100
0000
,
0001
1000
0010
0000
1000
0100
1000
0001
,
0100
0001
1000
0000
0001
0010
0100
0010
,
0001
1000
0010
0100
0010
1000
0001
0010
,
0100
0010
0001
1000
0020
0000
0030
0000
;

//---------------dance-single - Telperion----------------
#NOTES:
     dance-single:
     Telperion:
     Hard:
     10:
     0.813,0.815,0.199,0.047,0.070:
0000
0000
0000
0000
,
0000
0000
0000
0000
,
0000
0000
0000
0000
,
0000
0000
0000
0000
,
1000
0100
1000
0100
0001
0100
0001
0100
,
1000
0010
1000
0010
0100
1000
0100
0000
,
0001
0100
0001
0100
1000
0100
1000
0100
,
0010
1000
0100
0010
0001
1000
0001
0010
,
0100
0001
0100
0001
0100
1000
0100
1000
,
0010
0100
1000
0100
0010
1000
0010
0000
,
0100
1000
0100
1000
0100
0001
0100
0001
,
0010
0100
0001
0100
0010
0001
0100
0010
,
0100
0001
1000
0100
1000
0001
0001
0000
,
1000
0100
0001
1000
0010
0100
1000
0000
,
0100
1000
0001
0100
0001
1000
1000
0000
,
0001
0100
1000
0001
0010
1000
0100
0010
,
0001
1000
0010
1000
0001
0010
0011
0000
,
1000
0001
0010
0001
1000
0010
1010
0000
,
0001
0010
0011
0000
1000
0010
1010
0000
,
0001
0100
0010
0100
1000
0100
0010
0100
,
0001
0000
1000
0000
1000
0000
0000
0000
0001
0010
0001
0000
0100
0000
0010
0000
,
1000
0000
0001
0000
0001
0000
0000
0000
1000
0010
1000
0000
0001
0000
0010
0000
,
0100
0000
1000
0000
1000
0000
0000
0000
0001
0010
0001
0000
1000
0000
0010
0000
,
0100
0001
0001
1000
1000
0100
0010
0001
,
1000
0000
0010
0000
0100
0000
1000
0000
0100
0010
0100
0000
0010
0000
1000
0000
,
0001
0000
0010
0000
0100
0000
0001
0000
0100
0010
0100
0000
0010
0000
0001
0000
,
0100
0000
0010
0000
0100
0000
1000
0000
0100
1000
0100
0000
1000
0000
0100
0000
,
0010
0000
1000
0000
0100
0000
0001
0000
0100
0001
0100
0000
0001
0000
0100
0000
,
0010
0001
0100
0010
1000
0100
0110
0000
,
0001
0100
0010
1000
0100
1000
0110
0000
,
0100
1000
0100
0001
0100
1000
0011
0000
,
0001
0100
1000
0100
0001
0100
1000
0100
,
0001
0010
0001
0010
1000
0010
1000
0010
,
0002
0203
2300
3020
,
0031
0100
0010
1000
0100
0010
0100
1000
,
0001
1000
0001
0000
1000
0000
0100
0000
0010
0000
0001
0000
0100
0000
0010
0000
,
1000
0010
1000
0000
0010
0000
0100
0000
1000
0000
0100
0000
0001
0000
0100
0000
,
0010
0100
0010
0000
0100
0000
0001
0000
0010
0000
0100
0000
1000
0000
1000
0000
,
0000
0001
0001
0000
1000
0100
0001
0100
,
1000
0100
1000
0000
0001
0000
1000
0000
0001
0000
0100
0000
1000
0000
0100
0000
,
0001
0100
0001
0000
1000
0000
0001
0000
1000
0000
0100
0000
1000
0000
0100
0000
,
0001
0100
0001
0100
1000
1001
0000
1001
,
0000
1001
0010
0100
1000
0110
0000
0110
,
0000
0110
1000
0100
0010
1001
0000
1001
,
0000
1001
0010
0100
1000
0001
0010
0100
,
1000
0001
0010
0100
1000
0000
0001
0000
,
1000
0001
0100
1000
,
0100
0010
1000
0001
,
1000
0100
0001
0100
,
0010
0000
0001
1000
,
0100
1000
0001
0100
,
1000
0001
0010
1000
,
0100
0010
0001
0010
,
0001
0000
1000
0100
,
1000
0010
0100
1000
,
0100
0010
1000
0100
,
0001
0100
0010
0001
,
0010
0100
0001
0100
,
1000
0100
0010
0001
,
0100
0001
1000
0100
,
1000
0010
1000
0001
,
1000
0000
0000
0000
0001
0100
0001
0000
,
1000
0000
0100
0000
0010
0100
0010
0000
,
0100
0000
0000
0000
1000
0100
1000
0000
,
0001
0000
0100
0000
0010
0100
0010
0000
,
0100
0000
0000
0000
0001
1000
0010
0000
,
0100
0000
1000
0000
0100
0010
0100
0000
,
0010
0000
1000
0000
0100
0010
0100
0000
,
0010
0000
0001
0000
1000
0001
0010
0000
,
1001
0000
0000
0000
1000
0001
1000
0000
,
0100
0000
1000
0000
0001
0100
0001
0100
,
0001
0000
0010
0000
0001
1000
0001
0000
,
1000
0000
0100
0000
1000
0100
1000
0100
,
1000
0000
0010
0000
0100
0010
0100
0001
,
1000
0000
0010
0000
1000
0001
0010
0100
,
0010
0000
0100
0000
1000
0001
1000
0010
,
1000
0100
1000
0001
0100
0001
0010
0001
,
1000
0001
1000
0001
1000
0000
0000
0000
;

//---------------dance-single - Telperion----------------
#NOTES:
     dance-single:
     Telperion:
     Medium:
     9:
     0.666,0.679,0.164,0.140,0.023:
0000
0000
0000
0000
,
0000
0000
0000
0000
,
0000
0000
0000
0000
,
0000
0000
0000
0000
,
1000
0100
1000
0000
0001
0100
0001
0000
,
1000
0010
0100
0001
0010
0100
0010
0001
,
0100
0010
0100
0000
0001
0100
0001
0000
,
0100
0010
1000
0100
0010
0000
1100
0000
,
0001
0100
0001
0000
1000
0100
1000
0000
,
0001
0100
0010
0100
1000
0100
0010
1000
,
0100
0010
0100
0000
1000
0010
1000
0000
,
0100
0011
0101
1010
,
1001
1000
0100
0000
0010
0100
1000
0000
,
0001
0000
0100
0000
1000
0100
0001
0100
,
0010
1000
0010
0000
1000
0100
1000
0000
,
0100
0011
0100
1010
,
0100
0010
0100
1000
0001
0000
1000
0000
,
0001
1000
0010
0100
0010
0000
0100
0000
,
0011
0100
1010
0100
,
1001
1100
1001
0101
,
0002
0000
1003
0000
0001
0010
0100
1000
,
0020
0000
0130
0000
0010
0100
0001
0100
,
2000
0000
3100
0000
1000
0100
0010
1000
,
0200
0000
0310
0000
0100
0010
0100
0010
,
0100
1000
0100
1000
0001
0100
0001
0000
,
0010
0001
0010
0001
1000
0010
1000
0000
,
0100
1000
0100
1000
0001
0100
0001
0000
,
0010
0001
1000
0010
1000
0100
1000
0001
,
0100
1000
0100
0001
0100
1000
0100
0000
,
0010
1000
0100
0001
0100
1000
0100
0000
,
0010
0001
0100
1000
0100
0001
0100
0000
,
1000
0100
0001
1000
0100
0001
0100
1000
,
0001
0000
1000
0001
0000
0001
1000
0002
,
2003
3002
0203
0320
,
2030
0000
3100
0100
0010
0000
0001
0000
,
0100
1000
0100
0000
0001
0000
0010
0000
,
0100
1000
0100
0010
0001
0000
0100
0000
,
1000
0100
1000
0000
0100
0000
0010
1000
,
0000
0000
1000
0000
0001
0000
0100
0000
0020
0000
0000
0100
0000
0000
0130
0000
,
0000
0000
0010
0000
1000
0000
0100
0000
0020
0000
0000
0100
0000
0000
0130
0000
,
0000
0000
0010
0000
0001
0000
0100
0000
0010
0000
0000
1000
0000
0000
0100
0000
,
0010
0000
0000
0001
0000
0000
0100
0000
0010
0000
0010
0000
0000
0000
0010
0000
,
0000
0010
1000
0001
0010
0010
0000
0010
,
0000
0010
0001
0100
1000
1000
0000
1000
,
0000
0100
0001
0010
0100
0001
0100
1000
,
0001
0100
0001
1000
0001
0000
1000
0000
,
0001
1000
0100
1000
,
0100
0000
0010
0100
,
1000
0100
0010
0001
,
0010
0001
0100
0010
,
0100
0010
1000
0010
,
1000
0000
1000
0100
,
0010
0001
1000
0100
,
0010
0001
1000
0001
,
1000
0001
0010
0001
,
0010
0000
0100
0010
,
0001
0100
0010
0100
,
0001
0010
0100
1000
,
0001
1000
0010
1000
,
0001
0000
0100
0010
,
1000
0100
0010
0100
,
1000
0010
0100
0001
,
0010
1000
0000
0010
,
0001
0000
0100
0010
,
0100
1000
0000
0100
,
0001
0000
0100
0010
,
1000
0100
0000
0001
,
0100
1000
0001
1000
,
0010
1000
0100
1000
,
0001
0100
0010
0100
,
0100
0001
0100
0010
,
1000
0100
0010
0100
,
0100
1000
0100
0010
,
0001
0100
0010
1000
,
0100
1000
0001
0100
,
0001
0010
0001
1000
,
0010
1000
0001
0100
,
0010
1000
1001
0000
;

//---------------dance-single - Expert----------------
#NOTES:
     dance-single:
     Expert:
     Easy:
     1:
     0.007,0.181,0.012,0.000,0.000:
0000
0000
0000
0000
,
0000
0000
0000
0000
,
0000
0000
0000
0000
,
0000
0000
0000
0000
,
0000
0000
0000
0000
,
0000
0000
0000
0000
,
0000
0000
0000
0000
,
0000
0000
0000
0000
,
0000
0000
0000
0000
,
0000
0000
0000
0000
,
0000
0000
0000
0000
,
0000
0000
0000
0000
,
0000
0000
0000
0000
,
0000
0000
0000
0000
,
0000
0000
0000
0000
,
0000
0000
0000
0000
,
0000
0000
0000
0000
,
0000
0000
0000
0000
,
0000
0000
0000
0000
,
0000
0000
0000
0000
,
0000
0000
0000
0000
,
0000
0000
0000
0000
,
0000
0000
0000
0000
,
0000
0000
0000
0000
,
0000
0000
0000
0000
,
0000
0000
0000
0000
,
0000
0000
0000
0000
,
0000
0000
0000
0000
,
0000
0000
0000
0000
,
0000
0000
0000
0000
,
0000
0000
0000
0000
,
0000
0000
0000
0000
,
0000
0000
0000
0000
,
0000
0000
0000
0000
,
0000
0000
0000
0000
,
0000
0000
0000
0000
,
0000
0000
0000
0000
,
0000
0000
0000
0000
,
0000
0000
0000
0000
,
0000
0000
0000
0000
,
0000
0000
0000
0000
,
0000
0000
0000
0000
,
0000
0000
0000
0000
,
0000
0000
0000
0000
,
0000
0000
0000
0000
,
0000
0000
0000
0000
,
0000
0000
0000
0000
,
0000
0000
0000
0000
,
0000
0000
0000
0000
,
0000
0000
0000
0000
,
0000
0000
0000
0000
,
0000
0000
0000
0000
,
0000
0000
0000
0000
,
0000
0000
0000
0000
,
0000
0000
0000
0000
,
0000
0000
0000
0000
,
0000
0000
0000
0000
,
0000
0000
0000
0000
,
0000
0000
0000
0000
,
0000
0000
0000
0000
,
0000
0000
0000
0000
,
0000
0000
0000
0000
,
0000
0000
0000
0000
,
0000
0000
0000
0000
,
0000
0000
0000
0000
,
0000
0000
0000
0000
,
0000
0000
0000
0000
,
0000
0000
0000
0000
,
0000
0000
0000
0000
,
0000
0000
0000
0000
,
0000
0000
0000
0000
,
0000
0000
0000
0000
,
0000
0000
0000
0000
,
0000
0000
0000
0000
,
0000
0000
0000
0000
,
0000
0000
0000
0000
,
0000
0000
0000
0000
,
0000
0000
1111
0000
;

//---------------dance-single - Expert----------------
#NOTES:
     dance-single:
     Expert:
     Beginner:
     1:
     0.007,0.181,0.012,0.000,0.000:
0000
0000
0000
0000
,
0000
0000
0000
0000
,
0000
0000
0000
0000
,
0000
0000
0000
0000
,
0000
0000
0000
0000
,
0000
0000
0000
0000
,
0000
0000
0000
0000
,
0000
0000
0000
0000
,
0000
0000
0000
0000
,
0000
0000
0000
0000
,
0000
0000
0000
0000
,
0000
0000
0000
0000
,
0000
0000
0000
0000
,
0000
0000
0000
0000
,
0000
0000
0000
0000
,
0000
0000
0000
0000
,
0000
0000
0000
0000
,
0000
0000
0000
0000
,
0000
0000
0000
0000
,
0000
0000
0000
0000
,
0000
0000
0000
0000
,
0000
0000
0000
0000
,
0000
0000
0000
0000
,
0000
0000
0000
0000
,
0000
0000
0000
0000
,
0000
0000
0000
0000
,
0000
0000
0000
0000
,
0000
0000
0000
0000
,
0000
0000
0000
0000
,
0000
0000
0000
0000
,
0000
0000
0000
0000
,
0000
0000
0000
0000
,
0000
0000
0000
0000
,
0000
0000
0000
0000
,
0000
0000
0000
0000
,
0000
0000
0000
0000
,
0000
0000
0000
0000
,
0000
0000
0000
0000
,
0000
0000
0000
0000
,
0000
0000
0000
0000
,
0000
0000
0000
0000
,
0000
0000
0000
0000
,
0000
0000
0000
0000
,
0000
0000
0000
0000
,
0000
0000
0000
0000
,
0000
0000
0000
0000
,
0000
0000
0000
0000
,
0000
0000
0000
0000
,
0000
0000
0000
0000
,
0000
0000
0000
0000
,
0000
0000
0000
0000
,
0000
0000
0000
0000
,
0000
0000
0000
0000
,
0000
0000
0000
0000
,
0000
0000
0000
0000
,
0000
0000
0000
0000
,
0000
0000
0000
0000
,
0000
0000
0000
0000
,
0000
0000
0000
0000
,
0000
0000
0000
0000
,
0000
0000
0000
0000
,
0000
0000
0000
0000
,
0000
0000
0000
0000
,
0000
0000
0000
0000
,
0000
0000
0000
0000
,
0000
0000
0000
0000
,
0000
0000
0000
0000
,
0000
0000
0000
0000
,
0000
0000
0000
0000
,
0000
0000
0000
0000
,
0000
0000
0000
0000
,
0000
0000
0000
0000
,
0000
0000
0000
0000
,
0000
0000
0000
0000
,
0000
0000
0000
0000
,
0000
0000
0000
0000
,
0000
0000
0000
0000
,
0000
0000
1111
0000
;
