#TITLE:WEEKENDS!!!;
#SUBTITLE:;
#ARTIST:Skrillex ft. Sirah;
#TITLETRANSLIT:;
#SUBTITLETRANSLIT:;
#ARTISTTRANSLIT:;
#GENRE:;
#CREDIT:Telperion;
#BANNER:WEEKENDS-bn.png;
#BACKGROUND:WEEKENDS-bg.png;
#LYRICSPATH:;
#CDTITLE:;
#MUSIC:WEEKENDS.ogg;
#OFFSET:-0.102;
#SAMPLESTART:50.108;
#SAMPLELENGTH:22.003;
#SELECTABLE:YES;
#DISPLAYBPM:120.000;
#BPMS:0.000=119.985,10.500=239.970,10.750=119.985,10.917=59.992,10.958=39.995,11.042=59.993,11.083=119.985,11.250=239.970,11.500=119.985,14.500=239.970,14.750=119.985,14.917=59.992,14.958=39.995,15.042=59.993,15.083=119.985,15.250=239.970,15.500=119.985,18.500=239.970,18.750=119.985,18.917=59.992,18.958=39.995,19.042=59.993,19.083=119.985,19.250=239.970,19.500=119.985,26.500=239.970,26.750=119.985,26.917=59.992,26.958=39.995,27.042=59.993,27.083=119.985,27.250=239.970,27.500=119.985,30.500=239.970,30.750=119.985,30.917=59.992,30.958=39.995,31.042=59.993,31.083=119.985,31.250=239.970,31.500=119.985,40.000=11.427,40.083=879.967,41.000=11.427,41.083=879.967,42.000=11.427,42.063=879.967,42.750=11.427,42.813=879.967,43.500=11.427,43.542=879.967,44.000=11.427,44.083=879.967,45.000=11.427,45.083=879.967,46.000=11.427,46.063=879.967,46.750=11.427,46.813=879.967,47.500=11.427,47.542=879.967,48.000=11.427,48.083=879.967,49.000=11.427,49.083=879.967,50.000=11.427,50.063=879.967,50.750=11.427,50.813=879.967,51.500=11.427,51.542=879.967,52.000=11.427,52.083=879.967,53.000=11.427,53.083=879.967,54.000=11.427,54.063=879.967,54.750=11.427,54.813=879.967,55.500=11.427,55.542=879.967,56.000=11.427,56.083=879.967,57.000=11.427,57.083=879.967,58.000=11.427,58.083=879.967,59.000=11.427,59.083=879.967,60.000=11.427,60.083=879.967,61.000=119.985,62.000=11.427,62.083=879.967,63.000=11.427,63.083=879.967,64.000=11.427,64.042=879.967,64.500=11.427,64.542=879.967,65.000=119.985,68.000=11.427,68.042=879.967,68.500=11.427,68.542=879.967,69.000=119.985,72.000=11.427,72.042=879.967,72.500=11.427,72.542=879.967,73.000=119.985,76.000=11.427,76.042=879.967,76.500=11.427,76.542=879.967,77.000=119.985,80.000=11.427,80.042=879.967,80.500=11.427,80.542=879.967,81.000=119.985,84.000=11.427,84.042=879.967,84.500=11.427,84.542=879.967,85.000=119.985,100.000=11.427,100.042=879.967,100.500=11.427,100.583=879.967,101.500=11.427,101.563=879.967,102.250=11.427,102.271=879.967,102.500=11.427,102.542=879.967,103.000=11.427,103.042=879.967,103.500=11.427,103.542=879.967,104.000=11.427,104.042=879.967,104.500=11.427,104.563=879.967,105.250=11.427,105.271=879.967,105.500=11.427,105.521=879.967,105.750=11.427,105.792=879.967,106.250=11.427,106.271=879.967,106.500=11.427,106.542=879.967,107.000=11.427,107.021=879.967,107.250=11.427,107.271=879.967,107.500=11.427,107.521=879.967,107.750=11.427,107.771=879.967,108.000=119.985,108.000=39.995,108.083=199.975,108.500=39.995,108.583=199.975,109.000=39.995,109.167=199.975,110.000=39.995,110.083=199.975,110.500=39.995,110.583=199.975,111.000=39.995,111.083=199.975,111.500=39.995,111.583=199.975,112.000=119.985,112.500=239.970,112.750=119.985,112.917=59.992,112.958=39.995,113.021=59.993,113.042=119.985,113.125=239.970,113.250=119.985,114.000=11.427,114.042=879.967,114.500=11.427,114.542=879.967,115.000=119.985,116.000=39.995,116.167=199.975,117.000=39.995,117.167=199.975,118.000=39.995,118.167=199.975,119.000=39.995,119.167=199.975,120.000=119.985,120.500=239.970,120.750=119.985,120.917=59.992,120.958=39.995,121.021=59.993,121.042=119.985,121.125=239.970,121.250=119.985,122.000=11.427,122.042=879.967,122.500=11.427,122.542=879.967,123.000=119.985,124.000=59.993,124.083=179.977,124.333=59.993,124.417=179.977,124.667=59.993,124.750=179.977,125.000=59.993,125.083=179.977,125.333=59.993,125.417=179.977,125.667=59.993,125.750=179.977,126.000=119.985,128.500=239.970,128.750=119.985,128.917=59.992,128.958=39.995,129.021=59.993,129.042=119.985,129.125=239.970,129.250=119.985,130.000=11.427,130.042=879.967,130.500=11.427,130.542=879.967,131.000=119.985,132.000=39.995,132.083=199.975,132.500=39.995,132.583=199.975,133.000=39.995,133.083=199.975,133.500=39.995,133.583=199.975,134.000=39.995,134.083=59.993,134.167=119.985,134.500=239.970,135.000=39.995,135.083=59.993,135.167=119.985,135.500=239.970,136.000=119.985,140.000=39.995,140.083=199.975,140.500=39.995,140.583=199.975,141.000=11.427,141.021=879.967,141.250=11.427,141.271=879.967,141.500=11.427,141.521=879.967,141.750=11.427,141.771=879.967,142.000=119.985,144.500=239.970,144.750=119.985,144.917=59.992,144.958=39.995,145.021=59.993,145.042=119.985,145.125=239.970,145.250=119.985,146.000=11.427,146.042=879.967,146.500=11.427,146.542=879.967,147.000=119.985,148.000=39.995,148.083=59.993,148.167=119.985,148.500=239.970,149.000=39.995,149.042=59.993,149.083=119.985,149.250=239.970,149.500=119.985,151.000=39.995,151.083=59.993,151.167=119.985,151.500=239.970,152.000=119.985,152.500=239.970,152.750=119.985,152.917=59.992,152.958=39.995,153.021=59.993,153.042=119.985,153.125=239.970,153.250=119.985,154.000=11.427,154.042=879.967,154.500=11.427,154.542=879.967,155.000=119.985,156.000=59.993,156.083=179.977,156.333=59.993,156.417=179.977,156.667=59.993,156.750=179.977,157.000=59.993,157.083=179.977,157.333=59.993,157.417=179.977,157.667=59.993,157.750=179.977,158.000=119.985,160.500=239.970,160.750=119.985,160.917=59.992,160.958=39.995,161.021=59.993,161.042=119.985,161.125=239.970,161.250=119.985,162.000=11.427,162.042=879.967,162.500=11.427,162.542=879.967,163.000=39.995,163.083=199.975,163.500=39.995,163.583=199.975,164.000=39.995,164.083=199.975,164.500=39.995,164.583=199.975,165.000=39.995,165.083=199.975,165.500=39.995,165.583=199.975,166.000=39.995,166.083=59.993,166.167=119.985,166.500=239.970,167.000=39.995,167.083=59.993,167.167=119.985,167.500=239.970,168.000=119.985,172.000=39.995,172.083=199.975,172.500=39.995,172.583=199.975,173.000=119.985,175.500=39.995,175.583=199.975,176.000=39.995,176.083=199.975,176.500=39.995,176.583=199.975,177.000=11.427,177.021=879.967,177.250=11.427,177.271=879.967,177.500=11.427,177.521=879.967,177.750=11.427,177.771=879.967,178.000=11.427,178.042=879.967,178.500=11.427,178.542=879.967,179.000=119.985,179.500=39.995,179.583=199.975,180.000=39.995,180.083=199.975,180.500=39.995,180.583=199.975,181.000=119.985,183.500=39.995,183.583=199.975,184.000=39.995,184.167=199.975,185.000=39.995,185.167=199.975,186.000=11.427,186.021=879.967,186.250=11.427,186.271=879.967,186.500=11.427,186.521=879.967,186.750=11.427,186.771=879.967,187.000=119.985,188.500=239.970,188.750=119.985,188.917=59.992,188.958=39.995,189.021=59.993,189.042=119.985,189.125=239.970,189.250=119.985,190.500=239.970,190.750=119.985,190.917=59.992,190.958=39.995,191.042=59.993,191.083=119.985,191.250=239.970,191.500=119.985,192.500=239.970,192.750=119.985,192.917=59.992,192.958=39.995,193.021=59.993,193.042=119.985,193.125=239.970,193.250=119.985,194.500=239.970,194.750=119.985,194.917=59.992,194.958=39.995,195.042=59.993,195.083=119.985,195.250=239.970,195.500=119.985,196.500=239.970,196.750=119.985,196.917=59.992,196.958=39.995,197.021=59.993,197.042=119.985,197.125=239.970,197.250=119.985,200.500=239.970,200.750=119.985,200.917=59.992,200.958=39.995,201.021=59.993,201.042=119.985,201.125=239.970,201.250=119.985,204.000=39.995,204.125=199.975,204.750=39.995,204.875=199.975,205.500=39.995,205.583=199.975,206.000=120.000,207.000=110.000,208.000=100.000,209.000=90.000,210.000=80.000,211.000=70.000,212.000=60.000,213.000=50.000,214.000=41.640,216.000=119.985,218.000=11.427,218.042=879.967,218.500=11.427,218.583=879.967,219.500=11.427,219.563=879.967,220.250=11.427,220.271=879.967,220.500=11.427,220.542=879.967,221.000=11.427,221.042=879.967,221.500=11.427,221.542=879.967,222.000=11.427,222.042=879.967,222.500=11.427,222.563=879.967,223.250=11.427,223.271=879.967,223.500=11.427,223.521=879.967,223.750=11.427,223.792=879.967,224.250=11.427,224.271=879.967,224.500=11.427,224.542=879.967,225.000=119.985,225.500=11.427,225.521=879.967,225.750=11.427,225.771=879.967,226.000=119.985;
#STOPS:;
#BGCHANGES:;
#KEYSOUNDS:;

//---------------dance-single - Telperion----------------
#NOTES:
     dance-single:
     Telperion:
     Challenge:
     9:
     0.535,0.606,0.347,0.347,0.479:
0000
0000
0000
0000
,
0000
0000
0000
0000
,
1000
0000
0001
0010
0000
0010
0100
0000
0010
0000
M02M
0000
0000
0000
M03M
0000
,
0001
0000
1000
0010
0000
0010
0100
0000
0010
0000
M02M
0000
0000
0000
M03M
0000
,
0100
0000
0001
1000
0000
0001
1000
0000
0100
0000
M20M
0000
0000
0000
M30M
0000
,
1000
0000
0001
0100
0000
0001
1000
0000
01M0
0000
00M0
0000
0000
0000
00M0
0000
,
1000
0000
0001
0010
M00M
0010
1000
0000
0100
0000
M012
0000
0000
0000
M003
0000
,
0001
0000
1000
0010
M00M
0010
0001
0000
0100
0000
201M
0000
0000
0000
300M
0000
,
0010
0000
1000
0100
0010
0100
1000
0000
1000
0000
0001
0100
0010
0100
0001
0000
,
0010
0000
0010
0001
0100
0010
1000
0010
0100
0001
0100
0001
1000
0000
0100
1000
,
0M01
0000
0000
0000
0001
0000
0000
0000
0001
0000
0000
0001
0000
0000
0001
0000
,
0001
0000
0000
0000
0001
0000
0000
0000
0001
0000
0000
0001
0000
0000
0001
0000
,
1MM1
0000
0000
0000
1000
0000
0000
0000
1000
0000
0000
1000
0000
0000
1000
0000
,
1000
0000
0000
0000
1000
0000
0000
0000
1000
0000
0000
1000
0000
0000
1000
0000
,
1MM1
M101
1M01
110M
,
M110
0000
0000
0000
0M11
0001
0010
0001
0100
0000
0000
0000
101M
0000
0000
0000
,
11M0
0000
0000
0000
0011
0000
0000
0000
0001
0000
0000
0001
0000
0000
0001
0000
,
1000
0000
0000
0000
1010
0010
1000
0001
0100
0000
0000
0100
0000
0000
0100
0000
,
0010
0000
0010
0000
0110
0000
0000
0000
0101
0000
0000
0001
1000
0000
0001
0000
,
0010
0000
0010
0000
0110
0000
0000
0000
1100
0000
0000
0001
1000
0000
1000
0000
,
0001
0000
0002
0000
1000
0000
0013
0000
0100
0010
0001
0000
0001
0000
0001
0000
,
1000
0000
2000
0000
0010
0000
3001
0000
0001
0010
0001
0000
1000
0000
1000
0000
,
0100
1000
0100
0000
1000
0001
1000
0000
0001
0100
0001
0000
0100
0001
1000
0000
,
0100
0010
0001
0000
1000
0010
0100
0000
1000
0100
0010
0000
0100
0001
1000
0000
,
0010
1000
0100
0000
0001
0100
1000
0000
0010
0100
1000
0000
0100
0001
0010
0000
,
11MM
0000
MM00
0000
0000
0000
M00M
0000
0000
000M
0M00
0000
0M00
0000
0M00
0000
,
0MM0
0000
M00M
0000
0000
0M00
00M0
0M00
0000
M000
000M
0000
M000
000M
00M0
000M
,
2100
0001
0002
0000
3100
0200
0013
0010
,
1000
0000
M001
0000
0300
0001
0010
0000
0100
0000
1001
0000
1001
0000
0000
0000
,
0002
2003
3200
0320
,
1000
0000
M031
0000
0000
0001
0100
0000
0010
0000
1001
0000
1001
0000
0000
0000
,
0001
0000
0000
0000
0100
0000
0000
0000
0001
0000
0000
0000
1000
0000
0000
0000
0100
0000
0000
0000
1000
0000
0000
0000
0001
0000
0000
0010
0000
0000
0100
0000
0000
1000
0000
0000
0010
0000
0000
0000
0000
0000
0020
0000
0000
0000
0000
0000
,
0001
0000
100M
0000
0030
1000
0100
0000
0001
0000
0110
0000
1001
0000
0000
0000
,
2000
0000
0000
0000
0000
0000
0000
3000
2000
0000
0000
0000
0000
0000
0000
0000
3002
0000
0000
0000
0000
0000
0000
0003
M001
0000
0000
0000
0000
0000
0000
0000
0200
0000
0000
0000
0000
0000
0000
0000
000M
0000
0000
0000
0000
0000
0000
0300
0200
0000
0000
0000
0000
0000
0000
0000
0000
0000
0000
0000
0000
0000
0000
0000
,
1000
M301
0000
1000
00M1
00M0
0000
10M0
,
0001
0000
0001
0000
1000
0001
1000
0001
0100
0000
10M0
0000
0010
0000
0M01
0000
,
1000
0000
0011
0000
0000
0001
1000
0000
0010
0000
0110
0000
1001
0000
0000
0000
,
0002
0000
0000
0000
0000
0000
0000
0000
0000
0000
0000
0000
0000
0000
0000
0000
2003
0000
0000
0000
0000
0000
0000
3000
1000
0000
0000
0000
0100
0000
0000
0000
M000
0000
0000
0000
0100
0000
0000
0000
0000
0000
0000
0000
0100
0000
0000
0000
0020
0000
0000
0000
0000
0000
0000
0000
0000
0000
0000
0000
0000
0000
0000
0000
,
0031
0000
1010
0000
0000
1000
0001
0000
0010
0000
0110
0000
1001
0000
0000
0000
,
1000
0000
0000
0000
0001
0000
0000
0000
0001
0000
0000
0000
0001
0000
0000
0000
1000
0000
0000
0000
1000
0000
0000
0000
1000
0000
0000
0010
0000
0000
0100
0000
0000
0001
0000
0000
0010
0000
0000
0000
0000
0000
0010
0000
0000
0000
0000
0000
,
0100
0000
0011
0000
0000
0001
0100
0000
0110
0000
1010
0000
1001
0000
0020
0000
,
0100
0100
0130
0010
0002
0003
0002
0000
,
10M3
00M0
0000
00M0
0000
1001
1101
0000
,
0002
0000
0000
0000
0000
0000
0000
0003
0002
0000
0000
0000
0000
0000
0000
0000
1003
0000
0000
0000
0000
0000
0000
0000
0100
0000
0000
0000
0000
0000
0000
0000
0010
0000
0000
0000
0000
0000
0000
0000
0100
0000
0000
0000
0000
0000
0000
0000
0001
0000
0000
0000
0000
0000
0000
0000
0200
0000
0000
0000
0000
0000
0000
0000
,
2300
0000
0000
0000
0000
0000
0000
3000
2000
0000
0000
0000
0000
0000
0000
0000
3001
0000
0000
0000
0100
0000
0000
0000
0001
0000
0000
0000
0100
0000
0000
0000
0010
0000
0000
0000
0000
0000
0000
0000
0010
0000
0000
0000
0000
0000
0000
0000
0010
0000
0000
0000
0000
0000
0000
0000
0000
0000
0000
0000
0000
0000
0000
0000
,
2000
0000
0000
0000
0000
0000
0000
3000
2000
0000
0000
0000
0000
0000
0000
0000
3001
0000
0000
0000
0000
0000
0000
0000
0100
0000
0000
0000
0000
0000
0000
0000
1000
0000
0000
0000
0000
0000
0000
0000
0100
0000
0000
0000
0000
0000
0000
0000
0010
0000
0000
0000
0000
0000
0000
0000
0200
0000
0000
0000
0000
0000
0000
0000
,
0302
0000
0000
0000
0000
0000
0000
0000
2003
0000
0000
0000
0000
0000
0000
0000
3001
0000
1000
0000
0001
0000
1000
0000
0001
1000
0000
0000
1000
0000
0000
0000
,
0021
0000
100M
0000
0030
1000
0010
0000
0001
0000
0100
0000
0000
0000
0100
0000
,
0120
0000
M001
0000
0030
0001
0010
0000
1000
0000
0001
0000
0000
0000
0001
0000
,
0021
0000
100M
0000
0030
0010
0001
0000
0100
0000
0010
0000
0100
0000
0010
0000
,
1020
0000
M001
0000
0030
0010
1000
0000
0100
0000
1000
0000
0010
0000
1000
0000
,
0200
0000
0300
0200
0000
0300
0100
0000
M00M
00M0
M000
000M
M000
0M00
000M
00M0
,
0M00
M000
00M0
000M
0M00
00M0
M000
000M
00M0
M000
0M00
000M
00M0
M000
0M00
00M0
,
M000
000M
0M00
00M0
M000
000M
00M0
M000
0M00
000M
00M0
0M00
M000
000M
00M0
0M00
,
M001
0010
0000
0011
0000
0010
0001
1000
001M
0000
0MM0
0000
0000
0000
00M0
0000
,
0000
0M00
00M0
0000
00M0
0000
00M0
0000
0MM0
0000
0M00
0000
0000
00M0
0M00
00M0
,
0000
00M0
0M00
0000
MMMM
0000
M000
000M
0000
0000
0000
0000
0000
0000
0000
0000
;

//---------------dance-double - Expert----------------
#NOTES:
     dance-double:
     Expert:
     Challenge:
     1:
     0.005,0.097,0.008,0.000,0.000:
00000000
00000000
00000000
00000000
,
00000000
00000000
00000000
00000000
,
00000000
00000000
00000000
00000000
,
00000000
00000000
00000000
00000000
,
00000000
00000000
00000000
00000000
,
00000000
00000000
00000000
00000000
,
00000000
00000000
00000000
00000000
,
00000000
00000000
00000000
00000000
,
00000000
00000000
00000000
00000000
,
00000000
00000000
00000000
00000000
,
00000000
00000000
00000000
00000000
,
00000000
00000000
00000000
00000000
,
00000000
00000000
00000000
00000000
,
00000000
00000000
00000000
00000000
,
00000000
00000000
00000000
00000000
,
00000000
00000000
00000000
00000000
,
00000000
00000000
00000000
00000000
,
00000000
00000000
00000000
00000000
,
00000000
00000000
00000000
00000000
,
00000000
00000000
00000000
00000000
,
00000000
00000000
00000000
00000000
,
00000000
00000000
00000000
00000000
,
00000000
00000000
00000000
00000000
,
00000000
00000000
00000000
00000000
,
00000000
00000000
00000000
00000000
,
00000000
00000000
00000000
00000000
,
00000000
00000000
00000000
00000000
,
00000000
00000000
00000000
00000000
,
00000000
00000000
00000000
00000000
,
00000000
00000000
00000000
00000000
,
00000000
00000000
00000000
00000000
,
00000000
00000000
00000000
00000000
,
00000000
00000000
00000000
00000000
,
00000000
00000000
00000000
00000000
,
00000000
00000000
00000000
00000000
,
00000000
00000000
00000000
00000000
,
00000000
00000000
00000000
00000000
,
00000000
00000000
00000000
00000000
,
00000000
00000000
00000000
00000000
,
00000000
00000000
00000000
00000000
,
00000000
00000000
00000000
00000000
,
00000000
00000000
00000000
00000000
,
00000000
00000000
00000000
00000000
,
00000000
00000000
00000000
00000000
,
00000000
00000000
00000000
00000000
,
00000000
00000000
00000000
00000000
,
00000000
00000000
00000000
00000000
,
00000000
00000000
00000000
00000000
,
00000000
00000000
00000000
00000000
,
00000000
00000000
00000000
00000000
,
00000000
00000000
00000000
00000000
,
00000000
00000000
00000000
00000000
,
00000000
00000000
00000000
00000000
,
00000000
00000000
00000000
00000000
,
00000000
00000000
00000000
00000000
,
00000000
00000000
00000000
00000000
,
00000000
00000000
00000000
00000000
,
00000000
00000000
00000000
00000000
,
00000000
00000000
11110000
00000000
;
