#TITLE:Tik Tok x California Gurls;
#SUBTITLE:;
#ARTIST:DJplaceboing remixes Ke$ha & Katy Perry;
#TITLETRANSLIT:;
#SUBTITLETRANSLIT:;
#ARTISTTRANSLIT:;
#GENRE:;
#CREDIT:Telperion;
#BANNER:Tik Tok Cali Clock-bn.png;
#BACKGROUND:Tik Tok Cali Clock-bg.png;
#LYRICSPATH:;
#CDTITLE:;
#MUSIC:Tik Tok Cali Clock.ogg;
#OFFSET:-0.536;
#SAMPLESTART:13.956;
#SAMPLELENGTH:24.000;
#SELECTABLE:YES;
#DISPLAYBPM:125.000;
#BPMS:0.000=125.000,28.000=250.000,32.000=125.000,80.000=250.000,82.000=125.000,90.000=250.000,94.000=125.000,98.000=250.000,100.000=125.000,103.000=250.000,105.000=125.000,108.000=250.000,110.000=125.000,116.000=250.000,118.000=125.000,120.000=250.000,122.000=125.000,122.500=250.000,123.000=250.000,123.500=250.000,124.000=125.000,126.000=250.000,127.000=125.000,127.500=31.250,127.750=250.000,128.000=125.000,192.000=62.500,200.000=125.000,248.000=62.500,249.000=20.833,249.500=62.500,250.000=125.000;
#STOPS:28.000=0.240
,29.000=0.240
,30.000=0.240
,31.000=0.240
,80.000=0.120
,80.500=0.120
,81.000=0.120
,81.500=0.120
,90.000=0.120
,90.500=0.120
,91.000=0.120
,91.500=0.120
,92.000=0.120
,92.500=0.120
,93.000=0.240
,113.000=0.120
,113.250=0.120
,113.500=0.120
,113.750=0.120
,116.000=0.240
,117.000=0.240
,120.000=0.240
,121.000=0.240
,122.500=0.120
,123.000=0.120
,123.500=0.120
,126.000=0.240
,127.000=0.240
,127.750=0.420
,248.500=0.480
,249.000=0.480
;
#BGCHANGES:;
#KEYSOUNDS:;

//---------------dance-single - Telperion----------------
#NOTES:
     dance-single:
     Telperion:
     Challenge:
     9:
     0.583,0.638,0.438,0.144,0.297:
0000
0000
0000
0000
,
0000
0000
0000
0000
,
0000
0000
0000
0000
,
0000
0000
0000
0000
,
0000
0000
0000
0000
,
0000
0000
0000
0000
,
0000
0000
0000
0000
,
1001
0101
1010
0011
,
1101
0000
0000
0000
1000
0000
0100
1000
0001
0000
0100
0000
0001
0000
1000
0100
,
1000
0100
0001
1000
0010
0100
0010
0000
,
0001
0100
0010
0000
1000
0100
0010
0000
0001
0000
0100
0000
0101
0000
0000
0000
,
1000
0100
1100
1000
0100
0010
0041
0000
,
0130
0010
0100
0000
1000
0000
0001
0000
0100
0010
0100
0000
0001
0000
1000
0000
,
0000
1000
0100
0100
0010
0010
0001
0000
,
0100
0000
0001
1000
0000
1000
0001
0000
0010
0000
0000
0000
0010
0000
0000
0000
,
0100
0000
1000
0010
0000
0010
1000
0000
0100
0010
0001
0000
0001
0000
0000
0000
,
1000
0000
0100
0020
0001
0130
1000
0001
,
0100
0000
0000
0000
0101
0000
0000
1001
0000
0000
1100
0000
1000
0000
0100
0000
,
0002
0000
0203
0000
2300
0001
3100
0010
,
0004
0000
0000
1003
0000
0000
0110
0010
,
1000
0100
0010
0100
1000
0100
0001
0000
,
0100
1000
0001
0100
1000
0000
0101
0000
,
1000
0100
0002
1000
0013
0100
0100
0100
,
1000
0000
0001
0000
0110
0000
0001
0000
0010
0001
0010
0000
0100
1000
0100
0000
,
1100
0000
0001
0100
2020
0000
0000
0000
,
3031
0100
0010
0000
1000
0100
0022
0000
,
0000
0003
0031
1000
0100
0001
1000
0010
,
0202
0000
0000
0300
0103
0010
1010
0000
,
0110
0000
0000
0000
0101
0110
1010
1100
0011
0000
0000
0000
0001
0000
0010
0000
,
1100
0000
0101
0000
0001
1000
0100
0010
,
0101
0000
0000
0000
1100
0000
0000
0000
0001
1000
0001
0000
0001
0000
1000
0000
,
1100
0000
0000
0000
0000
0000
0000
0000
0011
0000
0000
0000
0000
0000
0000
0000
0110
0000
0000
0000
0000
0000
0000
0000
1010
0000
0010
0000
0200
0000
0000
0300
,
1101
0000
0000
0000
0001
0000
0000
0001
0100
0000
1000
0000
1100
0000
0100
0000
,
0001
0001
0010
0100
0001
0100
4000
0000
,
3100
0000
0000
0000
0011
0000
0000
0001
0100
0000
0010
0000
0104
0000
0000
0000
,
4003
0000
0000
0000
3100
0000
0010
0000
1100
0000
1000
0000
0002
1000
0000
0000
,
1003
0000
1000
0000
0100
0000
0000
0010
0001
0000
0100
0000
0001
0000
0010
0100
,
1000
0010
0001
0010
1000
1000
1000
0000
,
0100
0000
0000
0100
0010
0000
0000
0010
0001
0000
0000
0001
0100
0000
0000
1000
,
0100
0000
0010
0000
0100
0000
0010
0100
0010
0000
1000
0000
0001
0000
0000
0000
,
1101
0000
0000
0000
0001
0000
0100
0001
1000
0000
0100
0000
0010
0000
0001
0100
,
0001
0010
0100
0001
1000
0010
0001
0000
,
1000
0010
0100
0000
0001
0100
0010
0000
1000
0000
0001
0000
0101
0000
0000
0000
,
1010
0100
1100
0100
0010
0004
1000
0000
,
0103
0010
0100
0000
0001
0000
1000
0000
0100
0010
0100
0000
1000
0000
0001
0000
,
0000
0001
0100
0100
0010
0010
1000
0000
,
0100
0000
0000
0100
1000
0000
0000
1000
0001
1000
0000
0000
0100
1000
0000
0000
,
0100
0000
0100
0010
0001
0000
0001
0100
0010
0100
0000
0100
1000
0100
0001
0000
,
2000
0000
0000
0000
0100
0000
0000
0000
0100
0000
0000
0000
3100
0010
0100
1000
,
0002
0000
0000
0000
0100
0000
0000
0000
2003
0000
0000
0000
3100
0000
0000
0000
1000
0001
0000
0100
0001
0000
1000
0100
0000
1000
0010
0000
1000
0001
0010
0001
,
1000
0400
0010
0300
1000
0004
0100
0003
,
0010
1000
0100
0001
0010
0001
0200
0000
,
0000
1001
0300
0000
0000
0000
0000
0000
0100
0000
0010
0000
0100
0000
0010
1000
,
0000
1000
0001
0000
0100
0000
0000
0001
1000
0100
1000
0100
1000
0000
0000
0000
,
1000
0001
0400
0010
0000
1000
0300
0100
,
0001
1000
0400
0001
0000
0010
0300
0100
,
1000
0004
0100
0003
0001
4000
0100
3000
,
1001
0000
0000
0000
0011
0000
0000
0001
0010
0100
0000
1000
0100
0010
0001
0000
,
0100
0000
0010
0000
1000
0000
0100
0010
0100
0000
1000
0100
1000
0000
0001
0000
,
0100
0001
0100
0000
0001
0000
0010
0100
0010
0000
0001
0100
0001
0000
0010
0000
,
0100
1100
0001
0100
1100
0001
1000
1100
,
0001
0101
0110
1100
0110
0011
1010
0101
,
2010
0000
0001
0000
0002
3003
0100
0000
1201
0000
0000
0000
0301
0000
0001
0100
,
0001
0000
1000
0000
0100
1000
0100
0000
1000
0001
0100
0000
0010
0000
0100
0001
,
0010
0000
0001
0000
0010
0001
0100
0000
0040
0000
0000
0000
0130
0000
0010
1000
,
0100
0000
0100
0000
0001
0000
0100
0000
1000
0000
0001
0000
0010
0000
0001
0100
,
0001
0000
0010
0000
0100
1000
0100
0000
0040
0000
0100
0000
0000
0000
0100
0000
,
0130
1000
1100
0011
0001
0011
1100
0001
,
0100
0000
1000
0000
1000
0000
0000
0000
0100
0000
0001
1000
0100
0000
1000
0001
,
0100
0000
0100
0000
0001
0010
0001
0000
0100
0000
0001
1000
0100
0000
1000
0001
,
0100
0001
1000
0000
0002
0000
0200
0000
0010
0000
0303
0000
0101
0000
0000
0000
,
1100
0000
0101
0100
0001
0001
1000
0100
,
0010
0000
0010
0000
0010
0000
0000
0000
1100
0000
0000
1000
0001
0000
0000
0001
,
0100
0000
0000
0100
1000
0000
1000
0100
0001
0000
0001
0010
0100
0000
1000
0010
,
0100
0000
1000
0100
0040
0100
0000
0000
0130
0000
0000
0000
1100
0000
0100
0000
,
0101
0000
1010
0010
0011
0001
0100
1000
,
0010
0000
0001
0000
0100
0000
0000
0000
0001
0000
0010
0100
0010
0000
0001
0100
,
1000
0000
0100
0000
0002
0000
0000
0000
1003
0000
0010
0100
0010
0000
1000
0010
,
0001
0010
1000
0000
1111
0000
0000
0000
;
