#TITLE:Ties That Bind;
#SUBTITLE:(SSSC3 ver.);
#ARTIST:Alter Bridge;
#TITLETRANSLIT:;
#SUBTITLETRANSLIT:;
#ARTISTTRANSLIT:;
#GENRE:Rock / Metal;
#CREDIT:Telperion;
#BANNER:ties-bn.png;
#BACKGROUND:ties-bg.png;
#LYRICSPATH:;
#CDTITLE:;
#MUSIC:ties.ogg;
#OFFSET:-0.271066;
#SAMPLESTART:17.493;
#SAMPLELENGTH:16.866;
#SELECTABLE:YES;
#DISPLAYBPM:123.9:125.4;
#BPMS:0=125.4,96=123.9,144=125.4,180=123.9,228=125.4,300=123.9,348=125.4;
#STOPS:;
#DELAYS:;
#TIMESIGNATURES:0.000=3=4;
#BGCHANGES:;
#KEYSOUNDS:;
#ATTACKS:;

//---------------dance-single - Telperion----------------
#NOTES:
     dance-single:
     Telperion:
     Challenge:
     11:
     0.750,0.946,0.040,0.436,1.000,953.000,8.000,87.000,73.000,2.000,3.000,0.000,0.750,0.946,0.040,0.436,1.000,953.000,8.000,87.000,73.000,2.000,3.000,0.000: // measure 1
0000
0000
0000
0000
,  // measure 2
0000
0000
0000
0000
,  // measure 3
0000
0000
0000
0000
,  // measure 4
0000
0000
0000
0000
,  // measure 5
0000
0000
0000
0000
,  // measure 6
0000
0000
0000
0000
0000
0000
0000
0000
0000
0000
M000
0M00
00M0
000M
0000
0M00
,  // measure 7
M000
0000
0000
0000
,  // measure 8
0000
0000
0000
0000
,  // measure 9
0000
0000
0000
0000
,  // measure 10
1000
0000
0000
0000
0000
1000
0010
0000
0000
0000
0000
0010
0100
0000
0000
0000
,  // measure 11
0000
0100
0001
0000
0000
0000
0000
0010
0100
0000
0000
0000
0000
0100
1000
0000
,  // measure 12
0000
0000
0000
1000
0001
0000
0000
0000
0000
0001
1000
0001
1000
0001
1000
0001
,  // measure 13
0010
0100
1000
0010
0100
0100
1000
0100
0010
0001
0010
0100
1000
0001
1000
0010
,  // measure 14
0100
0100
1000
0010
0100
1000
0100
0010
1000
0001
0100
0010
0100
0100
1000
0001
,  // measure 15
0100
0010
0100
0001
1000
0100
0010
0001
0100
0100
1000
0100
0001
1000
0010
0001
,  // measure 16
1000
0100
0010
0001
0100
0100
1000
0100
1000
0001
0010
0100
1000
0001
0100
0010
,  // measure 17
0100
0100
1000
0100
0010
1000
0010
0100
1000
0010
0100
0001
0100
0100
1000
0100
,  // measure 18
0100
0001
0100
0001
0010
0100
1000
0010
0000
0000
0MM0
0000
0000
M22M
0000
0000
,  // measure 19
0331
1000
0001
0020
0030
0010
0001
0010
0001
2000
3000
1000
0010
1000
0010
0200
,  // measure 20
0300
0100
0001
0100
0001
0010
0100
1000
0001
0010
0001
2000
3000
1000
0100
0010
,  // measure 21
0100
0020
0030
0100
1000
0001
1000
0020
0030
0010
0200
0301
0200
1300
0200
0310
,  // measure 22
1000
0100
0010
0002
0003
0001
0010
0100
1000
0200
0300
0100
1000
0001
0100
0020
,  // measure 23
0030
0010
0100
0001
1000
0001
0010
0100
1000
0100
1000
0020
0030
0100
0001
0100
,  // measure 24
0000
0000
0200
0000
0300
0000
0010
0000
1000
0000
0010
0000
0000
0000
0020
0000
0030
0000
0100
0000
0001
0000
1000
0001
1000
0000
0100
0000
1000
0000
0100
0000
,  // measure 25
M02M
0000
0000
0000
0000
0000
0001
0000
0001
0030
0000
0000
1000
0000
0010
0000
,  // measure 26
0000
0010
0000
0000
M20M
0000
0000
0010
,  // measure 27
0010
0000
0300
0000
0000
0000
0000
0000
0100
0000
0000
0000
0001
0000
0000
0000
0000
0000
0000
1000
0001
0000
0000
0000
0100
0000
0000
0000
0000
0000
0000
0000
,  // measure 28
M02M
0000
0000
0000
0000
0000
1000
0000
1000
0030
0000
0000
0001
0010
0100
0010
,  // measure 29
0000
0000
0001
0000
0000
1000
0000
0000
02MM
0000
0000
0000
0000
0000
0010
0000
,  // measure 30
0010
0300
0000
0000
0100
1000
0001
0100
0010
0100
1000
0100
0010
1000
0001
0010
,  // measure 31
M20M
0000
0000
0000
0000
0000
0010
0000
0010
0300
0000
0000
0001
0000
1000
0000
,  // measure 32
0000
1000
0000
0000
0M2M
0000
0000
0100
,  // measure 33
0100
0000
0030
0000
0000
0000
0000
0000
0010
0000
0000
0000
1000
0000
0000
0000
0000
0000
0001
0010
0001
0000
0000
0000
1000
0000
0000
0000
0000
0000
0000
0000
,  // measure 34
0MM2
0000
0000
0000
0000
0000
0000
0000
0000
0000
0000
0000
0000
0000
0000
0000
0000
0000
0000
0000
0000
0000
0000
0000
2000
0000
0000
0000
0000
0000
0000
0000
0000
0000
0000
0000
0000
0000
0000
0000
0000
0000
0000
0000
0000
0000
0000
0000
0000
0000
0000
0000
0000
0000
0000
0000
0000
0000
0000
0000
0000
0000
0000
0000
0000
0000
0000
0000
0000
0000
0000
0003
0001
0000
0000
0000
0000
0000
0000
0000
0000
0000
0000
0000
0000
0000
0000
0000
0000
0000
0000
0000
0000
0000
0000
3000
1000
0000
0000
0000
0000
0000
0000
0000
0000
0000
0000
0000
0000
0000
0000
0000
0000
0000
0000
0000
0000
0000
0000
0000
0000
0000
0000
0000
0000
0000
0000
0000
0000
0000
0000
0000
0000
0000
0000
0000
0000
0000
0000
0000
0000
0000
0000
0000
0100
0000
0000
0000
0000
0000
0000
0000
0000
0000
0000
0000
0010
0000
0000
0000
0000
0000
0000
0000
0000
0000
0000
0000
0001
0000
0000
0000
0000
0000
0000
0000
0000
0000
0000
0000
1000
0000
0000
0000
0000
0000
0000
0000
0000
0000
0000
0000
,  // measure 35
0000
0000
1000
0000
0000
0001
0000
0000
2MM0
0000
0000
0000
0000
0000
0010
0000
,  // measure 36
0001
0000
3000
0000
0000
0000
0000
0000
0110
0000
0000
0000
0100
0000
0001
0000
1000
0000
0001
1000
0001
0000
0000
0000
0001
0000
0010
0000
0100
0000
1000
0000
,  // measure 37
0001
0100
0001
1000
0100
0100
M001
0100
0100
0010
0100
1000
0001
0100
0010
1000
,  // measure 38
0100
0100
0001
0100
0010
M001
0010
0100
0001
0100
0010
1000
0010
0010
M001
0010
,  // measure 39
0010
1000
0001
1000
0100
0010
0001
0100
0000
0000
0MM0
0000
0000
M22M
0000
0000
,  // measure 40
1330
0001
1000
0002
0003
0001
0010
0100
1000
0001
0010
0010
1000
0100
0010
0002
,  // measure 41
0003
0001
1000
0010
0100
1000
0100
0010
1000
0001
0010
0200
0300
0100
1000
0010
,  // measure 42
0100
0020
0030
0010
1000
0100
0010
0002
0003
0001
0020
1030
0020
0130
0020
0031
,  // measure 43
1000
0001
0100
0020
0030
0010
1000
0010
0100
0001
0100
0100
1000
0001
0010
0002
,  // measure 44
0003
0001
1000
0100
0010
1000
0010
0100
1000
0001
0100
0002
0003
1000
0010
1000
,  // measure 45
0000
0000
2000
0000
3000
0000
0001
0000
0010
0000
0001
0000
1000
0000
0001
0000
0100
0010
0100
0000
0001
0000
1000
0010
1000
0000
0001
0010
0001
0000
1000
0000
,  // measure 46
02MM
0000
0000
0000
0000
0000
0010
0000
0010
0300
0000
0100
1000
0000
0010
0000
,  // measure 47
0000
0000
0100
0000
0000
0100
0000
0000
M02M
0000
0000
0000
0000
0000
1000
0000
,  // measure 48
1000
0000
0030
0000
0000
0000
0000
0000
0001
0000
0000
0000
1000
0000
0000
0000
0000
0000
0000
1000
0001
0000
0000
0000
0110
0000
0000
0000
0000
0000
0000
0000
,  // measure 49
M02M
0000
0000
0000
0000
0000
0100
0000
0100
0030
0000
0000
1000
0010
1000
0001
,  // measure 50
0000
0000
0010
0000
0010
0001
0000
0000
M100
0000
0010
0000
0000
0000
0100
0000
,  // measure 51
0100
0000
0000
0000
0001
0100
0010
0001
0010
0100
0001
1000
0100
0010
0100
1000
,  // measure 52
0M2M
0000
0000
0000
0000
0000
0100
0000
0100
0030
0000
0000
1000
0000
0001
0000
,  // measure 53
0000
0000
0001
0000
0000
0100
0000
0000
M02M
0000
0000
0000
0000
0000
0100
0000
,  // measure 54
0100
0000
0030
0000
0000
0000
0000
0000
0010
0000
0000
0000
1000
0000
0000
0000
0000
0000
0001
1000
0001
0000
0000
0000
0100
0000
0000
0000
0000
0000
0000
0000
,  // measure 55
0MM2
0000
0000
0000
0000
0000
0000
0000
0000
0000
0000
0000
0000
0000
0000
0000
0000
0000
0000
0000
0000
0000
0000
0000
2000
0000
0000
0000
0000
0000
0000
0000
0000
0000
0000
0000
0000
0000
0000
0000
0000
0000
0000
0000
0000
0000
0000
0000
0000
0000
0000
0000
0000
0000
0000
0000
0000
0000
0000
0000
0000
0000
0000
0000
0000
0000
0000
0000
0000
0000
0000
0003
0001
0000
0000
0000
0000
0000
0000
0000
0000
0000
0000
0000
0000
0000
0000
0000
0000
0000
0000
0000
0000
0000
0000
3000
1000
0000
0000
0000
0000
0000
0000
0000
0000
0000
0000
0000
0000
0000
0000
0000
0000
0000
0000
0000
0000
0000
0000
0000
0000
0000
0000
0000
0000
0000
0000
0000
0000
0000
0000
0000
0000
0000
0000
0000
0000
0000
0000
0000
0000
0000
0000
0000
0001
0000
0000
0000
0000
0000
0000
0000
0000
0000
0000
0000
0010
0000
0000
0000
0000
0000
0000
0000
0000
0000
0000
0000
0100
0000
0000
0000
0000
0000
0000
0000
0000
0000
0000
0000
1000
0000
0000
0000
0000
0000
0000
0000
0000
0000
0000
0000
,  // measure 56
0000
1000
0001
0000
0000
0100
0000
0000
M01M
0000
0010
0000
0000
1000
0001
0000
,  // measure 57
0001
0000
0000
0000
1000
0010
0100
0001
1000
0001
0010
0100
0010
0001
1000
0100
,  // measure 58
M02M
0000
0000
0000
,  // measure 59
0000
0230
0000
0000
2300
0000
0000
0000
,  // measure 60
0000
0000
0000
0000
3000
0000
0000
0001
0000
0000
0000
0000
0000
0001
0000
0000
,  // measure 61
M011
0100
0010
100M
0010
0001
1M00
0010
,  // measure 62
0100
0000
M020
0000
0032
0000
0023
0000
203M
0000
0000
000M
0000
0000
000M
0000
,  // measure 63
0000
000M
0000
0000
0002
0000
0000
0003
0000
0000
3001
0000
0000
0440
0330
0000
,  // measure 64
1000
0000
0100
0000
0100
0000
0001
0000
0010
0000
0100
0000
1000
0000
0000
0001
0000
0000
0000
0001
0000
0000
0000
0000
0000
0000
0000
0000
0000
0000
0000
0000
,  // measure 65
0000
0000
0000
0000
1010
0000
0000
0000
0000
0000
0000
0000
0000
0000
0000
0000
0001
0000
0100
0000
0100
0000
1000
0000
0010
0000
1000
0000
0001
0000
0000
0100
,  // measure 66
0000
0000
0000
0100
0000
0000
0000
0000
0000
0000
0000
0000
0000
0000
0000
0000
0000
0000
0000
0000
0110
0000
0000
0000
M001
0000
0000
0000
0000
0000
1000
0000
,  // measure 67
0001
0100
0001
1000
0010
0100
0002
0103
0010
1000
0001
0100
0001
0010
0100
1000
,  // measure 68
0100
0000
0010
0000
0002
0000
0013
0000
0100
0000
1000
0000
0001
0000
1000
0001
1000
0000
0010
0000
0100
0000
0001
0000
0100
0000
0001
1000
0001
0000
0010
0000
,  // measure 69
0100
0000
1000
0000
0100
0000
1000
0001
1000
0000
0010
0000
0100
0000
0001
0000
0010
0000
0001
0000
1000
0000
0001
0000
1000
0000
0001
0000
1000
0000
0001
0000
,  // measure 70
1000
0100
0100
0002
0013
0001
1000
0100
0100
0020
0130
0001
1000
0010
0010
0001
,  // measure 71
0010
0100
1000
0020
0031
0020
0130
0002
1003
0010
0100
0002
0103
0100
1000
0001
,  // measure 72
0010
0002
0103
0100
1000
0100
0010
0002
0103
0000
0001
1000
0001
1000
0001
1000
,  // measure 73
0001
0100
0100
2000
3100
0010
0001
0010
0010
2000
3010
1000
0001
0010
0100
0001
,  // measure 74
1000
0010
0100
1000
0010
0100
1000
0001
0010
1000
0100
0020
0130
1000
0001
0100
,  // measure 75
0010
0000
0002
0000
0013
0000
0100
0000
0001
0000
0010
0000
0100
0000
1000
0000
0001
1000
0001
0000
0100
0000
0010
0100
0010
0000
1000
0001
1000
0000
0100
0000
,  // measure 76
M01M
0000
0000
0020
0000
0000
0100
0000
0100
0030
0000
0000
1000
0000
0001
0000
,  // measure 77
0000
0000
0100
0000
0000
0000
0000
0000
1000
0010
1000
0020
0030
0010
0100
0000
,  // measure 78
0100
0000
0000
0000
0000
0000
0000
0000
0001
0000
1000
0000
0001
0000
0020
0000
0030
0000
0100
0010
0100
0000
0000
0000
0100
0000
0000
0000
0000
0000
0000
0000
,  // measure 79
20MM
0000
0000
0000
0000
0000
0010
0000
0010
3000
0000
0000
0100
0001
0100
0020
,  // measure 80
0030
0000
1000
0000
0000
1000
0000
0000
M010
0100
0001
0020
0030
0010
0100
1000
,  // measure 81
0010
0200
0300
0000
0100
0001
0010
0100
0010
1000
0010
0001
1000
0010
0100
0001
,  // measure 82
M2M0
0000
0000
0000
0000
0000
0010
0000
0010
0300
0000
0000
0001
0000
0010
0000
,  // measure 83
0000
0010
0000
0000
M20M
0000
0000
0010
,  // measure 84
0010
0000
0300
0000
0000
0000
0000
0000
0100
0000
0000
0000
1000
0000
0000
0000
0000
0000
0001
1000
0001
0000
0000
0000
0100
0000
0000
0000
0001
0000
0000
0000
,  // measure 85
2MM0
0000
0000
0000
0000
0000
0000
0000
0000
0000
0000
0000
0000
0000
0000
0000
0000
0000
0000
0000
0000
0000
0000
0000
0002
0000
0000
0000
0000
0000
0000
0000
0000
0000
0000
0000
0000
0000
0000
0000
0000
0000
0000
0000
0000
0000
0000
0000
0000
0000
0000
0000
0000
0000
0000
0000
0000
0000
0000
0000
0000
0000
0000
0000
0000
0000
0000
0000
0000
0000
0000
3000
1000
0000
0000
0000
0000
0000
0000
0000
0000
0000
0000
0000
0000
0000
0000
0000
0000
0000
0000
0000
0000
0000
0000
0003
0001
0000
0000
0000
0000
0000
0000
0000
0000
0000
0000
0000
0000
0000
0000
0000
0000
0000
0000
0000
0000
0000
0000
0000
0000
0000
0000
0000
0000
0000
0000
0000
0000
0000
0000
0000
0000
0000
0000
0000
0000
0000
0000
0000
0000
0000
0000
0000
1000
0000
0000
0000
0000
0000
0000
0000
0000
0000
0000
0000
0010
0000
0000
0000
0000
0000
0000
0000
0000
0000
0000
0000
0100
0000
0000
0000
0000
0000
0000
0000
0000
0000
0000
0000
0001
0000
0000
0000
0000
0000
0000
0000
0000
0000
0000
0000
,  // measure 86
0000
0000
0100
0000
0100
0010
0000
0000
1000
0010
1000
0001
0000
0000
0010
0000
,  // measure 87
0010
0000
0000
0000
0000
0000
0000
0000
0100
0000
0010
0000
0001
0000
1000
0000
0010
0000
0100
0001
0100
0000
0010
0000
1000
0000
0001
0000
0010
0000
0100
0000
,  // measure 88
0010
0000
0010
0001
0000
0001
1000
0000
1000
0010
1000
0100
0010
0000
0010
0100
,  // measure 89
0000
0100
1000
0000
1000
0001
0000
1000
0010
0000
0010
0100
0000
0100
0001
0000
,  // measure 90
0001
0100
0010
0100
0010
0000
0010
1000
0000
0001
0010
0000
0010
0001
0100
0100
,  // measure 91
1000
0000
0000
0000
1000
0000
0001
0000
0100
0000
0100
0000
1000
0000
0000
0000
1000
0000
0010
0000
0000
0000
0010
0000
0100
0000
0001
1000
0001
0000
0100
0000
,  // measure 92
0010
0100
0001
0000
0001
0010
0000
0000
0100
1000
0100
0010
0100
1000
0010
0100
,  // measure 93
0001
0100
0010
0100
0001
0010
0100
4000
0000
0000
0000
0000
0000
3000
0000
0000
,  // measure 94
0001
1000
0001
1000
0001
1000
0001
1000
0001
0010
0001
0010
0100
0010
0100
0010
,  // measure 95
0100
0010
0100
0010
0100
0010
0100
0010
0100
1000
0100
1000
0100
1000
0100
1000
,  // measure 96
0001
0000
2000
0000
0000
0020
3000
0000
0000
0000
0030
0000
0100
0000
0001
0000
0000
0000
0001
0000
1000
0000
0000
0000
1000
0000
0100
0000
1000
0000
0001
0000
,  // measure 97
0200
0000
0000
0000
0000
0000
0010
0000
0000
0002
0000
0000
0300
0000
0000
1000
0000
0000
0023
0000
0000
0000
0000
0000
0130
0000
0000
0000
1000
0000
0100
0000
,  // measure 98
0000
0000
0000
0000
0100
0000
0000
0000
0010
0000
0000
0000
0000
0000
0000
0000
0001
0000
0000
0000
1000
0000
0000
0000
0000
0000
0000
0000
1000
0000
0000
0000
0010
0000
0000
0100
0000
0000
0010
0000
0000
0100
0000
0000
0001
0000
0000
1000
0000
0000
0001
0000
0000
1000
0000
0000
0100
0000
0000
0010
0000
0000
0100
0000
,  // measure 99
0000
1000
0000
0000
0001
0000
0000
0010
0000
0000
0100
0000
0000
1000
0000
0000
0001
0000
0000
0000
0010
0000
0000
0000
0001
0000
0000
0000
1000
0000
0000
0000
0010
0000
0000
0000
2000
0000
0000
0000
0002
0000
0000
0000
0000
0000
0000
0000
0000
0000
0000
0000
0000
0000
0000
0000
0000
0000
0000
0000
0000
0000
0000
0000
,  // measure 100
30M3
0000
0000
00M0
,  // measure 101
0000
0000
00M0
0000
0000
0000
0000
0000
1000
0100
0100
0001
0100
0010
1000
0010
,  // measure 102
0010
0000
0100
0000
0010
0000
0001
0000
1000
0000
0100
0000
0100
0000
0010
0000
1000
0000
0001
0100
0001
0000
1000
0100
1000
0000
0001
1000
0001
1000
0001
0000
,  // measure 103
0100
0000
0000
0000
;
