#TITLE:The 7th Element;
#SUBTITLE:;
#ARTIST:Vitas;
#TITLETRANSLIT:;
#SUBTITLETRANSLIT:;
#ARTISTTRANSLIT:;
#GENRE:RUSSIAN FUTURE POP;
#CREDIT:Telperion;
#BANNER:7th_lmnt-bn.png;
#BACKGROUND:7th_lmnt-bq.png;
#LYRICSPATH:;
#CDTITLE:cdtitle.png;
#MUSIC:7th_lmnt.ogg;
#OFFSET:-0.053000;
#SAMPLESTART:44.506001;
#SAMPLELENGTH:14.794999;
#SELECTABLE:YES;
#DISPLAYBPM:129.6;
#BPMS:0=129.6;
#STOPS:;
#BGCHANGES:;
#KEYSOUNDS:;
#ATTACKS:;

//---------------dance-single - Telperion----------------
#NOTES:
     dance-single:
     Telperion:
     Challenge:
     9:
     0.507960,0.627269,0.053977,0.263137,0.482417,527.000000,519.000000,8.000000,39.000000,39.000000,0.000000,0.507960,0.627269,0.053977,0.263137,0.482417,527.000000,519.000000,8.000000,39.000000,39.000000,0.000000:
// measure 0
0000
0000
M000
0000
0000
000M
0000
000M
,  // measure 1
0000
0000
00M0
0000
0000
0000
0000
0000
0000
0000
000M
0M00
M000
0000
0000
0000
,  // measure 2
0000
0000
0000
0000
,  // measure 3
0000
0000
0000
0000
,  // measure 4
0000
0000
0000
0000
000M
0M00
000M
0000
,  // measure 5
M000
00M0
M000
0000
000M
00M0
0M00
0000
,  // measure 6
M000
0000
0000
00M0
0000
0000
0000
0000
000M
0000
0000
0000
0000
0000
0000
0000
,  // measure 7
M000
0000
0000
0M00
0000
0000
00M0
0000
0000
000M
0000
0000
M000
0000
0000
0000
0M00
0000
0000
0000
00M0
0000
0000
0000
,  // measure 8
100M
0000
0001
0010
0001
0000
1000
0000
,  // measure 9
0010
0000
0000
0000
0100
0000
0001
0000
0000
0000
0100
0000
0000
0010
1000
0100
,  // measure 10
0010
0000
0000
0100
0000
0000
0010
0000
0000
0000
0001
0000
0000
1000
0000
0000
,  // measure 11
0010
0000
0000
0100
0000
0000
0010
0000
0000
0000
1000
0000
1000
0001
0000
0000
,  // measure 12
0100
0000
0100
0010
0100
0000
0001
0000
,  // measure 13
1000
0000
0000
0000
0100
0000
1000
0000
0000
0000
0100
0000
0000
0010
0001
1000
,  // measure 14
0010
0000
0000
0100
0000
0000
0010
0000
0000
0000
1000
0000
0000
0001
0000
0000
,  // measure 15
0010
0000
0000
0010
0000
0000
0010
0000
0000
0000
0100
0000
0100
1000
0000
0000
,  // measure 16
0001
0100
0001
0001
1000
0010
0100
0001
,  // measure 17
1000
0000
0100
0000
1000
0000
1000
0000
0001
0000
1000
0000
0000
0100
0010
0001
,  // measure 18
1000
0000
0010
0100
0010
0000
1000
0000
0000
0000
1000
0000
0001
0100
0000
0000
,  // measure 19
0010
0000
1000
0010
1000
0000
0010
0000
0000
0000
0010
0000
0100
0001
0000
0000
,  // measure 20
1000
0100
1000
1000
0001
0010
0100
1000
,  // measure 21
0001
0000
0100
0000
0001
0000
0001
0000
1000
0000
0001
0000
0000
0100
0010
1000
,  // measure 22
0001
0000
0010
0100
0010
0000
0001
0000
0000
0000
0001
0000
1000
0100
0000
0000
,  // measure 23
0010
0000
0000
0010
0000
0000
0010
0000
0000
0000
0100
0000
0100
1000
0000
0000
,  // measure 24
0001
0100
0010
1000
0020
0000
1000
0100
,  // measure 25
2030
0000
0001
0100
3002
0003
0020
0230
,  // measure 26
0310
0000
0001
1000
0000
0000
0001
0000
0000
0010
0000
0000
0000
0000
0000
0010
0000
0001
1000
0000
0000
0010
0000
0000
,  // measure 27
0100
0001
0100
0001
0100
0001
0100
0001
0100
0002
0000
0000
1003
0000
0000
0100
0000
0000
4000
0000
0000
3000
0000
0000
,  // measure 28
0001
0010
0100
1000
0200
0000
1000
0010
,  // measure 29
2300
0000
0001
0010
3002
0003
0200
0320
,  // measure 30
0130
0000
0001
1000
0000
0000
0001
0000
0000
0100
0000
0000
0000
0000
0000
0001
0000
1000
0001
0000
0000
0010
0000
0000
,  // measure 31
0100
1000
0100
1000
0100
1000
0100
1000
0100
2000
0000
0000
3001
0000
0000
0100
0000
0000
0004
0000
0000
0003
0000
0000
,  // measure 32
1000
0100
0010
0001
0020
0000
0001
0100
,  // measure 33
0032
0000
1000
0100
2003
3000
0020
0230
,  // measure 34
0310
0000
1000
0001
0000
0000
1000
0000
0000
0010
0000
0000
0000
0000
0000
0010
0000
1000
0010
0000
0000
0100
0000
0000
,  // measure 35
0001
0100
0001
0100
0001
0100
0001
0100
0001
0200
0000
0000
0310
0000
0000
1000
0000
0000
0040
0000
0000
0030
0000
0000
,  // measure 36
1000
0100
0010
0001
2000
0000
0001
0010
,  // measure 37
3002
0000
0100
0010
0203
0000
2300
3200
,  // measure 38
0301
0000
1000
0100
0000
0000
1000
0000
0000
0001
0000
0000
0000
0000
0000
0010
0000
0001
0010
0000
0000
0100
0000
0000
,  // measure 39
1000
0100
1000
0100
1000
0100
1000
0100
1000
0200
0000
0000
0310
0000
0000
0001
0000
0000
0040
0000
0000
0030
0000
0000
,  // measure 40
0011
0001
1000
1000
0010
0010
0100
0100
,  // measure 41
0002
0000
0000
2000
0003
0000
3010
0000
0000
0000
1000
0000
0100
0000
0010
0000
,  // measure 42
0002
0000
0000
0000
0000
1003
0001
0000
0000
0010
0000
0000
0200
0000
0000
0000
0000
0000
1300
0000
0000
0001
0000
0000
,  // measure 43
0100
0000
0001
0100
0001
0000
1000
0000
0000
0000
0001
0000
0001
0100
0000
0000
,  // measure 44
1010
1000
0001
0001
0010
0010
0001
0100
,  // measure 45
2000
0000
0000
3200
0000
0000
0302
0000
,  // measure 46
2003
0000
0000
0000
0000
0000
0000
0000
0000
0001
0000
0000
0000
0000
0000
0000
0000
0000
0100
0000
0000
0000
0000
3000
2000
0000
0000
0000
0000
0000
0001
0000
0000
0000
0000
0000
0000
0000
0000
0100
0000
0000
0000
0000
0000
0000
0000
3000
,  // measure 47
1001
0000
0011
0000
0101
0000
1100
0100
,  // measure 48
1000
0010
1000
0000
0001
0010
0001
0000
1000
0000
0010
0000
0100
0000
0001
0000
,  // measure 49
1000
0000
0100
1000
0000
0100
0010
0000
0001
0000
0100
0010
0000
1000
0010
0000
,  // measure 50
0100
0001
0000
0001
0010
0000
0100
1000
0000
0001
0000
1000
0010
0000
0100
0000
,  // measure 51
0001
0000
0000
0000
0000
0000
0000
0000
0000
0001
0000
0000
1000
0000
0000
0001
0000
0000
0200
0000
0000
0000
0000
0000
0310
0000
0000
1000
0000
0000
0010
0000
0000
0000
1000
0000
0100
0000
0000
0000
0000
0000
0010
0000
0000
0000
0000
0000
,  // measure 52
0001
0010
0001
0000
1000
0010
1000
0000
0001
0000
0010
0000
0100
0000
0000
1000
,  // measure 53
0001
0000
0000
0100
0000
0000
0001
0000
0000
0000
1000
0000
0000
0000
0000
0000
0000
0000
0100
0000
0000
0000
0000
0000
0001
0000
0000
0000
0000
0000
0100
0000
0000
1000
0000
0000
0000
0000
0000
1000
0000
0000
0001
0000
0000
0000
0000
0000
,  // measure 54
0100
0000
0000
0000
0000
0000
0000
0000
0000
0000
0000
0000
0000
0000
0000
0000
0000
0000
0010
0000
0000
0000
0000
0000
0000
0000
0000
0000
0000
0000
0000
0000
0000
0000
0000
0000
1000
0000
0000
0000
0000
0000
0000
0000
0000
0000
0000
0000
0000
0000
0000
0000
0000
0000
0010
0000
0000
0000
0000
0000
0000
0000
0000
0000
0000
0000
0000
0000
0000
0000
0000
0000
0100
0000
0000
0000
0000
0000
0000
0000
0000
0000
0000
0000
0000
0000
0000
0000
0000
0000
0000
0000
0000
0000
0000
0000
0001
0000
0000
0000
0000
0000
0000
0000
0000
0000
0000
0000
0000
0000
0000
0000
0000
0000
0000
0000
0000
0000
0000
0000
0010
0000
0000
0000
0000
0000
0000
0000
0000
0000
0000
0000
0000
0000
0000
0000
0000
0000
0000
0000
0000
0000
0000
0000
0000
0000
0000
0000
0000
0000
0000
0000
0000
0000
0000
0000
0000
0000
0000
0000
0100
0000
0000
0000
0000
0000
0000
0000
0000
0000
0000
0000
0000
0000
0000
0000
1000
0000
0000
0000
0000
0000
0000
0000
0000
0000
0000
0000
0000
0000
0000
0000
,  // measure 55
0100
0000
0000
0100
0010
0000
0000
0010
0001
1000
0001
0000
0100
0010
0100
0000
,  // measure 56
0001
0100
0001
0000
1000
0100
1000
0000
0001
0000
0100
0000
0010
0000
1000
0100
,  // measure 57
0010
0000
0001
1000
0000
1000
0010
0000
0004
0000
0013
0100
0000
0100
0001
0000
,  // measure 58
1000
0000
0000
0000
0000
0000
0000
0000
0000
0000
0000
0000
0000
0000
0000
0000
0000
0000
0100
0000
0000
0000
0000
0000
0000
0000
0000
0000
0000
0000
0000
0000
0000
0000
0000
0000
1000
0000
0000
0000
0000
0000
0000
0000
0000
0000
0000
0000
0001
0000
0000
0000
0000
0000
0000
0000
0000
0000
0000
0000
0000
0000
0000
0000
0000
0000
0000
0000
0000
0000
0000
0000
0000
0000
0000
0000
0000
0000
0000
0000
0000
0000
0000
0000
0000
0000
0000
0000
0000
0000
0000
0000
0000
0000
0000
0000
0010
0000
0000
0000
0000
0000
0000
0000
0000
0000
0000
0000
0000
0000
0000
0000
0100
0000
0000
0000
0000
0000
0000
0000
0000
0000
0000
0000
0000
0000
0000
0000
0010
0000
0000
0000
0000
0000
0000
0000
0000
0000
0000
0000
0000
0000
0000
0000
0000
0000
0000
0000
0000
0000
0000
0000
0000
0000
0000
0000
0000
0000
0000
0000
0001
0000
0000
0000
0000
0000
0000
0000
0000
0000
0000
0000
0000
0000
0000
0000
1000
0000
0000
0000
0000
0000
0000
0000
0000
0000
0000
0000
0000
0000
0000
0000
,  // measure 59
0010
0000
0000
0000
0000
0000
0100
0000
0000
0001
0000
0000
0010
0000
0000
0000
0001
0000
0000
0000
0000
1000
0000
0000
0010
0000
0000
0100
0000
0000
0010
0000
0000
0100
0000
0000
0001
0000
0000
1000
0000
0000
0000
0000
0000
0001
0000
0000
,  // measure 60
1000
0100
0000
1000
0001
0100
0000
0001
1000
0000
0100
0000
0010
0000
0000
0001
,  // measure 61
0100
0010
1000
0000
0010
0100
0001
0000
0010
0000
0100
1000
0000
1000
0001
0000
,  // measure 62
0100
0000
0000
0000
0010
0000
0000
0000
0000
1000
0000
0000
0000
0000
0000
1000
0000
0000
0100
0000
0000
0000
0010
0000
0000
0000
0000
0001
0000
0000
0000
0000
0000
0001
0000
0000
1000
0000
0000
0000
0000
0000
0010
0000
0000
0000
0000
0000
,  // measure 63
0100
0000
0000
0100
0010
0000
0000
0010
1000
0001
1000
0000
0100
0010
0100
0000
,  // measure 64
1000
1000
0001
0001
1000
0100
0010
0001
,  // measure 65
0100
0000
0100
0000
0100
0000
0100
0010
,  // measure 66
2000
0000
0000
0000
0000
3001
1000
0000
0000
0010
0000
0000
0200
0000
0000
0000
0000
0000
0301
0000
0000
1000
0000
0000
,  // measure 67
0100
0000
0000
1000
0000
0000
0001
0000
0000
0000
1000
0000
1000
0100
0000
0000
,  // measure 68
0011
0001
1000
1000
0010
0010
1000
0010
,  // measure 69
0200
0000
0001
0320
0100
0000
2030
0000
,  // measure 70
3001
0000
0000
0010
0100
0000
1000
0000
0000
0000
0001
0000
0100
0001
0000
0000
,  // measure 71
1000
0000
0000
0010
0100
0000
0001
0000
0000
0000
1000
0000
0001
0010
0000
0000
,  // measure 72
1001
0000
0000
0000
0M00
00M0
M000
000M
,  // measure 73
0000
00M0
M000
00M0
0000
0M00
000M
0M00
,  // measure 74
0000
0000
M000
00M0
0000
0000
0000
0000
;
