#TITLE:Tetra;
#SUBTITLE:;
#ARTIST:SebastiAn;
#TITLETRANSLIT:;
#SUBTITLETRANSLIT:;
#ARTISTTRANSLIT:;
#GENRE:;
#CREDIT:Telperion;
#BANNER:Tetra-bn.png;
#BACKGROUND:Tetra-bg.png;
#LYRICSPATH:;
#CDTITLE:;
#MUSIC:Tetra.ogg;
#OFFSET:-0.094463;
#SAMPLESTART:0.086000;
#SAMPLELENGTH:16.390999;
#SELECTABLE:YES;
#DISPLAYBPM:117.000000;
#BPMS:0.000000=117.000000;
#STOPS:;
#DELAYS:;
#TIMESIGNATURES:0.000000=4=4
;
#BGCHANGES:;
#KEYSOUNDS:;
#ATTACKS:;

//---------------dance-single - Telperion----------------
#NOTES:
     dance-single:
     Telperion:
     Challenge:
     10:
     0.707,0.996,0.134,0.313,0.904,503.000,15.000,35.000,60.000,0.000,0.000,0.000,0.707,0.996,0.134,0.313,0.904,503.000,15.000,35.000,60.000,0.000,0.000,0.000: // measure 1
0000
0000
0000
0000
,  // measure 2
0000
0000
0000
0000
,  // measure 3
0000
0000
0000
0000
,  // measure 4
0000
0000
0000
0000
,  // measure 5
2000
0000
3000
0000
0000
0011
0001
0000
,  // measure 6
0200
0000
0300
0000
0000
1010
1000
0000
,  // measure 7
0002
0000
0003
0000
0000
0110
0100
0000
,  // measure 8
1000
0000
0001
0000
0010
0110
01M0
0000
,  // measure 9
2001
0000
3010
0100
0010
1000
0100
0000
,  // measure 10
1200
0000
0000
0000
0000
0000
1000
0001
1300
0000
0000
0000
0010
0000
0000
0000
0100
0000
0000
0000
0M10
0000
0000
0000
10M0
0000
0000
0000
M000
0000
0000
0000
,  // measure 11
1200
0000
0310
0100
0010
1000
0001
0000
,  // measure 12
0120
0000
0000
0000
0000
0000
0000
0000
0000
0000
0000
0000
0000
0000
0000
0000
0000
0000
0000
0000
0000
0000
0000
0000
0000
0000
0000
0000
0000
0000
0000
0000
0000
0000
0000
0000
0000
0000
0000
0000
0000
0000
0000
0000
0000
0000
0000
0000
0031
0000
0000
0000
0000
0000
0000
0000
0000
0000
0000
0000
1000
0000
0000
0000
0000
0000
0000
0000
0000
0000
0000
0000
0001
0000
0000
0000
0000
0000
0000
0000
0000
0000
0000
0000
0100
0000
0000
0000
0000
0000
0000
0000
0000
0000
0000
0000
0020
0000
0000
0000
0000
0000
0000
0000
0000
0000
0000
0000
0000
0000
0000
0000
0000
0000
0000
0000
0000
0000
0000
0000
0100
0000
0000
0000
0000
0000
0000
0000
0000
0000
0000
0000
0000
0000
0000
0000
0000
0000
0000
0000
0000
0000
0000
0000
0230
0000
0000
0000
0000
0000
0000
0000
0000
0000
0000
0000
0000
0000
0000
0000
0000
0000
0000
0000
0000
0000
0000
0000
0000
0000
0000
0000
0000
0000
0000
0000
0000
0000
0000
0000
0000
0000
0000
0000
0000
0000
0000
0000
0000
0000
0000
0300
,  // measure 13
1002
0000
0000
0000
0013
0000
0100
0000
0010
0000
0001
0000
0100
0010
1000
0010
,  // measure 14
0200
0000
0000
0000
0000
0000
0001
1000
0301
0000
0000
0000
0010
0000
0000
0000
0001
0000
0000
0000
001M
0000
0000
0000
01M0
0000
0000
0000
1M00
0000
0000
0000
,  // measure 15
1020
0000
0000
0000
0130
0000
0010
0000
0100
0000
1000
0000
0001
0010
0100
0010
,  // measure 16
2000
0000
0000
0000
3001
1000
0100
0010
0002
0000
M1M0
0000
0013
0100
0010
0000
,  // measure 17
MMMM
0000
0001
0000
1000
0001
0000
1000
0010
0000
1000
0001
0010
0000
0010
0000
,  // measure 18
M0MM
0100
0010
0000
0001
0100
0000
0010
0100
0000
0100
0000
0001
0100
0000
0010
,  // measure 19
MM0M
0000
0100
0000
0001
1000
0000
0100
0010
0000
0100
1000
0100
0000
0010
0000
,  // measure 20
MMM2
0000
0103
0010
2MMM
0000
3010
0100
,  // measure 21
MMMM
0000
0100
0000
0010
1000
0010
0000
0100
0001
0100
0001
0010
0100
0010
0000
,  // measure 22
MMM0
0001
1000
0000
0010
0000
1000
0010
0100
0010
0100
0010
2000
0000
3001
0000
,  // measure 23
MMMM
0000
0010
0000
0001
0010
0001
0000
1000
0010
1000
0001
0010
0001
0010
0000
,  // measure 24
M2MM
1000
0300
1000
MMM2
0100
0003
0100
,  // measure 25
MM1M
0000
0100
0000
0001
0100
0010
0000
2000
0000
0001
0000
3010
1000
0100
0000
,  // measure 26
MM1M
0000
0100
0000
1000
0100
0010
0000
0001
0000
1000
0000
0011
0000
1000
0000
,  // measure 27
MM1M
0000
0100
0000
0001
0100
0010
0000
1000
0001
1000
0001
1000
0001
0010
0000
,  // measure 28
MMM1
0000
1000
0000
0101
0000
0001
0000
1MMM
0000
0001
0000
1100
0000
1000
0020
,  // measure 29
0000
0000
0000
0000
,  // measure 30
0000
0000
0000
0000
,  // measure 31
0000
0000
0000
0000
,  // measure 32
0000
0000
0000
0000
,  // measure 33
1030
0000
0001
0010
0100
0000
1000
0001
0100
0010
1000
0010
0100
0000
0000
0000
,  // measure 34
0002
0000
0000
0000
0003
0000
0010
0100
0010
0000
0000
0000
0001
0000
0000
0000
1000
0000
0000
0000
0010
0000
0000
0000
0100
0000
0000
0000
0001
0000
0000
0000
,  // measure 35
0100
0001
0100
0001
0100
0001
0100
0001
0100
0000
0000
0000
0010
0000
0000
0000
100M
0000
0000
0000
0010
0000
0000
0000
0200
0000
0000
0000
0300
0000
0000
0000
,  // measure 36
0001
1000
0001
1000
0001
1000
0001
1000
0001
0000
0000
0000
0010
0000
0001
0000
1000
0000
0000
0000
0010
0000
0000
0000
0100
0010
0100
0010
0100
0010
0100
0000
,  // measure 37
0001
0000
1000
0100
0010
0000
0001
0200
0010
0000
1000
0000
0301
0000
0000
0000
,  // measure 38
0200
0000
0000
0000
0000
0000
0310
1000
0010
0000
0000
0000
0100
0000
0000
0000
0001
0000
0000
0000
0010
0000
0000
0000
0100
0000
0000
0000
1000
0000
0000
0000
,  // measure 39
0001
0010
0001
0010
0001
0010
0001
0010
0001
0000
0000
0000
0100
0000
0000
0000
M010
0000
0000
0000
0100
0000
0000
0000
1000
0000
0000
0000
0100
0000
0001
0000
,  // measure 40
1000
0100
1000
0100
1000
0100
1000
0100
1000
0000
0000
0000
0100
0000
0010
0000
0001
0000
0000
0000
0100
0000
0000
0000
0001
0100
0001
0100
0001
0100
0001
0000
,  // measure 41
0010
0000
0100
1000
0001
0100
0010
0000
1000
0000
0010
0000
0100
0000
0000
0000
,  // measure 42
0210
0000
0000
0000
0000
0000
0001
0010
0301
0000
0000
0000
0100
0000
0000
0000
0010
0000
1000
0000
0010
0000
0100
0000
0001
0000
0000
0000
0010
0000
0000
0000
,  // measure 43
0100
1000
0100
1000
0100
1000
0100
1000
0001
0000
0000
0000
0010
0000
0000
0000
0100
0000
0000
0000
1000
0000
0000
0000
0001
0000
0000
0000
0000
0000
0000
0000
,  // measure 44
0100
0010
0100
0010
0100
0010
0100
0010
0100
0000
0001
0000
0010
0000
0001
0000
1000
0000
0010
0000
1000
0000
0001
0000
0010
0100
0010
0100
0010
0100
0010
0000
,  // measure 45
0001
0010
0001
1000
0010
1000
0001
1000
0010
0100
0001
0100
0010
1000
0100
0010
,  // measure 46
0001
0010
0001
0010
0001
0010
0001
0010
0100
0000
1000
0000
0001
0000
0100
0000
0001
0000
1000
0000
0010
0000
1000
0000
0001
0000
0000
0000
0010
0000
0000
0000
,  // measure 47
0100
1000
0100
1000
0100
1000
0100
1000
0001
0000
1000
0000
0010
0000
0100
0000
0001
0000
0100
0000
1000
0000
0100
0000
0010
0000
0000
0000
0100
0000
0000
0000
,  // measure 48
0001
1000
0001
1000
0001
1000
0001
1000
0001
0000
0000
0000
0010
0000
0100
0000
0001
0000
0100
0000
0010
0000
0001
0000
1000
0001
1000
0001
1000
0001
1000
0000
,  // measure 49
0010
0000
0100
0000
0001
0000
0100
0000
0010
0000
2000
3000
0100
0000
0010
0000
0001
0000
1000
0000
0010
0000
1000
0000
0001
0000
0010
0000
0100
0000
1000
0000
,  // measure 50
0001
0010
0001
0010
0001
0010
0001
0010
0100
0000
0020
0030
0200
0300
0020
0030
0001
0000
1000
0000
0020
0030
1000
0000
0001
0000
0010
0000
0100
0000
0010
0000
,  // measure 51
0001
1000
0001
1000
0001
1000
0001
1000
0100
0000
0010
0000
0001
0000
0010
0000
0100
0000
0010
0000
1000
0000
0010
0000
0001
0000
0010
0000
0100
0000
1000
0000
,  // measure 52
0001
0100
0001
0100
0001
0100
0001
0100
0010
0000
0200
0300
2000
3000
0100
0000
0001
0000
0010
0000
0100
0000
0010
0000
0120
0030
0000
0000
0M10
0000
0000
0000
,  // measure 53
2000
0000
0000
0000
,  // measure 54
3000
0000
0000
0000
;
