#TITLE:So Fabulous So Deep;
#SUBTITLE:~Perfect Thunder Mix~;
#ARTIST:dj Kaltaro;
#TITLETRANSLIT:;
#SUBTITLETRANSLIT:;
#ARTISTTRANSLIT:;
#GENRE:;
#CREDIT:Telperion;
#BANNER:sfsd-bn.png;
#BACKGROUND:sfsd-bg.png;
#LYRICSPATH:;
#CDTITLE:;
#MUSIC:sfsd.ogg;
#OFFSET:-0.035;
#SAMPLESTART:1.676;
#SAMPLELENGTH:22.500;
#SELECTABLE:YES;
#DISPLAYBPM:128.000;
#BPMS:0.000=128.000
;
#STOPS:
;
#BGCHANGES:;
#KEYSOUNDS:;
#ATTACKS:;

//---------------dance-single - Telperion----------------
#NOTES:
     dance-single:
     :
     Hard:
     9:
     0.660,0.597,0.489,0.200,0.339,354.000,44.000,18.000,0.000,0.000,0.000,0.660,0.597,0.489,0.200,0.339,354.000,44.000,18.000,0.000,0.000,0.000: // measure 0
0000
0000
0000
0000
,  // measure 1
0110
0000
0000
0000
0001
0000
1000
0001
0000
0000
1000
0000
0010
0000
1000
0000
,  // measure 2
0100
1000
0000
0100
1000
0000
0001
0100
0000
0000
0001
0000
1000
0000
0100
0000
,  // measure 3
0110
0000
1000
0010
0101
0000
0001
0010
,  // measure 4
1100
0001
1000
0010
0201
0010
1300
0100
,  // measure 5
0001
0010
0100
1000
0000
0010
0100
0001
,  // measure 6
1000
0001
0010
0100
0000
1000
0100
0001
,  // measure 7
0100
0010
0100
0001
0000
0100
1000
0010
,  // measure 8
0000
0000
0100
0000
0010
0000
1000
0001
0000
1000
0001
0000
0010
0000
0100
0000
,  // measure 9
0110
1000
0001
0100
0010
0100
0001
1000
,  // measure 10
0100
0010
0100
1000
0001
0100
0010
0001
,  // measure 11
0010
0100
0001
1000
0001
0010
0100
0010
,  // measure 12
0001
1000
0100
0010
0002
0000
1003
0001
,  // measure 13
0101
0000
0000
0000
1000
0000
0001
1000
0000
0000
0001
0000
0010
0000
0001
0000
,  // measure 14
1000
0010
0000
1000
0001
0000
1000
0100
2000
0000
0000
0001
3000
0001
1000
0000
,  // measure 15
1010
0010
0100
0010
0000
0100
0001
0101
,  // measure 16
0000
1001
0001
0011
0000
0110
0100
1000
,  // measure 17
1001
0000
0000
1000
0010
0000
0100
0001
0100
0000
0000
0100
0010
0000
1000
0000
,  // measure 18
0001
0010
0001
0000
1000
0000
0000
1000
0100
0000
0010
0000
0001
0000
1000
0000
,  // measure 19
0011
0000
0000
0001
1000
0000
0001
0100
0010
0000
1000
0020
0000
0000
1030
0001
,  // measure 20
1000
0000
0100
0020
0000
0000
0031
0000
0010
0000
0100
0000
1000
0000
0001
0000
,  // measure 21
1010
0000
0000
0010
1000
0000
0001
0100
0001
0000
0000
0001
0010
0000
0100
0000
,  // measure 22
1000
0001
1000
0100
1000
0000
0001
0000
0100
0000
0001
0000
1000
0000
0001
0000
,  // measure 23
0011
1000
0001
1000
1010
0001
0100
0001
,  // measure 24
0021
0000
0000
0000
0230
0000
0000
0000
2300
0000
0100
0000
3002
0000
0100
0003
,  // measure 25
1000
0010
0000
1000
0001
0000
0100
0001
0000
1000
0001
0000
0010
0000
0100
0000
,  // measure 26
1000
0001
0000
1000
0100
0000
1000
0001
0000
0100
0001
0000
0100
0000
0010
0000
,  // measure 27
0100
0001
0000
0001
1000
0001
0100
0001
1000
0000
1000
0000
0100
0010
0100
0010
,  // measure 28
0100
1100
0000
0101
0000
1100
0001
1000
,  // measure 29
1010
0010
0100
1000
1200
0000
0301
0000
,  // measure 30
0011
0010
0100
0001
0201
0000
0010
0000
,  // measure 31
1300
0000
0001
0100
0100
0000
1000
0100
,  // measure 32
0100
0000
0001
0100
0100
0010
0010
1000
,  // measure 33
1010
0000
0010
0110
0000
0100
0101
0000
,  // measure 34
0001
1001
0000
1000
0011
0000
0110
0000
,  // measure 35
1100
0000
0001
1001
0000
0100
0101
0000
,  // measure 36
0010
0110
0000
1000
1001
0000
0110
0000
,  // measure 37
1001
0000
0000
0001
1000
0000
0001
0000
1000
0010
0000
0010
1000
0000
0010
0000
,  // measure 38
0100
0001
0100
0001
1000
0001
1000
0001
0020
0000
0000
0000
0030
0000
0100
0000
,  // measure 39
0110
0000
0000
1000
0001
0000
0100
0001
0100
0000
0000
0100
0010
0000
1000
0000
,  // measure 40
0001
0010
0001
0000
1000
0000
0000
1000
0001
0000
0100
0000
0001
0000
0010
0000
,  // measure 41
0110
0000
0000
0100
1000
0000
0001
0100
0010
0000
0100
0002
0000
0000
1003
0000
,  // measure 42
0100
0001
0100
1000
0020
0100
0030
0100
,  // measure 43
0110
0000
0001
0000
1000
0000
0010
0100
0010
0000
0100
0002
0000
0000
0023
0000
,  // measure 44
0000
0130
1000
0001
0100
0000
0010
1000
,  // measure 45
1010
0000
0000
1000
0001
0000
0100
0001
0010
0000
0000
0100
1000
0000
0001
0000
,  // measure 46
1000
0000
0000
0010
0110
2002
3003
0000
;

//---------------dance-single - ----------------
#NOTES:
     dance-single:
     :
     Medium:
     7:
     0.517,0.440,0.344,0.211,0.078,276.000,31.000,19.000,0.000,0.000,0.000,0.517,0.440,0.344,0.211,0.078,276.000,31.000,19.000,0.000,0.000,0.000:
0000
0000
0000
0000
,
1001
0000
0010
0000
1000
0000
0010
0100
,
0001
0000
0010
0100
1000
0000
0001
0010
,
0011
0000
1000
0010
1010
0000
0100
0001
,
1000
0000
0010
1000
0200
0000
0310
0100
,
1000
0001
1000
0100
0000
1000
0001
0100
,
0000
0001
0100
0010
1000
0000
0001
1000
,
0010
1000
0100
0020
0000
0031
0010
0002
,
0000
2003
0000
3200
0000
1300
0100
0010
,
0001
0100
0001
0100
0000
0001
1000
0100
,
0000
1000
0001
0100
0010
0000
0000
2000
,
0000
3010
1000
0100
0010
0100
1000
0020
,
0000
0230
0001
0302
1000
0000
0013
0100
,
0110
0000
0000
1000
0000
0000
1000
0000
0001
0000
1000
0000
0010
0000
0100
0000
,
0001
0000
0000
0100
0000
0000
0001
0000
2000
0000
0000
0000
3000
0000
0100
0000
,
0010
0000
0000
0010
0000
0000
0010
0000
0001
0000
1000
0000
0001
0000
0010
0000
,
0000
0010
0100
0001
0000
0001
0100
1000
,
0010
0000
0000
0000
0100
0000
0001
0100
0000
0000
0010
0000
0000
0000
1000
0000
,
0001
1000
0000
0000
0000
0000
0001
0100
0000
0000
0001
0000
1000
0000
0100
0000
,
0110
0000
1000
0001
0020
0000
1030
0010
,
0200
0000
0301
0100
1000
0010
0000
0100
,
0110
0000
0000
0000
0001
0000
1000
0100
0000
0000
1000
0000
0000
0000
0001
0000
,
0100
0001
0000
0000
0000
0000
1000
0001
0000
0000
0100
0000
0001
0000
0010
0000
,
0110
0000
1000
0001
1100
0000
1000
0001
,
0011
0000
1001
0000
0101
0000
0110
0010
,
1000
0010
0000
0000
0010
0000
0100
0000
0010
0000
1000
0000
0001
0000
0010
0000
,
0100
0010
0000
0000
0001
0000
0010
0000
1000
0000
0010
0000
0100
0000
1000
0000
,
0001
0000
0100
0001
0010
0001
0100
0000
,
0010
1000
0100
1000
0010
1000
0100
0000
,
0001
0100
1000
0010
0020
0000
0230
0000
,
0301
0100
1000
0100
0020
0000
2030
0000
,
3002
0000
0013
0100
0010
0000
0100
1000
,
0100
0000
1000
0001
0100
0001
1000
0001
,
0010
0000
0000
0110
0000
0000
1100
0000
,
0000
1001
0000
0000
1010
0000
0110
0000
,
0101
0000
0000
1001
0000
0000
0011
0000
,
0000
1001
0000
0000
1100
0000
1001
0000
,
0101
0100
0001
0100
0010
0100
0010
0100
,
0010
1000
0100
0010
0002
0000
0003
1000
,
1001
0000
0000
0000
0001
0000
0100
0010
0000
0000
0100
0000
0001
0000
1000
0000
,
0100
0000
1000
0001
0100
0000
0001
0010
,
0110
0000
0000
0000
1000
0000
0001
0010
0000
0000
0001
0000
0010
0000
0100
0000
,
0000
0110
0000
1000
0002
1000
0003
0100
,
0110
0000
0000
0000
1000
0000
0010
0100
0000
0000
0010
0000
1000
0000
0001
0000
,
0000
0010
0000
0001
0100
0000
0010
1000
,
1010
0000
0001
0010
0011
0000
1000
0001
,
0010
0001
1000
0010
0110
0100
0000
0000
;

//---------------dance-single - ----------------
#NOTES:
     dance-single:
     :
     Easy:
     4:
     0.284,0.259,0.011,0.000,0.000,178.000,1.000,0.000,0.000,0.000,0.000,0.284,0.259,0.011,0.000,0.000,178.000,1.000,0.000,0.000,0.000,0.000:
0000
0000
0000
0000
,
0001
0000
0010
0000
0001
0000
0000
1000
,
0100
0000
0000
0001
0100
0000
0000
1000
,
0010
0000
1000
0000
0010
0000
0000
1000
,
0100
0000
0000
0001
0100
0000
0000
1000
,
0010
0100
0001
1000
,
0001
0010
0100
0000
,
0001
0100
1000
0100
,
0010
0100
1000
0000
,
0010
0100
0001
1000
,
0100
1000
0010
0000
,
0001
0010
1000
0010
,
0100
0000
0001
1000
0001
0000
0000
0000
,
0010
0100
1000
0100
,
0001
0100
0010
0000
,
0001
0000
0100
0000
0010
0000
1000
0010
,
0000
0100
0000
0001
0000
1000
0000
0001
,
0010
0000
0000
1000
0010
0000
0000
0001
,
0100
0000
0000
1000
0100
0000
0000
1000
,
0010
0000
0000
0001
0010
0000
0000
1000
,
0100
0000
0000
0001
0100
0000
0000
0010
,
0010
0000
0000
1000
0010
0000
0000
0001
,
0100
0000
0000
1000
0100
0000
0000
0001
,
0010
0100
0010
0100
,
0001
0100
1000
0010
,
0100
0000
0001
0000
1000
0001
1000
0000
,
0100
0000
1000
0000
0001
1000
0001
0000
,
0100
0000
0001
0000
1000
0001
1000
0000
,
0100
0000
1000
0000
0001
0100
0001
0000
,
1000
0100
0001
0000
,
1000
0010
0001
0010
,
1000
0000
0001
0100
,
1000
0001
0100
0010
,
0110
0000
0000
0010
0000
0000
1000
0000
,
0000
0010
0000
0000
0100
0000
0001
0000
,
1000
0000
0000
0001
0000
0000
0010
0000
,
0000
0100
0000
0000
1000
0000
0001
0000
,
0100
0001
1000
0001
,
0010
0100
0010
0000
,
0010
0000
0000
0001
0010
0000
0000
1000
,
0100
0000
0000
0001
0100
0000
0000
0010
,
0010
0000
0000
1000
0010
0000
0000
1000
,
0000
0001
0000
1000
0100
0000
0000
0010
,
0010
0000
0000
0001
0010
0000
0000
1000
,
0100
0000
0000
0001
0100
0000
0000
0010
,
0010
0000
0000
1000
0010
0000
0000
0010
,
0100
0000
0000
0100
0010
0100
0000
0000
;

//---------------dance-single - ----------------
#NOTES:
     dance-single:
     :
     Beginner:
     1:
     0.078,0.077,0.011,0.000,0.000,48.000,1.000,0.000,0.000,0.000,0.000,0.078,0.077,0.011,0.000,0.000,48.000,1.000,0.000,0.000,0.000,0.000:
0000
0000
0000
0000
,
0010
0000
0000
0000
,
0100
0000
0000
0000
,
0010
0000
0010
0000
,
0010
0000
0010
0000
,
0010
0000
0000
0000
,
0000
0000
0000
0000
,
1000
0000
0000
0000
,
0001
0000
0000
0000
,
0010
0000
0000
0000
,
0000
0000
0000
0000
,
0001
0000
0000
0000
,
1000
0000
0000
0000
,
0010
0000
0000
0000
,
0100
0000
0000
0000
,
0001
0000
0000
0000
,
1000
0000
0000
0000
,
0010
0000
0000
0000
,
0000
0000
0000
0000
0000
0000
0000
0010
,
0010
0000
0000
0000
,
0000
0000
0000
0000
0000
0000
0000
0010
,
0010
0000
0000
0000
,
0000
0000
0000
0000
0000
0000
0000
0010
,
0010
0000
0010
0000
,
0010
0000
0010
0000
,
0010
0000
0000
0000
,
0100
0000
0000
0000
,
0001
0000
0000
0000
,
1000
0000
0000
0000
,
0100
0000
0000
0000
,
0100
0000
0000
0000
,
0100
0000
0000
0000
,
0100
0000
0100
0000
,
0100
0000
0000
0000
,
0000
0000
0000
0000
,
1000
0000
0000
0000
,
0000
0000
0000
0000
,
0001
0000
0000
0000
,
0000
0000
0000
0000
0000
0000
0000
0010
,
0010
0000
0000
0000
,
0000
0000
0000
0000
0000
0000
0000
0010
,
0010
0000
0000
0000
,
0000
0000
0000
0000
0000
0000
0000
0010
,
0010
0000
0000
0000
,
0000
0000
0000
0000
0000
0000
0000
0001
,
0001
0000
0000
0000
,
1000
0000
1010
0000
;

//---------------dance-double - ----------------
#NOTES:
     dance-double:
     :
     Hard:
     8:
     0.571,0.466,0.255,0.067,0.083,331.000,23.000,6.000,0.000,0.000,0.000,0.571,0.466,0.255,0.067,0.083,331.000,23.000,6.000,0.000,0.000,0.000:
00000000
00000000
00000000
00000000
,
00000010
00000100
00001000
00000001
00000100
00001000
00010000
00000100
,
00010000
00000000
00001000
01000000
00001000
00000000
00010000
00100000
,
10000000
01000000
00100000
00010000
10000000
01000000
00010000
00001000
,
01000000
00000000
00001000
00010000
00000200
00000000
00000310
00000010
,
00000100
00000001
00000100
00001000
00000000
00000100
00010000
00001000
,
01000000
00001000
00010000
01000000
00000000
10000000
00100000
01000000
,
10000000
01000000
00010000
01000000
00000000
00001000
00010000
00000010
,
00000000
00000100
00000010
00001000
00000001
00001000
00000100
00000100
,
00000010
00000001
00000010
00001000
00000000
00000010
00000100
00010000
,
00001000
01000000
00001000
00010000
00000000
01000000
10000000
00100000
,
00000000
01000000
00010000
00100000
10000000
00100000
00010000
01000000
,
00000000
00100000
10000000
10000000
00020000
00000000
00130000
00010000
,
10010000
10000000
01000000
00010000
10000000
00100000
01000000
00010000
,
00001000
00000100
00000010
00001000
00000002
00000000
00000103
00000001
,
00000010
00001000
00000010
00000001
00001000
00000100
00000010
00001000
,
00010000
01000000
10000000
00010000
20000000
00100000
30020000
01000000
,
10030000
00000000
01000000
00000000
10000000
00000000
00010000
00000000
01000000
00000000
00010000
10000000
00000000
00000000
00010000
00000000
,
01000000
00001000
00010000
00000100
00001100
00000000
00001000
00000001
,
00000101
00000000
00000000
00000000
00001000
00000000
00000001
00000000
00000010
00000000
00000001
00001000
00000000
00000000
00000010
00000000
,
00010000
00000000
00001000
01000000
00000000
00000000
00001000
00000000
00100000
00000000
01000000
00000000
00000000
00000000
10000000
00000000
,
10010000
00000000
01000000
00000000
00010000
00000000
10000000
00000000
00100000
00000000
10000000
00010000
00000000
00000000
01000000
00000000
,
00001000
00000000
00010000
00000010
00000000
00000000
00001000
00000000
00001100
00000000
00000000
00000000
00000001
00000000
00001000
00000000
,
00000011
00000001
00001000
00000100
00000001
00000100
00001000
00010000
,
00100000
00010000
01000000
00010000
00001000
00010000
01000000
00010000
,
00100000
00010000
00000000
10000000
00010000
00000000
01000000
00000000
00001000
00000000
00010000
00000000
00000010
00000000
00001000
00000000
,
00000001
00000100
00000000
00000001
00001000
00000000
00000100
00000000
00010000
00000000
00001000
00000000
00100000
00000000
00010000
00000000
,
10000000
01000000
00000000
10000000
00010000
00000000
01000000
00000000
00001000
00000000
00010000
00000000
00001000
00000000
00000100
00000000
,
00000001
00000100
00000000
00000001
00001000
00000000
00000100
00000000
00000010
00000000
00001000
00000000
00010000
00000000
01000000
00000000
,
10000000
00100000
00010000
00100000
01100000
00000000
00010000
10000000
,
01000000
00010000
00001000
00000100
00000110
00000000
00000001
00000100
,
00001001
00000001
00000010
00000010
00001000
00000000
00010000
00010000
,
00100000
00000000
10000000
00010000
10000000
10000000
00100000
00100000
,
01100000
00000000
00000000
01010000
00000000
00000000
01001000
00000000
,
00000000
01000100
00000000
00000000
00010100
00000000
00001100
00000000
,
00000110
00000000
00000001
00000100
00000000
00000100
00001000
00000000
,
00010000
01000000
00000000
01000000
10000000
00000000
10000000
00100000
,
00010000
00001000
01000000
00001000
00010000
00000010
00001000
00000100
,
00000010
00000001
00000010
00000000
00000100
00000010
00000100
00000000
00002000
00000000
00000000
00000000
00003000
00000000
00000001
00000000
,
00001001
00000100
00000001
00000010
00001000
00000010
00000100
00010000
,
00001000
00000100
00001000
00010000
01000000
10000000
00100000
10000000
,
10010000
01000000
10000000
00100000
00010000
00001000
00100000
01000000
,
00010000
00001000
00000100
00000010
00001000
00000100
00000010
00000001
,
00001001
00000100
00000001
00000010
00001000
00010000
01000000
00010000
,
00001000
01000000
00100000
00010000
10000000
01000000
00010000
10000000
,
10010000
00010000
10000000
00100000
01010000
01000000
00001000
00010000
,
00000100
00000000
00000000
00000010
00000110
00001001
00000000
00000000
;
