#TITLE:Snake Eater;
#SUBTITLE:MGS 3 Theme;
#ARTIST:Cynthia Harrell;
#TITLETRANSLIT:;
#SUBTITLETRANSLIT:;
#ARTISTTRANSLIT:;
#GENRE:;
#CREDIT:Telperion;
#BANNER:;
#BACKGROUND:;
#LYRICSPATH:;
#CDTITLE:;
#MUSIC:Snake Eater.ogg;
#OFFSET:-0.543;
#SAMPLESTART:21.533;
#SAMPLELENGTH:29.334;
#SELECTABLE:YES;
#DISPLAYBPM:90.000:180.000;
#BPMS:0.000=174.000,3.000=96.725,4.000=89.985,56.000=176.937,62.000=161.063,66.000=126.120,67.000=89.985,161.000=163.707,163.000=156.291,164.000=174.931,166.000=191.406,167.000=218.281,168.000=217.491,169.000=89.985,251.000=81.290,252.000=119.426,253.000=157.584,257.000=215.965,259.000=246.817,261.000=287.953,264.000=329.370,266.000=383.672,269.000=44.992;
#STOPS:15.000=2.667
;
#BGCHANGES:;
#KEYSOUNDS:;

//---------------dance-single - Blank----------------
#NOTES:
     dance-single:
     Blank:
     Challenge:
     8:
     0.401,0.076,0.163,0.208,0.315:
0000
0000
0000
2002
,
0000
0000
0000
0000
,
3003
0000
0200
0020
,
0000
0000
0000
0330
,
1000
0000
1000
0000
1000
0000
1000
0001
,
0100
0010
0000
1000
0100
0000
0001
0000
0100
1000
0100
0000
0010
0000
0001
0000
,
0100
1000
0000
0100
0001
0000
0010
0000
0001
0010
0001
0000
0100
0000
0010
0000
,
1000
0010
0000
0100
1000
0000
0100
0000
0001
0100
0002
0000
0003
0000
0010
0000
,
0100
0010
0000
0001
0100
0000
0001
0000
0010
0100
0000
0000
1000
0000
0100
0000
,
0010
0001
0000
0100
0010
0000
0000
0001
0000
0000
0010
0100
0000
0001
0000
0000
,
2000
0000
0000
0000
0000
0100
0200
0000
,
3000
0000
0000
0000
0002
0000
0000
0000
0303
0000
0100
1000
0000
0000
0001
0000
,
0010
0000
1000
0000
0010
0000
0001
0010
0001
0000
0000
0000
2000
0000
0000
0000
,
3000
0000
0100
0000
0010
0000
0000
0000
0002
0000
0000
0000
0000
0003
1000
0000
,
2002
00M0
0000
0M00
,
0000
00M0
0000
0M00
,
3003
0000
0MM0
0000
0000
0000
0001
1000
,
0100
0000
1000
0000
0001
0010
0000
0001
0100
0000
0010
0000
0011
0000
0000
0000
,
1000
0000
0001
0000
0010
0100
0000
1000
0200
0000
0000
0000
0302
0000
0000
0000
,
0000
0000
0103
0000
1000
0100
0000
0110
0000
0000
1010
0000
0000
0000
0000
0000
,
1000
0000
0010
0000
0001
0010
0000
0100
0010
0100
0000
0000
1000
0000
0000
0000
,
1001
0000
0100
0000
1000
0010
0000
0100
0010
0000
1000
0000
0100
0000
0010
0000
,
0001
0000
0010
0000
0001
0200
0000
0010
0000
0000
0310
0000
0000
0000
0000
0000
,
0010
0000
0000
0000
0000
0000
1000
0000
0000
0000
0000
0000
0100
0000
0000
1000
0000
0000
0000
0000
0000
0001
0000
0000
0100
0000
0000
0000
0000
0000
0000
0000
0010
0000
0000
0000
0000
0000
0000
0000
0100
0000
0000
0000
0000
0000
0000
0000
,
0001
0000
1000
0000
0100
1000
0000
0001
2000
0000
0000
0000
3000
0000
0000
0000
,
1100
0000
0010
0000
0001
0100
0000
1000
0100
0000
0010
0000
0110
0000
0000
0000
,
1000
0000
0100
0000
0010
0001
0000
0100
1000
0000
0100
0000
1100
0000
0000
0000
,
1000
0000
0100
0000
0001
0100
0000
1000
0100
0000
0001
0000
0010
0000
0100
0000
,
1000
0000
0100
0000
0001
0100
0000
1000
0100
0010
0100
0000
0001
0000
0000
0000
,
0110
0000
0010
0000
1010
0000
0000
1000
0001
0010
0001
0000
1000
0000
0000
0000
,
1100
0000
0100
0000
0110
0000
0000
0010
0001
0100
0001
0000
0010
0000
0000
0000
,
1010
1000
2100
0000
0002
0000
3003
0000
,
1000
0000
1100
0000
0000
0101
0000
0001
1000
0100
1000
0000
0010
0100
0010
0000
,
1000
0100
0001
0100
1000
0001
0100
1000
,
0100
0001
0010
0100
0001
0100
1000
0100
,
0010
0000
0001
0000
0010
0000
1000
0000
0010
0000
0001
0000
0100
0000
1000
0100
,
1000
0000
0000
0100
0000
0010
0100
0000
0001
0000
0010
0000
0100
0000
1000
0000
,
0100
0000
0010
0000
0001
0000
0100
0000
1000
0000
0100
0000
0010
0000
1000
0100
,
0000
0100
0000
0000
0010
0000
0002
0000
0000
0000
0103
0000
0010
0000
0100
0000
,
1000
0100
1000
0100
0001
0100
0001
0100
,
1000
0110
0000
0002
,
2000
0000
0MM0
0000
,
3003
0000
0000
0000
0001
1000
0001
1000
0000
0000
0100
0000
0010
0100
0000
0010
,
0100
0000
1000
0000
0100
1000
0000
0100
1000
0000
0001
0000
0100
0001
0000
0100
,
0001
0000
0000
0020
0000
0000
0000
0000
0000
0000
0130
0000
1000
0100
0000
1000
,
0010
0000
0220
0000
0000
0000
0330
0000
0100
0000
0001
0000
0010
0100
0000
0010
,
0100
0000
1000
0000
0001
0000
0100
0000
0010
0000
0100
0000
0001
0010
0000
0001
,
0100
0000
1000
0000
1100
0000
0000
0000
0100
0000
0010
0000
1000
0100
0000
0001
,
0100
0000
0010
0001
0000
0100
0000
0010
0200
0000
0000
0000
0302
0000
0000
0000
,
2003
3200
0302
0023
,
2030
0000
0000
0000
3001
0000
0000
0000
1001
0000
1001
0000
0010
0001
0000
0100
,
0010
0000
1000
0000
0100
0000
0001
0000
0100
0000
1000
0000
0010
0100
0000
0010
,
1000
0000
0110
0000
0010
0100
0010
0000
1000
0000
0100
0000
0001
0100
0000
0010
,
0001
0000
0200
0000
0000
0000
0310
0000
1000
0000
0001
0000
0010
0001
0000
1000
,
0010
0000
0001
0000
0010
1000
0010
0000
1000
0000
1000
0000
0001
0010
0000
0001
,
0100
0000
0010
0000
1000
0000
0100
0000
1100
0000
1000
0000
0001
0010
0000
1000
,
0010
0000
0001
0000
0011
0000
0010
0000
1010
0000
1000
0001
2000
0000
0000
0000
,
3000
0000
0010
0000
0001
0100
0000
0001
0010
0000
0010
0000
0100
1000
0000
0100
,
0001
0000
0100
1000
0010
0000
0000
0000
0100
0000
0100
0000
2002
0000
3003
0000
,
0010
0000
0010
0000
1001
0000
0100
0000
1000
0100
1000
0000
0010
0000
0100
0000
,
0001
0100
0001
0000
0010
0000
0100
0000
1000
0000
1000
0000
0001
0000
0010
0100
,
0010
0000
0010
0000
0001
0000
0100
1000
0100
0000
0100
0000
0010
0000
1000
0100
,
1000
0000
1000
0000
0010
0000
0001
0000
1000
0000
0100
0001
1000
0000
0000
0000
,
0001
1000
0001
2002
,
0M00
0000
0000
0000
0000
0000
0000
0000
0000
0000
0000
0000
0000
0000
0000
0000
00M0
0000
0000
0000
0000
0000
0000
0000
0000
0000
0000
0000
0000
0000
0000
0M00
,
0000
0000
0000
0000
0000
0000
0000
0000
0000
0000
0000
0000
0000
00M0
0000
0000
0000
0000
0000
0000
0000
0000
0000
0000
0000
0000
0M00
0000
0000
0000
0000
0000
,
0000
0000
0000
0000
0000
0000
00M0
0000
0000
0000
0000
0000
0000
0000
0000
0000
0000
0M00
0000
0000
0000
0000
0000
0000
0000
0000
0000
00M0
0000
0000
0000
0000
,
0000
0M00
3003
00M0
0MM0
0000
0000
0000
;

//---------------dance-double - CHALLENGE----------------
#NOTES:
     dance-double:
     CHALLENGE:
     Challenge:
     8:
     0.395,0.076,0.163,0.197,0.306: // measure 1
00000000
00000000
00000000
00022000
,  // measure 2
00000000
00000000
00000000
00000000
,  // measure 3
00033000
00000000
02000000
20000000
,  // measure 4
00000000
00000000
00000000
33000000
,  // measure 5
00010000
00000000
00010000
00000000
00010000
00000000
00010000
00100000
,  // measure 6
01000000
00000000
00000000
00100000
00010000
00000000
01000000
00000000
00100000
00000000
00000000
00000000
01000000
00000000
00001000
00000000
,  // measure 7
00010000
00000000
00000000
00001000
00010000
00000000
01000000
00000000
00100000
01000000
00100000
00000000
00010000
00000000
10000000
00000000
,  // measure 8
01000000
00100000
00000000
00010000
01000000
00000000
00100000
00000000
00001000
00000000
00000000
00000000
00000000
00000000
00000010
00000000
,  // measure 9
00000100
00000001
00000000
00000010
00000001
00000000
00001000
00000000
00000100
00010000
00000000
00000000
00000001
00000000
00001000
00000000
,  // measure 10
00000100
00010000
00000000
00001000
00000010
00000000
00000000
00000001
00000000
00000000
00000100
00001000
00000000
00000100
00000000
00000000
,  // measure 11
00000002
00000000
00000000
00000000
00000000
01000000
02000000
00000000
,  // measure 12
00000003
00000000
00000000
00000000
00002000
00000000
00000000
00000000
03003000
00000000
00000000
01000000
00000000
00000000
00010000
00000000
,  // measure 13
00001000
00010000
01000000
00010000
00001000
00000000
00200000
00000000
,  // measure 14
00300000
00000000
00010000
00000000
00001000
00000000
00000000
00000000
00010000
00001000
00000000
00000000
00000000
00000000
00100000
00000000
,  // measure 15
00200020
000M0000
0000M000
000M0000
,  // measure 16
00000M00
0000M000
00000M00
000M0000
,  // measure 17
0030M030
00000000
000M0M00
00000000
00000000
00000000
00000010
00001000
,  // measure 18
00000100
00000000
00000001
00000000
00000100
00000010
00000000
00000001
00000100
00000000
00001000
00000000
00011000
00000000
00000000
00000000
,  // measure 19
00010000
00000000
00100000
00000000
10000000
01000000
00000000
00010000
00002000
00000000
00000000
00000000
00020000
00000000
00000000
00000000
,  // measure 20
00000000
00000000
00033000
00000000
00010000
01000000
00000000
01100000
00000000
00000000
00101000
00000000
00000000
00000000
00000000
00000000
,  // measure 21
01000000
00000000
00100000
00000000
00010000
00100000
00000000
01000000
00100000
01000000
00000000
00000000
00010000
00000000
00000000
00000000
,  // measure 22
11000000
00000000
01000000
00000000
00100000
00001000
00000000
01000000
00100000
00000000
00010000
00000000
00001000
00000000
00000100
00000000
,  // measure 23
00001000
00000000
00010000
00000000
00001000
00000020
00000000
00000100
00000000
00000000
00000130
00000000
00000000
00000000
00000000
00000000
,  // measure 24
00000001
00000000
00000000
00000000
00000000
00000000
00000100
00000000
00000000
00000000
00000000
00000000
00001000
00000000
00000000
00000100
00000000
00000000
00000000
00000000
00000000
00010000
00000000
00000000
00001000
00000000
00000000
00000000
00000000
00000000
00000000
00000000
00100000
00000000
00000000
00000000
00000000
00000000
00000000
00000000
00010000
00000000
00000000
00000000
00000000
00000000
00000000
00000000
,  // measure 25
10000000
00000000
01000000
00000000
00100000
00010000
00000000
01000000
20000000
00000000
00000000
00000000
30000000
00000000
00000000
00000000
,  // measure 26
11000000
00000000
00100000
00000000
00010000
01000000
00000000
10000000
01000000
00000000
00100000
00000000
00010000
00000000
00001000
00000000
,  // measure 27
00000100
00000000
00000010
00000000
00001000
00000100
00000000
00000010
00000001
00000000
00000100
00000000
00001000
00000000
00000000
00000000
,  // measure 28
00010000
00000000
00100000
00000000
10000000
01000000
00000000
00010000
01000000
00000000
00100000
00000000
00010000
00000000
01000000
00000000
,  // measure 29
00100000
00000000
00010000
00000000
00001000
00000100
00000000
00000001
00000010
00000100
00001000
00000000
00000001
00000000
00000000
00000000
,  // measure 30
00000110
00000000
00000100
00000000
00000101
00000000
00000000
00000001
00000010
00001000
00010000
00000000
01000000
00000000
00000000
00000000
,  // measure 31
11000000
00000000
10000000
00000000
10100000
00000000
00000000
00100000
00010000
00001000
00000100
00000000
00000001
00000000
00000000
00000000
,  // measure 32
00000011
00000001
00000201
00000000
00002000
00000000
00003300
00000000
,  // measure 33
00000001
00000000
00000101
00000000
00000000
00001100
00000000
00000100
00000010
00001000
00000010
00000000
00000100
00000001
00000100
00000000
,  // measure 34
00000010
00001000
00000100
00000010
00000001
00000100
00000001
00000010
,  // measure 35
00000100
00001000
00000010
00000100
00001000
00010000
00001000
00000100
,  // measure 36
00000010
00000000
00010000
00000000
00001000
00000000
01000000
00000000
00001000
00000000
00010000
00000000
00000100
00000000
00001000
00000100
,  // measure 37
00001000
00000000
00000000
00000010
00000000
00000100
00001000
00000000
00010000
00000000
00100000
00000000
01000000
00000000
00010000
00000000
,  // measure 38
00100000
00000000
01000000
00000000
00100000
00000000
00010000
00000000
01000000
00000000
00100000
00000000
01000000
00000000
00010000
00100000
,  // measure 39
00000000
00100000
00000000
00000000
01000000
00000000
20000000
00000000
00000000
00000000
31000000
00000000
00100000
00000000
01000000
00000000
,  // measure 40
10000000
01000000
00010000
00001000
00000100
00001000
00010000
00001000
,  // measure 41
00000010
00001001
00000000
00002000
,  // measure 42
00000002
00000000
00000MM0
00000000
,  // measure 43
00003003
00000000
00000000
00000000
00000101
00000000
00000010
00000000
00001100
00000000
00000010
00000000
00000100
00000001
00000000
00000010
,  // measure 44
00000100
00000000
00001000
00000000
00000010
00000100
00000000
00001000
00000100
00000000
00000001
00000000
00000010
00001000
00000000
00010000
,  // measure 45
00001000
00000000
00000000
00000020
00000000
00000000
00000000
00000000
00000000
00000000
00000031
00000000
00000100
00000010
00000000
00010000
,  // measure 46
00001000
00000000
00000022
00000000
00000000
00000000
00000033
00000000
00010000
00000000
00001000
00000000
00100000
00010000
00000000
10000000
,  // measure 47
01000000
00000000
00100000
00000000
00010000
00000000
01000000
00000000
00100000
00000000
01000000
00000000
00010000
00100000
00000000
00010000
,  // measure 48
01000000
00000000
10000000
00000000
11000000
00000000
00000000
00000000
01000000
00000000
00100000
00000000
00010000
00001000
00000000
00010000
,  // measure 49
01000000
00000000
00100000
00001000
00000000
00010000
00000000
00000100
00002000
00000000
00000000
00000000
00003002
00000000
00000000
00000000
,  // measure 50
00000203
00002300
00023000
02030000
,  // measure 51
23000000
00000000
00000000
00000000
30010000
00000000
00000000
00000000
10010000
00000000
10010000
00000000
00100000
00010000
00000000
01000000
,  // measure 52
00100000
00000000
00010000
00000000
00001000
00000000
00010000
00000000
01000000
00000000
10000000
00000000
00100000
00010000
00000000
00001000
,  // measure 53
00000100
00000000
00000110
00000000
00000010
00001000
00000100
00000000
00000010
00000000
00000001
00000000
00000010
00000100
00000000
00000010
,  // measure 54
00000001
00000000
00020000
00000000
00000000
00000000
00031000
00000000
10000000
00000000
00010000
00000000
00100000
00001000
00000000
00010000
,  // measure 55
00000010
00000000
00001000
00000000
00000001
00000010
00000001
00000000
00001000
00000000
00001000
00000000
00000010
00000100
00000000
00000010
,  // measure 56
00001000
00000000
00000100
00000000
01000000
00000000
00001000
00000000
01010000
00000000
00010000
00000000
00100000
01000000
00000000
00100000
,  // measure 57
00001000
00000000
00010000
00000000
00011000
00000000
00000100
00000000
00000110
00000000
00000001
00010000
00002000
00000000
00000000
00000000
,  // measure 58
00003000
00000000
00100000
00000000
00010000
01000000
00000000
00010000
00100000
00000000
00100000
00000000
01000000
10000000
00000000
01000000
,  // measure 59
00010000
00000000
00001000
00000100
00000010
00000000
00000000
00000000
00001000
00000000
00001000
00000000
00002002
00000000
00003003
00000000
,  // measure 60
00000100
00000000
00000100
00000000
00010100
00000000
00001000
00000000
01000000
00010000
01000000
00000000
00100000
00000000
10000000
00000000
,  // measure 61
01000000
00010000
01000000
00000000
00100000
00000000
00001000
00000000
00000010
00000000
00000010
00000000
00001000
00000000
00010000
01000000
,  // measure 62
00010000
00000000
00010000
00000000
00001000
00000000
00000100
00000010
00000100
00000000
00000001
00000100
00000001
00000000
00000010
00000001
,  // measure 63
00000010
00000000
00000010
00000000
00000001
00000010
00000100
00010000
00001000
00000000
01000000
00010000
10000000
00000000
00000000
00000000
,  // measure 64
00001000
00010000
00001000
00022000
,  // measure 65
0M0000M0
00000000
00000000
00000000
00000000
00000000
00000000
00000000
00000000
00000000
00000000
00000000
00000000
00000000
00000000
00000000
00M00M00
00000000
00000000
00000000
00000000
00000000
00000000
00000000
00000000
00000000
00000000
00000000
00000000
00000000
00000000
0M0000M0
,  // measure 66
00000000
00000000
00000000
00000000
00000000
00000000
00000000
00000000
00000000
00000000
00000000
00000000
00000000
00M00M00
00000000
00000000
00000000
00000000
00000000
00000000
00000000
00000000
00000000
00000000
00000000
00000000
0M0000M0
00000000
00000000
00000000
00000000
00000000
,  // measure 67
00000000
00000000
00000000
00000000
00000000
00000000
00M00M00
00000000
00000000
00000000
00000000
00000000
00000000
00000000
00000000
00000000
00000000
0M0000M0
00000000
00000000
00000000
00000000
00000000
00000000
00000000
00000000
00000000
00M00M00
00000000
00000000
00000000
00000000
,  // measure 68
00000000
0M0000M0
00033000
00000000
000MM000
00000000
00000000
00000000
;

//---------------dance-single - HEAVY----------------
#NOTES:
     dance-single:
     HEAVY:
     Medium:
     5:
     0.281,0.095,0.135,0.191,0.118:
1000
1000
1000
0002
,
0000
0000
0000
0000
,
0000
0003
0000
0220
,
0000
0000
0000
0330
,
0100
0000
0000
0100
0000
0000
0000
0000
0100
0000
0000
0000
0002
0000
0000
0000
,
0010
0000
0000
0013
0000
0000
0000
0000
0010
0000
0000
0000
0200
0000
0000
0000
,
1000
0000
0000
1300
0000
0000
0000
0000
1000
0000
0000
0000
0020
0000
0000
0000
,
0100
0000
0000
0130
0000
0000
0000
0000
0100
0000
0000
0000
0002
0000
0000
0000
,
1000
0000
0000
1000
0000
0000
0000
0000
1003
0000
0000
0000
2000
0000
0000
0000
,
0100
0000
0000
0100
0000
0000
0000
0000
3100
0000
0000
0000
0200
0000
0000
0000
,
0001
0000
0000
0001
0000
0000
0000
0000
0301
0000
0100
0000
2000
0000
0000
0000
,
0000
0000
0000
0000
3020
0000
0000
0000
0030
0000
0100
0001
0000
0000
0010
0000
,
0100
0010
0001
0000
0100
0000
1000
0000
,
0000
0010
0001
0000
1000
0000
0000
0001
,
2002
0000
0000
0000
,
0000
0000
0000
0000
,
0000
0000
3003
0000
,
0200
0000
0000
0000
0001
0000
0000
0010
0000
0000
0000
0000
0301
0000
0000
0000
,
0020
0001
1000
0032
,
0000
0000
1003
0000
0010
0000
0000
0110
0000
0000
1100
0000
0000
0000
0000
0000
,
1000
0000
0100
0000
0001
0010
0000
0100
1000
0000
0100
0000
1000
0000
0100
0000
,
0000
0000
0010
0000
0001
0000
0000
0100
0010
0000
1000
0000
0010
0000
0000
0000
,
0000
0000
0000
0000
0100
0000
0000
0001
0000
0000
0010
0000
0000
1000
0000
0000
,
0200
0002
0000
0303
,
0100
1100
0010
0110
,
1000
0001
0011
0000
0100
1000
1010
0000
,
0100
0000
0001
0000
1001
0000
0000
1000
0000
0000
1001
0000
0000
0000
0000
0000
,
0010
0100
1100
0000
0100
0001
0011
0000
,
0100
1000
1100
0000
0010
0001
0011
0000
,
0010
0000
1000
0000
0100
0010
0000
0000
1000
0000
0010
0000
0100
1000
0000
0000
,
0001
0000
0100
0000
0010
0001
0000
0000
0010
0000
0100
0000
0001
0010
0000
0000
,
0100
1000
0010
0001
0020
0000
0000
0000
,
1030
0100
0000
0010
0001
0100
0000
0010
,
1000
0100
0010
0001
,
0100
0000
0010
0100
0000
1000
0100
0001
,
0010
0000
0100
0000
1000
0000
0001
0010
,
0100
0000
1000
0100
0000
0010
0001
0000
,
0100
0000
0000
0000
0120
0000
0000
0000
1030
0000
0000
0000
2010
0000
0000
0001
,
3000
0001
0100
0010
1000
0100
0010
0001
,
0100
0110
0000
0010
1000
0001
0010
0001
,
1000
2002
0000
0000
,
0000
0000
0000
0000
,
0000
0000
0000
0000
3003
0000
0000
0000
0010
0000
0001
0000
0100
0000
0000
0010
,
0000
0000
1000
0000
0010
0000
0000
0000
0100
0000
0001
0000
0010
0000
0000
0001
,
0000
0000
1000
0000
0001
0000
0000
0000
0100
0000
1000
0000
0100
0000
0000
0001
,
0000
0000
0020
0000
0000
0000
0100
0000
0130
0000
0010
0000
0001
0000
0000
0100
,
0000
0002
1000
1003
0000
1001
0000
0000
,
1000
0000
0000
0100
0000
0000
0001
0000
0100
0000
1000
0000
0100
1000
0000
0000
,
0001
0000
0010
0000
0001
0010
0000
0000
0200
0000
0000
0000
0000
0000
0000
0000
,
0302
0000
0023
0000
,
2030
0000
0000
0000
3001
0000
0000
0000
1001
0000
0100
0000
0010
0000
0000
1000
,
0000
0000
0100
0000
0001
0000
0000
0000
0100
0000
0010
0000
0001
0000
0000
0100
,
0000
0000
0010
0000
1000
0000
0000
0000
0001
0000
0100
0000
0010
0000
0000
0100
,
0000
0000
2000
0000
0000
0000
3100
0000
0010
0000
1000
0000
0100
0000
0000
0010
,
0000
0001
0010
0000
0001
0010
0100
1000
,
0100
0010
0001
0000
1000
0010
0100
0001
,
0100
0000
0010
0000
1000
0000
0000
0000
0010
0000
0100
0010
0200
0000
0000
0000
,
0000
0000
0000
0000
0301
0000
0000
0000
0000
0000
0000
0000
1100
0000
0000
0101
,
0000
1100
0000
0000
1000
0001
0011
0000
,
1000
0010
0100
1000
0200
0000
0000
0000
,
0001
0001
0301
0010
0001
0100
0010
0001
,
0010
0100
0001
0000
1000
0010
0100
1000
,
0100
0000
0010
0000
1000
0000
0000
0000
0002
0000
0000
2000
0000
0000
0000
0000
,
0000
00M0
0000
0M00
,
0000
0000
0000
0000
0000
0000
0000
00M0
0000
0000
0000
0000
0000
0000
0000
0000
0000
0000
0000
0000
0000
0000
0000
0M00
0000
0000
0000
0000
0000
0000
0000
0000
,
0000
0000
0000
0000
0000
00M0
0000
0000
0000
0000
0000
0000
0000
0000
0000
0000
0000
0000
0M00
0000
0000
0000
0000
0000
0000
0000
0000
0000
0000
0000
00M0
0000
,
0000
0000
0000
0000
0000
0000
0000
0000
0000
0M00
0000
0000
0000
0000
0000
0000
0000
0000
0000
00M0
0000
0000
0000
0000
0000
0000
0000
0000
0M00
0000
0000
0000
,
0000
00M0
3003
0000
0MM0
0000
0000
0000
;

//---------------dance-double - Blank----------------
#NOTES:
     dance-double:
     Blank:
     Medium:
     5:
     0.235,0.057,0.045,0.135,0.053:
00000000
00000000
00000000
10002000
,
00000000
00000000
00000000
00000000
,
00000000
00000000
00000000
00020000
,
00000000
00000000
00000000
00033000
,
00010000
00000000
00000000
00010000
00000000
00000000
00000000
00000000
00010000
00000000
00000000
00000000
00000000
00000000
00000000
00000000
,
00001000
00000000
00000000
00001000
00000000
00000000
00000000
00000000
00001000
00000000
00000000
00000000
00000000
00000000
00000000
00000000
,
00010000
00000100
00000010
00000001
,
00000100
00001000
00010000
00000000
,
00001000
00000000
00000000
00001000
00000000
00000000
00000000
00000000
00001000
00000000
00000000
00000000
00000000
00000000
00000000
00000000
,
00010000
00000000
00000000
00010000
00000000
00000000
00000000
00000000
00010000
00000000
00000000
00000000
01000000
00000000
00000000
00000000
,
00100000
00010000
01000000
00002000
,
00000000
20003000
00000000
30010000
,
00100000
01000000
00100000
00010000
,
10000000
00000000
01000000
00000000
00010000
00000000
00000000
00001000
,
00022000
00000000
00000000
00000000
,
00000000
00000000
00000000
00000000
,
00000000
00000000
00000000
00033000
,
00001000
00010000
00000100
00000000
00001000
00000000
00000010
00000000
,
00000100
00000001
00000100
00000000
00000010
00000000
00001000
00000000
,
00000100
00000010
00000100
00000000
00000010
00000000
00000001
00000000
,
00000100
00001000
00010000
00100000
10000000
01000000
00010000
01000000
,
10000000
00000000
01000000
00000000
00100000
00000000
00000000
00000000
00010000
00000000
00000000
01000000
00000000
00000000
00100000
00000000
,
00010000
00000000
00001000
00000000
00000100
00000000
00000000
00000010
00000000
00000000
00001000
00000000
00000000
00000000
00000000
00000000
,
00000100
00000000
00000000
00001000
00000000
00000000
00000200
00000000
00000000
00000000
00000000
00000000
00000010
00000000
00000000
00000000
00000010
00000000
00000000
00000000
00000010
00000000
00000000
00000000
,
00000310
00000001
00000100
00001000
,
00000100
00000000
00000001
00000000
00000010
00001000
00000010
00000000
,
00001000
00010000
00001000
00000000
00010000
01000000
00010000
00000000
,
00000000
02000000
00000000
00000000
00200000
00000000
03300000
00000000
,
00010000
10000000
01000000
10000000
,
00010000
00100000
00010000
01000000
00010000
00000000
00100000
01000000
,
00010000
00001000
00010000
01000000
00010000
00000000
00002000
00000000
,
20003000
00000000
00000000
02000000
00000000
00000000
00000000
00000000
00000000
00000000
00000000
00000000
33000000
00000000
00000000
00000000
,
00100000
00010000
01000000
00100000
00010000
00001000
00000100
00001000
,
00010000
00000001
00000100
00001000
,
00000100
00000001
00010000
00001000
,
10000000
01000000
00010000
01000000
,
10000000
00001000
00010000
00000001
,
00001000
00000100
00000001
00000100
,
00001000
00000000
00000010
00000100
00000000
00000001
00000010
00000100
,
00010000
00001000
00000000
00100000
00010000
10000000
01000000
00100000
,
00001000
00022000
00000000
00000000
,
00000000
00000000
00000000
00000000
,
00000000
00000000
00033000
00000000
00001000
00010000
00001000
01000000
,
00010000
00000000
00100000
00000000
00001000
00010000
00001000
01000000
,
00010000
00000000
00000000
00100000
02000000
00000000
00000000
00000000
00000000
00000000
13000000
00000000
01000000
00000000
00100000
00000000
,
00010000
00200000
00000000
00000000
00310000
10000000
00100000
01000000
,
00010000
00100000
00001000
00010000
00000100
00000000
00000010
00000000
,
00000001
00000000
00000100
00000000
00000001
00000000
00000000
00000000
00001000
00000000
00000000
00000000
00000100
00000000
00000000
00000010
,
00000000
00000000
00000100
00000000
00000000
00000010
00000000
00000000
00000200
00000000
00000000
00000000
00000001
00000000
00000000
00000000
,
00002300
00003002
00000203
00001000
,
00000001
00000310
00000110
00001001
,
00000010
00000001
00000010
00000000
00000110
00000000
00001001
00000100
,
00000000
00001000
00000100
00000000
00000010
00000001
00000100
00000010
,
00010000
00000200
00000000
00000000
00010300
00001000
01000000
00010000
,
10000000
00100000
01000000
00000000
00010000
00000000
10000000
00000000
,
01000000
00100000
00001000
00010000
,
00100000
10000000
01000000
00010000
,
00001000
00000000
00000000
00000000
00000100
00000000
00000000
00000000
00000001
00000000
00000000
00000000
00000100
00000000
00000000
00001000
,
00000000
00010000
00000000
00000000
02000000
00000000
00000000
00000000
,
03100000
00000000
00001000
00010000
00000100
00000000
00001000
00000100
,
00010000
00001000
00000100
00000001
00000010
00000000
00001000
00000000
,
00010000
01000000
10000000
00100000
,
01000000
00010000
00001000
00022000
,
00000000
00000000
00000000
0M0000M0
,
00000000
00000000
00000000
00000000
00000000
00000000
00000000
00000000
M000000M
00000000
00000000
00000000
00000000
00000000
00000000
00000000
00000000
00000000
00000000
00000000
00000000
00000000
00000000
0M0000M0
00000000
00000000
00000000
00000000
00000000
00000000
00000000
00000000
,
00000000
00000000
00000000
00000000
00000000
M000000M
00000000
00000000
00000000
00000000
00000000
00000000
00000000
00000000
00000000
00000000
00000000
00000000
0M0000M0
00000000
00000000
00000000
00000000
00000000
00000000
00000000
00000000
00000000
00000000
00000000
M000000M
00000000
,
00000000
00000000
00000000
00000000
00000000
00000000
00000000
00000000
00000000
0M0000M0
00000000
00000000
00000000
00000000
00000000
00000000
00000000
00000000
00000000
M000000M
00000000
00000000
00000000
00000000
00000000
00000000
00000000
00000000
0M0000M0
00000000
00000000
00000000
,
00000000
M000000M
00033000
00000000
000MM000
00000000
00000000
00000000
;
