#TITLE:Sexual Man Chocolate (Remix);
#SUBTITLE:;
#ARTIST:Attack Attack;
#TITLETRANSLIT:;
#SUBTITLETRANSLIT:;
#ARTISTTRANSLIT:;
#GENRE:;
#CREDIT:Telperion;
#BANNER:smcr-bn.png;
#BACKGROUND:smcr-bg.png;
#LYRICSPATH:;
#CDTITLE:;
#MUSIC:smcr.ogg;
#OFFSET:-0.081;
#SAMPLESTART:65.361;
#SAMPLELENGTH:15.340;
#SELECTABLE:YES;
#DISPLAYBPM:125.000;
#BPMS:0.000=125.000,21.000=125.000,21.125=375.000,21.500=625.000,22.125=875.000,23.000=1083.333,23.729=1250.000,24.563=1416.667,25.500=125.000,25.500=613613.027,25.563=-125.000,29.500=125.000,33.438=613613.027,33.500=-125.000,37.438=125.000,41.375=613613.027,41.438=-125.000,45.375=125.000,49.313=613613.027,49.375=-125.000,53.313=125.000,57.250=613613.027,57.313=-125.000,61.250=125.000,65.188=613613.027,65.250=-125.000,69.188=125.000,73.125=613613.027,73.188=-125.000,77.125=125.000,81.063=613613.027,81.125=-125.000,85.063=125.000,89.000=613613.027,89.063=-125.000,93.000=125.000,96.938=613613.027,97.000=-125.000,100.938=125.000,104.875=613613.027,104.938=-125.000,108.875=125.000,112.813=613613.027,112.875=-125.000,116.813=125.000,120.750=613613.027,120.813=-125.000,124.750=125.000,128.688=613613.027,128.750=-125.000,132.688=125.000,136.625=613613.027,136.688=-125.000,140.625=125.000,144.563=613613.027,144.625=-125.000,148.563=125.000,152.500=613613.027,152.563=-125.000,156.500=125.000,160.438=613613.027,160.500=-125.000,164.438=125.000,168.375=613613.027,168.438=-125.000,172.375=125.000,176.313=613613.027,176.375=-125.000,180.313=125.000,184.250=613613.027,184.313=-125.000,188.250=125.000,192.188=613613.027,192.250=-125.000,196.188=125.000,200.125=613613.027,200.188=-125.000,204.125=125.000,208.063=613613.027,208.125=-125.000,212.063=125.000,225.250=250.000,225.750=125.000,227.250=250.000,227.750=125.000,228.750=250.000,229.250=125.000,229.750=250.000,230.333=125.000,230.833=250.000,231.333=125.000,231.833=250.000,232.250=125.000,233.250=250.000,233.750=125.000,235.250=250.000,235.750=125.000,236.750=250.000,237.250=125.000,237.750=250.000,238.333=125.000,238.833=250.000,239.333=125.000,239.833=250.000,240.250=125.000,241.500=250.000,242.000=125.000,243.250=250.000,243.750=125.000,244.750=250.000,245.250=125.000,245.750=250.000,246.333=125.000,246.833=250.000,247.333=125.000,247.833=250.000,248.250=125.000,249.500=250.000,250.000=125.000,251.250=250.000,251.750=125.000,254.000=613613.027,255.771=125.000,256.000=187.500,256.500=125.000,256.833=62.500,257.000=187.500,257.500=125.000,257.833=62.500,258.167=125.000,258.500=187.500,259.000=62.500,259.167=125.000,259.500=187.500,260.500=125.000,260.833=62.500,261.167=125.000,261.500=187.500,264.500=125.000,264.833=62.500,265.000=187.500,265.500=125.000,265.833=62.500,266.167=125.000,266.500=187.500,267.000=62.500,267.167=125.000,267.500=187.500,268.000=62.500,268.167=125.000,268.500=187.500,269.000=62.500,269.167=125.000,269.500=187.500,270.000=125.000,272.000=187.500,272.250=93.750,272.500=187.500,272.750=93.750,273.000=187.500,274.250=93.750,274.500=187.500,274.750=93.750,275.000=187.500,275.250=93.750,275.500=187.500,275.750=93.750,276.000=187.500,276.250=93.750,276.500=187.500,276.750=93.750,277.000=125.000,278.000=250.000,284.000=41.667,284.167=208.333,285.000=125.000,292.000=62.500,292.083=125.000,292.250=187.500,292.750=125.000,292.917=62.500,293.000=41.667,293.167=208.333,294.000=187.500,296.000=125.000,300.000=62.500,300.083=125.000,300.250=187.500,300.750=125.000,300.917=62.500,301.000=41.667,301.167=208.333,302.000=187.500,303.000=250.000,304.000=125.000,308.000=62.500,308.083=125.000,308.250=187.500,308.750=125.000,308.917=62.500,309.000=125.000,310.000=187.500,311.000=93.750,311.250=187.500,312.000=125.000,317.000=250.000,318.000=41.667,318.333=208.333,320.000=125.000,324.750=250.000,325.250=125.000,325.750=250.000,326.167=125.000,327.000=613613.027,327.896=125.000,328.000=62.500,328.167=125.000,328.500=187.500,329.000=125.000,330.000=187.500,330.500=125.000,330.833=62.500,331.000=125.000,332.000=62.500,332.167=125.000,332.500=187.500,333.000=62.500,333.167=125.000,333.500=187.500,336.000=62.500,336.167=125.000,336.500=187.500,337.000=125.000,338.000=187.500,338.500=125.000,338.833=62.500,339.000=125.000,340.000=187.500,340.500=125.000,340.833=62.500,341.000=187.500,341.500=125.000,341.833=62.500,342.000=125.000,344.000=187.500,344.250=93.750,344.500=187.500,344.750=93.750,345.000=187.500,346.250=93.750,346.500=187.500,346.750=93.750,347.000=187.500,347.250=93.750,347.500=187.500,347.750=93.750,348.000=187.500,348.250=93.750,348.500=187.500,348.750=93.750,349.000=125.000,350.000=250.000,356.000=41.667,356.167=208.333,357.833=41.667,358.000=187.500,360.000=125.000,375.000=250.000,376.000=125.000,390.500=250.000,391.000=613613.027,392.000=125.000,420.000=187.500,420.375=93.750,420.750=187.500,421.125=93.750,421.500=187.500,421.750=93.750,422.000=187.500,422.500=250.000,423.000=187.500,424.000=62.500,424.167=125.000,424.500=187.500,425.000=125.000,426.000=187.500,426.500=125.000,426.833=62.500,427.000=125.000,428.000=62.500,428.167=125.000,428.500=187.500,429.000=125.000,430.000=187.500,432.000=62.500,432.167=125.000,432.500=187.500,433.000=125.000,434.000=187.500,434.500=125.000,434.833=62.500,435.000=125.000,436.000=62.500,436.167=125.000,436.500=187.500,437.000=62.500,437.167=125.000,437.500=187.500,438.000=125.000,440.000=187.500,440.250=93.750,440.500=187.500,440.750=93.500,441.000=187.500,442.250=93.750,442.500=187.500,442.750=93.750,443.000=187.500,443.250=93.750,443.500=187.500,443.750=93.750,444.000=187.500,444.250=93.750,444.500=187.500,444.750=93.750,445.000=125.000,446.000=250.000,450.000=125.000,452.000=41.667,452.167=208.333,453.000=125.000;
#STOPS:25.500=0.040
,33.438=0.040
,41.375=0.040
,49.313=0.040
,57.250=0.040
,65.188=0.040
,73.125=0.040
,81.063=0.040
,89.000=0.040
,96.938=0.040
,104.875=0.040
,112.813=0.040
,120.750=0.040
,128.688=0.040
,136.625=0.040
,144.563=0.040
,152.500=0.040
,160.438=0.040
,168.375=0.040
,176.313=0.040
,184.250=0.040
,192.188=0.040
,200.125=0.040
,208.063=0.040
,216.000=0.120
,225.500=0.120
,227.500=0.120
,229.000=0.120
,230.000=0.140
,231.000=0.120
,232.000=0.100
,233.500=0.120
,235.500=0.120
,237.000=0.120
,238.000=0.140
,239.000=0.120
,240.000=0.100
,241.750=0.120
,243.500=0.120
,245.000=0.120
,246.000=0.140
,247.000=0.120
,248.000=0.100
,249.750=0.120
,251.500=0.120
,255.750=0.850
,262.000=0.040
,262.250=0.040
,262.500=0.040
,262.750=0.080
,263.250=0.040
,263.500=0.040
,263.750=0.040
,273.000=0.040
,273.250=0.040
,273.500=0.040
,273.750=0.040
,278.000=0.080
,278.333=0.080
,278.667=0.080
,279.000=0.080
,279.333=0.080
,279.667=0.160
,280.333=0.080
,280.667=0.160
,281.333=0.080
,281.667=0.160
,282.333=0.080
,282.667=0.160
,283.333=0.080
,283.667=0.080
,294.000=0.040
,294.250=0.040
,294.500=0.040
,294.750=0.040
,295.000=0.040
,295.250=0.040
,295.500=0.040
,295.750=0.040
,302.000=0.080
,302.500=0.080
,303.000=0.080
,303.333=0.080
,303.667=0.080
,310.000=0.040
,310.250=0.040
,310.500=0.040
,310.750=0.040
,311.500=0.040
,311.750=0.040
,317.000=0.040
,317.167=0.040
,317.333=0.040
,317.500=0.040
,317.667=0.040
,317.833=0.040
,325.000=0.120
,326.000=0.100
,327.875=0.422
,334.000=0.040
,334.250=0.040
,334.500=0.040
,334.750=0.080
,335.250=0.040
,335.500=0.040
,335.750=0.040
,345.000=0.040
,345.250=0.040
,345.500=0.040
,345.750=0.040
,350.000=0.080
,350.333=0.080
,350.667=0.080
,351.000=0.080
,351.333=0.080
,351.667=0.160
,352.333=0.080
,352.667=0.160
,353.333=0.080
,353.667=0.160
,354.333=0.080
,354.667=0.160
,355.333=0.080
,355.667=0.080
,358.000=0.080
,358.500=0.080
,359.000=0.040
,359.250=0.040
,359.500=0.040
,359.750=0.040
,375.000=0.040
,375.167=0.040
,375.333=0.040
,375.500=0.040
,375.667=0.040
,375.833=0.040
,390.500=0.010
,390.583=0.014
,390.667=0.018
,390.750=0.022
,390.833=0.026
,390.917=0.030
,391.000=0.480
,422.000=0.040
,422.250=0.040
,422.500=0.040
,422.667=0.040
,422.833=0.040
,423.000=0.040
,423.250=0.040
,423.500=0.040
,423.750=0.040
,430.000=0.040
,430.250=0.040
,430.500=0.040
,430.750=0.080
,431.250=0.040
,431.500=0.040
,431.750=0.040
,441.000=0.040
,441.250=0.040
,441.500=0.040
,441.750=0.040
,446.000=0.080
,446.333=0.080
,446.667=0.080
,447.000=0.080
,447.333=0.080
,447.667=0.160
,448.333=0.080
,448.667=0.160
,449.333=0.080
,449.667=0.080
;
#BGCHANGES:;
#KEYSOUNDS:;

//---------------dance-single - Telperion----------------
#NOTES:
     dance-single:
     Telperion:
     Challenge:
     10:
     1.000,1.000,0.438,0.875,1.000:
M000
0000
0000
M000
0000
0000
M000
0000
,
0000
M000
0000
0000
M000
0000
000M
0000
,
00M0
0000
0000
00M0
0000
0000
00M0
0000
,
0000
0000
00M0
0000
0000
0000
0000
0000
00M0
0000
0000
0000
M00M
M00M
M00M
M00M
,
M00M
0000
0000
0000
0000
0000
0000
0000
00M0
0M00
000M
M000
00M0
0000
0000
0000
00M0
0M00
000M
0M00
00M0
M000
0000
00M0
0M00
0000
0000
0000
0000
0000
0000
0000
,
000M
0000
000M
0000
000M
0000
000M
0000
M000
0M00
00M0
000M
M000
0M00
00M0
000M
M000
0000
0M00
0000
00M0
0000
000M
0000
M000
0000
0M00
0000
00M0
0000
000M
0000
,
M000
0000
0M00
0000
00M0
0000
000M
0000
1000
0100
1000
0100
1000
0001
0000
0010
,
0001
0100
0001
0100
0010
1000
0000
0010
0100
0000
0000
0000
0000
0000
0000
0000
,
0000
0000
00M0
0000
000M
0000
0000
0000
1000
0100
1000
0100
1000
0001
0000
0010
,
0001
0100
0001
0100
0010
1000
0000
0010
0100
0000
0000
0000
0000
0000
0000
0000
,
0000
0000
00M0
0000
0000
0000
0000
0000
1000
0100
1000
0100
1000
0001
0000
0010
,
0001
0100
0001
0100
0010
1000
0000
0010
0100
0000
0000
0000
0000
0000
0000
0000
,
0000
0000
00M0
0000
0000
0000
0000
0000
1000
0100
1000
0100
1000
0001
0000
0010
,
0001
0100
0001
0100
0010
1000
0000
0010
0100
0000
0000
0000
0000
0000
0000
0000
,
0000
00M0
0000
0000
0M00
0000
0000
0M00
,
0000
0000
0M00
0000
0000
0M00
0000
0000
,
0M00
0000
0000
0000
0M00
0000
0000
0000
1000
0100
1000
0100
1000
0001
0000
0010
,
0001
0100
0001
0100
0010
1000
0000
0010
0100
0000
0000
0000
0000
0000
0000
0000
,
0000
0000
00M0
0000
0000
0000
0000
0000
1000
0100
1000
0100
1000
0001
0000
0010
,
0001
0100
0001
0100
0010
1000
0000
0010
0100
0000
0000
0000
0000
0000
0000
0000
,
0000
0000
00M0
0000
0000
0000
0000
0000
1000
0100
1000
0100
1000
0001
0000
0010
,
0001
0100
0001
0100
0010
1000
0000
0010
0100
0000
0000
0000
0000
0000
0000
0000
,
0000
0000
0000
000M
0M00
0000
0000
0M00
,
0000
0000
0M00
0000
0000
0M00
0000
0000
,
0M00
0000
0000
0000
0M00
0000
0000
0000
1000
0100
1000
0100
1000
0001
0000
0010
,
0001
0100
0001
0100
0010
1000
0000
0010
0100
0000
0000
0000
0000
0000
0000
0000
,
0000
0000
0000
0000
0000
0000
0000
0000
1000
0100
1000
0100
1000
0001
0000
0010
,
0001
0100
0001
0100
0010
1000
0000
0010
0100
0000
0000
0000
0000
0000
0000
0000
,
0000
0000
0000
000M
0M00
0000
0000
0M00
,
0000
0000
0M00
0000
0000
0M00
0000
0000
,
0M00
0000
0000
0000
0000
0000
0000
0000
1000
0100
1000
0100
1000
0001
0000
0010
,
0001
0100
0001
0100
0010
1000
0000
0010
0100
0000
0000
0000
0000
0000
0000
0000
,
0000
0000
0000
0000
0000
0000
0000
0000
1000
0100
1000
0100
1000
0001
0000
0010
,
0001
0100
0001
0100
0010
1000
0000
0010
0100
0000
0000
0000
0000
0000
0000
0000
,
0000
0000
0000
000M
0M00
0000
0000
0M00
,
0000
0000
0M00
0000
0000
0M00
0000
0000
,
0M00
0000
0000
000M
0M00
0000
0000
0M00
,
0000
0000
0M00
0000
0000
0M00
0000
0000
,
0000
0000
0000
0000
00M0
0000
000M
0000
1000
0100
1000
0100
1000
0001
0000
0010
,
0001
0100
0001
0100
0010
1000
0000
0010
0100
0000
0000
0000
0000
0000
0000
0000
,
0000
0000
00M0
000M
0M00
0000
0000
0M00
,
0000
0000
0M00
0000
0000
0M00
0000
0000
,
0000
0000
00M0
000M
0M00
0000
0000
0M00
,
0000
0000
0M00
0000
0000
0M00
0000
0000
,
0000
0000
00M0
000M
0M00
0000
0000
0M00
,
0000
0000
0M00
0000
0000
0M00
0000
0000
,
0000
0000
0000
0000
00M0
0000
000M
0000
1000
0100
1000
0100
1000
0001
0000
0010
,
0001
0100
0001
0100
0010
1000
0000
0010
0100
0000
0000
0000
0000
0000
0000
0000
,
0000
0000
00M0
000M
0M00
0000
0000
0M00
,
0000
0000
0M00
0000
0000
0M00
0000
0000
,
0000
0000
00M0
000M
0M00
0000
0000
0M00
,
0000
0000
0M00
0000
0000
0M00
0000
0000
,
0000
0000
00M0
000M
0M00
0000
0000
0M00
,
0000
0000
0M00
0000
0000
0M00
0000
0000
,
0M00
0000
0000
0M00
0000
0000
0M00
0000
,
0000
0M00
0000
0000
0M00
0000
0M00
0000
,
1000
0100
1000
0100
1000
0001
0000
0010
0001
0100
0001
0100
0010
1000
0000
0010
,
0100
0000
0000
0001
0000
0000
0010
0000
0000
0001
0000
0000
0000
0000
0000
0001
0000
0000
0010
0000
0000
0100
0000
0000
0000
0000
0000
0000
1000
0000
0100
0000
1000
0000
0001
0000
0000
0000
0000
0000
0001
0000
0100
0000
0001
0000
1000
0000
,
0000
0100
0010
0100
1000
0100
0000
0010
0001
1000
0010
1000
0001
0100
0000
0010
,
1000
0000
0000
0100
0000
0000
0010
0000
0000
0100
0000
0000
0000
0000
0000
0100
0000
0000
1000
0000
0000
0001
0000
0000
0000
0000
0000
0000
0001
0000
0100
0000
0001
0000
1000
0000
0000
0000
0000
0000
1000
0000
0100
0000
0010
0000
0001
0000
,
0000
0010
0100
0010
0100
1000
0001
0000
0101
0100
0001
0100
0010
1000
0000
1000
,
0001
0000
0000
0010
0000
0000
0100
0000
0000
0010
0000
0000
0000
0000
0000
0010
0000
0000
0001
0000
0000
1000
0000
0000
0000
0000
0000
0000
0001
0000
0010
0000
0100
0000
0010
0000
0000
0000
0000
0000
0001
0000
1000
0000
0010
0000
0100
0000
,
0000
0010
1000
0010
0100
0001
0010
0000
0110
0000
0001
1000
0010
0100
0000
0001
,
1000
0000
0000
0000
0000
0100
0000
0000
0100
0000
0000
0100
0000
0000
0000
0000
0000
0000
0000
0000
0000
0000
0000
0000
0110
0000
0000
0000
0000
0000
0000
0000
0000
0000
0000
0000
0000
0000
0000
0000
0000
0000
0000
0000
0000
0000
0000
0000
,
2001
0000
0000
0000
0010
0000
0000
3000
0102
0000
0000
0000
0010
0000
0000
0003
,
1200
0000
0000
0000
0001
0000
0000
0300
0M00
0010
0001
0010
0000
0100
1000
0010
,
0200
0000
0000
0000
0010
0000
0000
0300
0012
0000
0000
0000
0010
0000
0000
0003
,
2010
0000
0000
0000
0000
0000
0000
0000
0000
0000
0000
0000
0001
0000
0000
0000
0000
0000
0000
0000
0000
3000
0000
0000
0100
0000
0000
0000
0010
0000
0100
0000
0000
0000
1000
0000
0010
0000
0000
0000
1000
0000
0100
0000
0000
0000
0010
0000
,
0002
0000
0000
0000
0000
0000
0000
0000
0000
0000
0000
0000
0000
0000
0000
0000
0000
0000
0000
0000
0000
0000
0000
0003
0002
0000
0000
0000
0000
0000
0000
0000
0000
0000
0000
0000
0000
0000
0000
0000
0000
0000
0000
0000
0000
0000
0000
0003
0001
0000
0000
0000
0000
0000
0000
0000
0000
0000
0000
0000
0010
0000
0000
0000
0000
0000
0000
0000
0000
0000
0000
0000
0100
0000
0000
0000
0000
0000
0000
0000
0000
0000
0000
0000
1000
0000
0000
0000
0000
0000
0000
0000
0000
0000
0000
0000
0020
0000
0000
0000
0000
0000
0000
0000
0000
0000
0000
0000
0000
0000
0000
0000
0000
0000
0000
0000
0000
0000
0000
0030
0020
0000
0000
0000
0000
0000
0000
0000
0000
0000
0000
0000
0000
0000
0000
0000
0000
0000
0000
0000
0000
0000
0000
0030
0200
0000
0000
0000
0000
0000
0000
0000
0000
0000
0000
0000
0000
0000
0000
0000
0000
0000
0000
0000
0000
0000
0000
0300
0200
0000
0000
0000
0000
0000
0000
0000
0000
0000
0000
0000
0000
0000
0000
0000
0000
0000
0000
0000
0000
0000
0000
0300
,
0002
0000
0000
0000
0000
0000
0000
0000
0000
0000
0000
0000
0000
0000
0000
0000
0000
0000
0000
0000
0000
0000
0000
0003
0002
0000
0000
0000
0000
0000
0000
0000
0000
0000
0000
0000
0000
0000
0000
0000
0000
0000
0000
0000
0000
0000
0000
0003
0010
0000
0000
0000
0000
0000
0000
0000
0000
0000
0000
0000
0000
0000
0000
0000
0001
0000
0000
0000
0000
0000
0000
0000
0010
0000
0000
0000
0000
0000
0000
0000
0000
0000
0000
0000
0000
0000
0000
0000
0100
0000
0000
0000
0000
0000
0000
0000
1000
0000
0000
0000
0000
0000
0000
0000
0000
0000
0000
0000
0000
0000
0000
0000
0010
0000
0000
0000
0000
0000
0000
0000
0000
0000
0000
0000
0000
0000
0000
0000
0010
0000
0000
0000
0000
0000
0000
0000
0000
0000
0000
0000
0000
0000
0000
0000
0001
0000
0000
0000
0000
0000
0000
0000
0000
0000
0000
0000
0000
0000
0000
0000
0010
0000
0000
0000
0000
0000
0000
0000
0000
0000
0000
0000
0000
0000
0000
0000
0010
0000
0000
0000
0000
0000
0000
0000
0000
0000
0000
0000
0000
0000
0000
0000
,
0000
1000
0100
0000
0010
0001
0000
0100
1000
0000
0100
1000
,
0002
0000
0000
0000
0000
0000
0000
0000
0000
0000
0000
0000
0000
0000
0000
0000
0000
0000
0000
0000
0000
0000
0000
0000
0000
0000
0000
0000
0000
0000
0000
0000
0000
0000
0000
0000
0000
0000
0000
0000
0000
0000
0000
0000
0000
0000
0000
0000
0013
0000
0000
0000
0000
0000
0000
0000
0000
0000
0000
0000
0000
0000
0000
0000
0000
0000
1000
0000
0000
0000
0000
0000
0000
0000
0000
0000
0000
0000
0000
0000
0000
0000
0000
0000
0100
0000
0000
0000
0000
0000
0000
0000
0000
0000
0000
0000
0000
0000
0000
0000
0000
0000
0000
0000
0010
0000
0000
0000
0000
0000
0000
0000
0000
0000
0000
0000
0000
0000
0000
0000
0000
0000
0000
0000
0000
0000
0000
0000
0100
0000
0000
0000
0000
0000
0000
0000
0000
0000
0000
0000
0000
0000
0000
0000
0000
0000
0000
0000
0000
0000
1000
0000
0000
0000
0000
0000
0000
0000
0000
0000
0000
0000
0000
0000
0000
0000
0000
0000
0000
0000
0000
0000
0000
0000
0000
0000
0000
0000
0000
0000
0000
0000
0000
0000
0000
0000
0000
0000
0000
0000
0000
0000
,
0001
0000
0000
0000
0000
0000
0001
0000
0000
0000
0000
0000
0100
0000
0000
0000
0000
0000
0010
0000
1000
0000
0010
0000
0100
0000
0000
0000
0000
0000
0100
0000
0000
0000
0000
0000
0010
0000
0000
0000
0000
0000
1000
0000
0000
0001
0000
0000
,
0010
0000
0000
0000
0000
0000
0000
0000
0000
0000
0000
0000
0000
0000
0000
0000
0000
0000
0000
0000
0000
0000
0000
0000
2000
0000
0000
0000
0000
0000
0000
0000
0000
0000
0000
0000
0000
0000
0000
0000
0000
0000
0000
0000
0000
0000
0000
3000
1010
0000
0000
0000
0000
0000
0000
0000
0000
0000
0000
0000
0000
0000
0000
0000
0000
0000
0000
0000
0000
0000
0000
0000
0000
0000
0000
0000
0000
0000
0000
0000
0000
0000
0000
0000
0000
0000
0000
0000
0000
0000
0000
0000
0000
0000
0000
0000
0001
0000
0000
0000
0000
0000
0000
0000
0000
0000
0000
0000
1000
0000
0000
0000
0000
0000
0000
0000
0000
0000
0000
0000
0010
0000
0000
0000
0000
0000
0000
0000
0000
0000
0000
0000
1000
0000
0000
0000
0000
0000
0000
0000
0000
0000
0000
0000
0001
0000
0000
0000
0000
0000
0000
0000
0000
0000
0000
0000
0010
0000
0000
0000
0000
0000
0000
0000
0000
0000
0000
0000
0100
0000
0000
0000
0000
0000
0000
0000
0000
0000
0000
0000
1000
0000
0000
0000
0000
0000
0000
0000
0000
0000
0000
0000
,
0000
0000
0000
0000
0000
0010
0000
0000
0010
0000
0000
0000
0000
0000
0000
0000
0000
0100
0000
0000
0100
0000
0000
0000
0001
0000
0000
0000
0000
0000
1000
0000
0000
0000
0000
0000
0001
0000
0000
0000
0000
0000
0200
0000
0000
0000
0000
0000
,
0000
0000
0000
0310
0000
0000
0002
0000
0000
0000
0000
0000
0013
0000
0000
1000
0000
0000
0100
0000
0010
0000
0001
0000
,
1000
0000
0010
0000
1000
0000
0010
0000
2000
0000
0000
0000
0010
0000
0000
0000
3001
0000
0000
0000
0000
0000
0000
0000
0010
0000
0000
0000
0001
0010
0001
0010
,
0001
0000
2000
0000
0010
0000
3000
0000
1100
1000
0100
0010
2000
0000
3010
0001
,
0100
0000
0100
0000
0020
0000
0000
0000
0130
0010
0100
0000
0001
0000
0100
0000
,
0001
0000
0000
1000
0000
0000
0100
1000
0100
0010
0001
0100
0010
0000
0000
0000
0000
0000
0000
0000
0000
0000
0000
0000
,
1000
0010
1000
0010
0100
0010
0100
0010
0001
0010
1000
0100
0010
0100
1000
0001
,
0010
0000
0000
0100
0000
0000
1000
0000
0000
0001
0000
0000
0000
0000
0000
0001
0000
0000
1000
0000
0000
0001
0000
0000
0000
0000
0010
0000
0001
0000
0010
0000
0100
0000
1000
0000
0010
0000
0000
0000
0000
0000
0000
0000
0000
0000
0000
0000
,
0012
0000
0000
0003
2100
0000
0010
3000
0102
0000
0000
0003
1020
0000
0100
0030
,
0021
0000
0000
0000
0000
0000
0000
0000
0000
0000
0000
0000
0000
0000
0000
0000
0000
0000
0000
0000
0000
0000
0000
0000
0000
0000
0000
0000
0000
0000
0000
0000
0000
0000
0000
0000
0000
0000
0000
0000
0000
0000
0000
0000
0000
0000
0000
0030
1020
0000
0000
0000
0000
0000
0000
0000
0000
0000
0000
0000
0000
0000
0000
0000
0000
0000
0000
0000
0000
0000
0000
0000
0000
0000
0000
0000
0000
0000
0000
0000
0000
0000
0000
0000
0030
0000
0000
0000
0000
0000
0000
0000
0000
0000
0000
0000
00M0
0000
0000
0000
0000
0000
0000
0000
0000
0000
0000
0000
0001
0000
0000
0000
0000
0000
0000
0000
0000
0000
0000
0000
0100
0000
0000
0000
0000
0000
0000
0000
0000
0000
0000
0000
0001
0000
0000
0000
0000
0000
0000
0000
0000
0000
0000
0000
0000
0000
0000
0000
0000
0000
0000
0000
0000
0000
0000
0000
1000
0000
0000
0000
0000
0000
0000
0000
0000
0000
0000
0000
0100
0000
0000
0000
0000
0000
0000
0000
0000
0000
0000
0000
1000
0000
0000
0000
0000
0000
0000
0000
0000
0000
0000
0000
,
0020
0000
0000
0000
0000
0000
0000
0000
0000
0000
0000
0000
0000
0000
0000
0000
0000
0000
0000
0000
0000
0000
0000
0000
0000
0000
0000
0000
0000
0000
0000
0000
0000
0000
0000
0000
0030
0000
0000
0000
0000
0000
0000
0000
0000
0000
0000
0000
0102
0000
0000
0000
0000
0000
0000
0000
0000
0000
0000
0000
0000
0000
0000
0000
0000
0000
0000
0000
0000
0000
0000
0000
1000
0000
0000
0000
0000
0000
0000
0000
0000
0000
0000
0000
0003
0000
0000
0000
0000
0000
0000
0000
0000
0000
0000
0000
2010
0000
0000
0000
0000
0000
0000
0000
0000
0000
0000
0000
0000
0000
0000
0000
0000
0000
0000
0000
0000
0000
0000
0000
0000
0000
0000
0000
0000
0000
0000
0000
0000
0000
0000
0000
0000
0000
0000
0000
0000
0000
0000
0000
0000
0000
0000
3000
2100
0000
0000
0000
0000
0000
0000
0000
0000
0000
0000
0000
0000
0000
0000
0000
0000
0000
0000
0000
0000
0000
0000
0000
0001
0000
0000
0000
0000
0000
0000
0000
0000
0000
0000
0000
3000
0000
0000
0000
0000
0000
0000
0000
0000
0000
0000
0000
,
0202
0000
0000
0000
0000
0000
0000
0000
0000
0000
0000
0000
0000
0000
0000
0000
0000
0000
0000
0000
0000
0000
0000
0000
0003
0000
0000
0000
0000
0000
0000
0000
0000
0000
0000
0000
0000
0000
0000
0000
0000
0000
0000
0000
0000
0000
0000
0300
2200
0000
0000
0000
0000
0000
0000
0000
0000
0000
0000
0000
0000
0000
0000
0000
0000
0000
0000
0000
0000
0000
0000
0000
3000
0000
0000
0000
0000
0000
0000
0000
0000
0000
0000
0000
0000
0000
0000
0000
0000
0000
0000
0000
0000
0000
0000
0300
0010
0000
0000
0000
0000
0000
0000
0000
0000
0000
0000
0000
0000
0000
0000
0000
1000
0000
0000
0000
0000
0000
0000
0000
0001
0000
0000
0000
0000
0000
0000
0000
0000
0000
0000
0000
0000
0000
0000
0000
0010
0000
0000
0000
0000
0000
0000
0000
0100
0000
0000
0000
0000
0000
0000
0000
0000
0000
0000
0000
0000
0000
0000
0000
0010
0000
0000
0000
0000
0000
0000
0000
0001
0000
0000
0000
0000
0000
0000
0000
0000
0000
0000
0000
0000
0000
0000
0000
0100
0000
0000
0000
0000
0000
0000
0000
,
0020
0000
0000
0000
0000
0000
0000
0000
0000
0000
0000
0000
0000
0000
0000
0000
0000
0000
0000
0000
0000
0000
0000
0030
0020
0000
0000
0000
0000
0000
0000
0000
0000
0000
0000
0000
0000
0000
0000
0000
0000
0000
0000
0000
0000
0000
0000
0030
1000
0000
0000
0000
0000
0000
0000
0000
0000
0000
0000
0000
0010
0000
0000
0000
0000
0000
0000
0000
0000
0000
0000
0000
0100
0000
0000
0000
0000
0000
0000
0000
0000
0000
0000
0000
0001
0000
0000
0000
0000
0000
0000
0000
0000
0000
0000
0000
0020
0000
0000
0000
0000
0000
0000
0000
0000
0000
0000
0000
0000
0000
0000
0000
0000
0000
0000
0000
0000
0000
0000
0030
0020
0000
0000
0000
0000
0000
0000
0000
0000
0000
0000
0000
0000
0000
0000
0000
0000
0000
0000
0000
0000
0000
0000
0030
0200
0000
0000
0000
0000
0000
0000
0000
0000
0000
0000
0000
0000
0000
0000
0000
0000
0000
0000
0000
0000
0000
0000
0300
0200
0000
0000
0000
0000
0000
0000
0000
0000
0000
0000
0000
0000
0000
0000
0000
0000
0000
0000
0000
0000
0000
0000
0300
,
2000
0000
0000
0000
0000
0000
0000
0000
0000
0000
0000
0000
0000
0000
0000
0000
0000
0000
0000
0000
0000
0000
0000
3000
2000
0000
0000
0000
0000
0000
0000
0000
0000
0000
0000
0000
0000
0000
0000
0000
0000
0000
0000
0000
0000
0000
0000
3000
0001
0000
0000
0000
0000
0000
0000
0000
0000
0000
0000
0000
0000
0000
0000
0000
0100
0000
0000
0000
0000
0000
0000
0000
0010
0000
0000
0000
0000
0000
0000
0000
0000
0000
0000
0000
0000
0000
0000
0000
1000
0000
0000
0000
0000
0000
0000
0000
0000
0000
0000
0000
0000
0000
0000
0000
0000
0000
0000
0000
0000
0000
0000
0000
0010
0000
0000
0000
0000
0000
0000
0000
0000
0000
0000
0000
0000
0000
0000
0000
0010
0000
0000
0000
0000
0000
0000
0000
0000
0000
0000
0000
0000
0000
0000
0000
0000
0000
0000
0000
0000
0000
0000
0000
0000
0000
0000
0000
0000
0000
0000
0000
0100
0000
0000
0000
0000
0000
0000
0000
0000
0000
0000
0000
0000
0000
0000
0000
0100
0000
0000
0000
0000
0000
0000
0000
0000
0000
0000
0000
0000
0000
0000
0000
,
0000
0001
0010
0000
0100
1000
0000
0010
0001
0000
0010
0001
,
2000
0000
0000
0000
3110
0000
0000
0000
1001
0000
0110
0000
1001
0001
0010
0001
,
0200
0000
0000
0320
,
2030
0000
0000
0000
0000
0000
0000
0001
,
0010
0000
0000
0000
0000
0000
0000
0000
0000
0000
0000
0000
0000
0000
0000
0000
0000
0000
0000
0000
0000
0000
0000
0000
3200
0000
0000
0000
0000
0000
0000
0000
0000
0000
0000
0000
0000
0000
0000
0000
0000
0000
0000
0000
0000
0000
0000
0000
0000
0000
0000
0000
0000
0000
0000
0000
0000
0000
0000
0000
0000
0000
0000
0000
0000
0000
0000
0000
0000
0000
0000
0000
0020
0000
0000
0000
0000
0000
0000
0000
0000
0000
0000
0000
0000
0000
0000
0000
0000
0000
0000
0000
0000
0000
0000
0000
0000
0000
0000
0000
0000
0000
0000
0000
0000
0000
0000
0000
0000
0000
0000
0000
0000
0000
0000
0000
0000
0000
0000
0300
0200
0000
0000
0000
0000
0000
0000
0000
0000
0000
0000
0000
0000
0000
0000
0000
0000
0000
0000
0000
0000
0000
0000
0000
2030
0000
0000
0000
0000
0000
0000
0000
0000
0000
0000
0000
0000
0000
0000
0000
0000
0000
0000
0000
0000
0000
0000
0000
0320
0000
0000
0000
0000
0000
0000
0000
0000
0000
0000
0000
0000
0000
0000
0000
0000
0000
0000
0000
0000
0000
0000
0000
,
3000
0000
0000
0000
,
0230
0000
0000
0000
0000
0000
0000
0000
0000
0000
0000
0000
0000
0000
0000
0000
0000
0000
0000
0000
0000
0000
0000
0000
0000
0000
0000
0000
0000
0000
0000
0000
0000
0000
0000
0000
0000
0000
0000
0000
0000
0000
0000
0000
0000
0000
0000
0000
0002
0000
0000
0000
0000
0000
0000
0000
0000
0000
0000
0000
0000
0000
0000
0000
0000
0000
0000
0000
0000
0000
0000
0000
0000
0000
0000
0000
0000
0000
0000
0000
0000
0000
0000
0000
0000
0000
0000
0000
0000
0000
0000
0000
0000
0000
0000
0000
2300
0000
0000
0000
0000
0000
0000
0000
0000
0000
0000
0000
0000
0000
0000
0000
0000
0000
0000
0000
0000
0000
0000
0003
0002
0000
0000
0000
0000
0000
0000
0000
0000
0000
0000
0000
0000
0000
0000
0000
0000
0000
0000
0000
0000
0000
0000
3000
2000
0000
0000
0000
0000
0000
0000
0000
0000
0000
0000
0000
0000
0000
0000
0000
0000
0000
0000
0000
0000
0000
0000
0000
0203
0000
0000
0000
0000
0000
0000
0000
0000
0000
0000
0000
0000
0000
0000
0000
0000
0000
0000
0000
0000
0000
0000
0000
,
3020
0000
0000
0000
0000
0000
0000
0000
0000
0000
0000
0000
0000
0000
0000
0000
0000
0000
0000
0000
0000
0000
0000
0000
0000
0000
0000
0000
0000
0000
0000
0000
0000
0000
0000
0300
0200
0000
0000
0000
0000
0000
0000
0000
0000
0000
0000
0000
0000
0000
0000
0000
0000
0000
0000
0000
0000
0000
0000
0000
0000
0000
0000
0000
0000
0000
0000
0000
0000
0000
0000
0000
2030
0000
0000
0000
0000
0000
0000
0000
0000
0000
0000
0000
0000
0000
0000
0000
0000
0000
0000
0000
0000
0000
0000
0000
0302
0000
0000
0000
0000
0000
0000
0000
0000
0000
0000
0000
0000
0000
0000
0000
0000
0000
0000
0000
0000
0000
0000
3000
2000
0000
0000
0000
0000
0000
0000
0000
0000
0000
0000
0000
0000
0000
0000
0000
0000
0000
0000
0000
0000
0000
0000
0000
0000
0000
0000
0000
0000
0000
0000
0000
0000
0000
0000
0000
0000
0000
0000
0000
0000
0000
0000
0000
0000
0000
0000
0000
0000
0000
0000
0000
0000
0000
0000
0000
0000
0000
0000
0000
0000
0000
0000
0000
0000
0000
0000
0000
0000
0000
0000
0000
,
0023
0000
0000
0000
,
3000
0000
0000
0030
,
0210
1000
0301
0011
,
0210
0000
0001
0000
1300
0000
1010
0010
,
0100
1000
0001
0100
0000
0001
0010
2000
,
0001
3010
1002
0013
,
0120
0000
1030
0010
0001
0100
1000
0010
,
1000
0000
0000
0100
0000
0000
0001
0000
1000
0000
0002
0000
0000
0000
0000
0000
,
0013
2010
3010
0012
,
0103
0000
0000
0000
0000
0000
0000
0000
0000
1000
0000
0000
0000
0000
0000
0000
0000
0000
0100
0000
0000
0000
0000
0000
0010
0000
0000
0100
0000
0000
0010
0000
1000
0000
0001
0000
0010
0000
0000
0100
0000
0000
0010
0000
0000
0010
0000
0000
,
2001
0000
0000
0000
0000
0000
0000
0000
0000
0000
0000
0000
0000
0000
0000
0000
0000
0000
0000
0000
0000
0000
0000
0000
0000
0000
0000
0000
0000
0000
0000
0000
0000
0000
0000
0000
0000
0000
0000
0000
0000
0000
0000
0000
0000
0000
0000
3000
1010
0000
0000
0000
0000
0000
0000
0000
0000
0000
0000
0000
0000
0000
0000
0000
0000
0000
0000
0000
0000
0000
0000
0000
0100
0000
0000
0000
0000
0000
0000
0000
0000
0000
0000
0000
0000
0000
0000
0000
0000
0000
0000
0000
0000
0000
0000
0000
0102
0000
0000
0000
0000
0000
0000
0000
0000
0000
0000
0000
0000
0000
0000
0000
0000
0000
0000
0000
0000
0000
0000
0000
0000
0000
0000
0000
0000
0000
0000
0000
0000
0000
0000
0000
0000
0000
0000
0000
0000
0000
0000
0000
0000
0000
0000
0003
1001
0000
0000
0000
0000
0000
0000
0000
0000
0000
0000
0000
0000
0000
0000
0000
0000
0000
0000
0000
0000
0000
0000
0000
0010
0000
0000
0000
0000
0000
0000
0000
0000
0000
0000
0000
0000
0000
0000
0000
0000
0000
0000
0000
0000
0000
0000
0000
,
1010
0000
0000
0000
1002
0000
0010
0003
000M
1000
0010
1000
0000
0001
0010
0100
,
0210
0000
0000
0000
0000
0000
0000
0000
0000
0000
0000
0000
0000
0000
0000
0000
0000
0000
0000
0000
0000
0000
0000
0000
0000
0000
0000
0000
0000
0000
0000
0000
0000
0000
0000
0000
0000
0000
0000
0000
0000
0000
0000
0000
0000
0000
0000
0300
1100
0000
0000
0000
0000
0000
0000
0000
0000
0000
0000
0000
0000
0000
0000
0000
0000
0000
0000
0000
0000
0000
0000
0000
0100
0000
0000
0000
0000
0000
0000
0000
0000
0000
0000
0000
0000
0000
0000
0000
0000
0000
0000
0000
0000
0000
0000
0000
0201
0000
0000
0000
0000
0000
0000
0000
0000
0000
0000
0000
0000
0000
0000
0000
0000
0000
0000
0000
0000
0000
0000
0000
0000
0000
0000
0000
0000
0000
0000
0000
0000
0000
0000
0000
0000
0000
0000
0000
0000
0000
0000
0000
0000
0000
0000
0000
1302
0000
0000
0000
0000
0000
0000
0000
0000
0000
0000
0000
0000
0000
0000
0000
0000
0000
0000
0000
0000
0000
0000
0000
0203
0000
0000
0000
0000
0000
0000
0000
0000
0000
0000
0000
0000
0000
0000
0000
0000
0000
0000
0000
0000
0000
0000
0300
,
1200
0000
0000
0000
0000
0000
0000
0000
0000
0000
0000
0000
0000
0000
0000
0000
0000
0000
0000
0000
0000
0000
0000
0000
0000
0000
0000
0000
0000
0000
0000
0000
0000
0000
0000
0000
0000
0000
0000
0000
0000
0000
0000
0000
0000
0000
0000
0300
0210
0000
0000
0000
0000
0000
0000
0000
0000
0000
0000
0000
0000
0000
0000
0000
0000
0000
0000
0000
0000
0000
0000
0000
0000
0000
0000
0000
0000
0000
0000
0000
0000
0000
0000
0000
0000
0000
0000
0000
0000
0000
0000
0000
0000
0000
0000
0300
0101
0000
0000
0000
0000
0000
0000
0000
0000
0000
0000
0000
0000
0000
0000
0000
0001
0000
0000
0000
0000
0000
0000
0000
0100
0000
0000
0000
0000
0000
0000
0000
0000
0000
0000
0000
0000
0000
0000
0000
0010
0000
0000
0000
0000
0000
0000
0000
1000
0000
0000
0000
0000
0000
0000
0000
0000
0000
0000
0000
0000
0000
0000
0000
0100
0000
0000
0000
0000
0000
0000
0000
0010
0000
0000
0000
0000
0000
0000
0000
0000
0000
0000
0000
0000
0000
0000
0000
0001
0000
0000
0000
0000
0000
0000
0000
,
0200
0000
0000
0000
0000
0000
0000
0000
0000
0000
0000
0000
0000
0000
0000
0000
0000
0000
0000
0000
0000
0000
0000
0300
0200
0000
0000
0000
0000
0000
0000
0000
0000
0000
0000
0000
0000
0000
0000
0000
0000
0000
0000
0000
0000
0000
0000
0300
0010
0000
0000
0000
0000
0000
0000
0000
0000
0000
0000
0000
1000
0000
0000
0000
0000
0000
0000
0000
0000
0000
0000
0000
0010
0000
0000
0000
0000
0000
0000
0000
0000
0000
0000
0000
0100
0000
0000
0000
0000
0000
0000
0000
0000
0000
0000
0000
2000
0000
0000
0000
0000
0000
0000
0000
0000
0000
0000
0000
0000
0000
0000
0000
0000
0000
0000
0000
0000
0000
0000
3000
2000
0000
0000
0000
0000
0000
0000
0000
0000
0000
0000
0000
0000
0000
0000
0000
0000
0000
0000
0000
0000
0000
0000
3000
0200
0000
0000
0000
0000
0000
0000
0000
0000
0000
0000
0000
0000
0000
0000
0000
0000
0000
0000
0000
0000
0000
0000
0300
0200
0000
0000
0000
0000
0000
0000
0000
0000
0000
0000
0000
0000
0000
0000
0000
0000
0000
0000
0000
0000
0000
0000
0300
,
0002
0000
0000
0000
0000
0000
0000
0000
0000
0000
0000
0000
0000
0000
0000
0000
0000
0000
0000
0000
0000
0000
0000
0003
0002
0000
0000
0000
0000
0000
0000
0000
0000
0000
0000
0000
0000
0000
0000
0000
0000
0000
0000
0000
0000
0000
0000
0003
0010
0000
0000
0000
0000
0000
0000
0000
0000
0000
0000
0000
0000
0000
0000
0000
0001
0000
0000
0000
0000
0000
0000
0000
1000
0000
0000
0000
0000
0000
0000
0000
0000
0000
0000
0000
0000
0000
0000
0000
0001
0000
0000
0000
0000
0000
0000
0000
0000
0000
0000
0000
0000
0000
0000
0000
0000
0000
0000
0000
0000
0000
0000
0000
0100
0000
0000
0000
0000
0000
0000
0000
0000
0000
0000
0000
0000
0000
0000
0000
0100
0000
0000
0000
0000
0000
0000
0000
0000
0000
0000
0000
0000
0000
0000
0000
0000
0000
0000
0000
0000
0000
0000
0000
0000
0000
0000
0000
0000
0000
0000
0000
0100
0000
0000
0000
0000
0000
0000
0000
0000
0000
0000
0000
0000
0000
0000
0000
0100
0000
0000
0000
0000
0000
0000
0000
0000
0000
0000
0000
0000
0000
0000
0000
,
0000
0000
0010
0000
0001
0000
0000
0000
1000
0000
0100
0000
0004
0000
0000
0043
0000
0000
0430
0000
0000
4300
0000
0000
,
3020
0000
0000
0000
0000
0000
0000
0000
0000
0000
0000
0000
0000
0000
0000
0000
0000
0000
0000
0000
0000
0000
0000
0000
0000
0000
0000
0000
0000
0000
0000
0000
0000
0000
0000
0000
0000
0000
0000
0000
0000
0000
0000
0000
0000
0000
0000
0000
0130
0000
0000
0000
0000
0000
0000
0000
0000
0000
0000
0000
0000
0000
0000
0000
0000
0000
0001
0000
0000
0000
0000
0000
0000
0000
0000
0000
0000
0000
0000
0000
0000
0000
0000
0000
0100
0000
0000
0000
0000
0000
0000
0000
0000
0000
0000
0000
0000
0000
0000
0000
0000
0000
0000
0000
0010
0000
0000
0000
0000
0000
0000
0000
0000
0000
0000
0000
0000
0000
0000
0000
0000
0000
0000
0000
0000
0000
0000
0000
0100
0000
0000
0000
0000
0000
0000
0000
0000
0000
0000
0000
0000
0000
0000
0000
0000
0000
0000
0000
0000
0000
2000
0000
0000
0000
0000
0000
0000
0000
0000
0000
0000
0000
0000
0000
0000
0000
0000
0000
0000
0000
0000
0000
0000
0000
0000
0000
0000
0000
0000
0000
0000
0000
0000
0000
0000
0000
0000
0000
0000
0000
0000
0000
,
3000
0000
0000
0000
;
