#TITLE:Self vs. Self;
#SUBTITLE:;
#ARTIST:Pendulum ft. In Flames;
#TITLETRANSLIT:;
#SUBTITLETRANSLIT:;
#ARTISTTRANSLIT:;
#GENRE:;
#CREDIT:Telperion;
#BANNER:;
#BACKGROUND:;
#LYRICSPATH:;
#CDTITLE:;
#MUSIC:Self vs. Self.ogg;
#OFFSET:-1.394;
#SAMPLESTART:23.462;
#SAMPLELENGTH:22.069;
#SELECTABLE:YES;
#DISPLAYBPM:174.000;
#BPMS:0.000=174.000;
#STOPS:;
#BGCHANGES:;
#KEYSOUNDS:;

//---------------dance-single - Telperion----------------
#NOTES:
     dance-single:
     Telperion:
     Challenge:
     12:
     0.860,1.000,0.351,0.099,0.477:
M00M
0000
M00M
0000
0000
0000
0000
M00M
,
0000
M00M
0000
0000
,
0MM0
0000
0MM0
0000
0000
0000
0000
0MM0
,
0000
0MM0
0000
0000
,
M00M
0000
M00M
0000
0000
0000
0000
M00M
,
0000
M00M
0000
0000
,
0MM0
0000
0MM0
0000
0000
0000
0000
M00M
,
M00M
0000
M00M
0000
M00M
0000
M00M
0000
M00M
M00M
M00M
M00M
M00M
M00M
M00M
0000
,
2001
0000
0000
0000
0000
0000
0000
0000
0002
0000
0000
0000
0000
0000
0000
0000
0000
0000
0000
0000
0000
0000
0000
0000
0000
0000
0000
0000
0000
0000
0000
3000
,
1000
0000
0000
0000
0000
0000
0000
0003
0001
0000
0000
0000
0000
0000
0000
0000
0000
0000
0000
0000
0001
0000
0000
0000
0000
0000
0000
0000
0200
0000
0000
0000
,
0010
0000
0000
0000
0000
0000
0000
0000
0020
0000
0000
0000
0000
0000
0000
0000
0000
0000
0000
0000
0000
0000
0000
0000
0000
0000
0000
0000
0000
0000
0000
0300
,
0100
0000
0000
0000
0000
0000
0000
0030
0010
0000
0000
0000
0000
0000
0000
0000
0010
0000
0000
0000
0100
0000
0000
0000
0010
0000
0000
0000
0110
0000
0000
0000
,
0101
0100
0010
0100
M1MM
1000
0100
0010
,
0001
0100
M1MM
1000
0100
0011
0000
0010
,
1001
0000
0001
0000
1000
0000
0010
0000
0100
0000
0001
0100
0001
0100
0001
0100
,
0001
1000
0001
1000
0100
1000
0100
1000
0001
0010
0100
1000
0001
0100
0001
1000
,
0020
0000
0000
0000
0130
0000
0001
0100
0001
0000
1000
0000
0100
0000
1000
0001
,
1000
0000
0100
0000
0010
0000
0001
0100
0001
0000
0100
0000
10MM
0000
0000
0000
,
0200
0000
0000
0000
0310
0000
1000
0010
1000
0000
0100
0000
0010
0100
0010
0000
,
0001
0000
0100
0000
0001
0000
1000
0100
1000
0000
0001
0000
1000
0100
1000
0000
,
0020
0000
0000
0000
0130
0000
0001
0100
0001
0000
0010
0000
0100
0010
0100
0000
,
1000
0100
1000
0000
0001
0000
0010
0001
0010
0000
0100
0000
M0M1
0000
0000
0000
,
0100
1000
0001
0101
0010
0100
1100
1000
,
0001
1000
0001
0100
0001
1000
0100
0000
1000
0001
0100
0010
1000
0010
1000
0001
,
0010
0000
0000
0100
0000
0000
0100
0000
0000
1000
0000
0000
0001
0000
0000
1000
0001
1000
0001
0000
0000
0100
0000
0000
,
0000
1000
0100
0001
0010
0100
1000
1100
,
0000
0000
0000
1000
0000
0000
0100
0000
0000
0010
0000
0000
0001
0000
0000
1000
0001
1000
0001
0000
0000
0100
0000
0000
,
0000
0100
0010
0100
1000
0100
0001
0011
,
0000
0000
0000
0001
0000
0000
0010
0000
0000
0100
0000
0000
1000
0000
0000
0001
1000
0001
1000
0000
0000
0100
0000
0000
,
0000
1000
0001
0001
0100
0100
0010
0100
,
0000
0000
0000
0001
0000
0000
1000
0000
0000
0010
0000
0000
1000
0000
0000
0001
1000
0001
1000
0000
0000
0100
0000
0000
,
0000
0000
0010
0000
0100
1000
0100
1000
0001
0100
0001
0100
0010
1000
0010
1000
,
0200
0000
0000
0000
0000
0000
0310
0000
0000
0001
0000
0000
0001
0000
0000
0100
0001
0100
0001
0000
0000
1000
0000
0000
,
0000
1000
0100
0010
0001
0100
1000
0100
,
0000
0000
0000
1000
0000
0000
0100
0000
0000
0001
0000
0000
1000
0000
0000
0100
1000
0100
1000
0000
0000
0001
0000
0000
,
0000
1000
0001
0010
0100
1000
0001
0010
,
0000
0000
0000
0010
0000
0000
0001
0000
0000
0100
0000
0000
0010
0000
0000
0100
0001
0100
0001
0000
0000
1000
0000
0000
,
0000
1000
0100
0001
1000
0010
0001
0100
,
0001
0100
0001
0000
1000
0001
1000
0001
0000
0001
1000
0100
0010
0001
1000
0001
,
1000
0100
1000
0100
1000
0001
1000
0001
0100
0010
1000
0001
0020
0000
0000
0000
,
0130
0010
0010
0100
0010
0001
0100
1000
,
0100
0010
0010
0100
1000
0100
0001
0100
,
0010
1000
0100
0010
1001
0000
0001
0010
,
1000
0010
0110
0000
1100
1000
0101
0001
,
1000
0001
0001
1000
0100
0001
0100
0010
,
0001
0100
0100
0001
0100
1000
0100
1000
,
0100
0001
1000
0100
1001
0000
1000
0010
,
0001
0010
0110
0001
0101
1000
1100
0000
,
0010
0100
1000
0010
0100
1000
0100
0001
,
1000
0100
0001
1000
0010
0100
1000
0001
,
0100
1000
0100
1000
0100
0001
0100
0001
,
0010
1000
0010
1000
0010
0001
0001
1000
,
1000
0000
1001
1000
0100
0001
0100
0110
,
0010
0110
1000
0001
0101
0100
0110
0000
,
1000
1100
1001
0100
0001
0010
0011
1001
,
1100
0010
0110
0010
1010
1100
0110
0011
,
1001
0000
1011
0000
,
0111
0000
1110
0000
,
1111
0000
2111
0000
,
0001
0001
3001
0001
1000
0001
1000
0001
,
1001
0000
1000
0000
0010
0000
0100
0001
0100
0000
0100
0000
0010
0000
0001
0000
,
0010
0100
1000
0100
0010
1000
0100
0010
,
0001
0010
0001
0010
1000
0010
1000
0010
,
0001
0100
0001
0100
1000
0100
0100
0010
,
1000
0000
0001
0000
0010
0000
0100
1000
0100
0000
0100
0000
0010
0000
0100
0000
,
1000
0000
0001
0000
0100
0000
0001
0100
0001
0000
0010
0000
0100
0000
0001
0000
,
1000
0010
0100
1000
0100
0010
0001
0100
,
0001
0100
0001
0100
0010
1000
0010
1000
0100
0010
0100
0000
0100
0000
0000
0000
,
1001
0000
0000
0001
0000
0000
0100
0000
0000
0010
0000
0000
1000
0000
0000
0001
1000
0001
1000
0000
0000
0100
0000
0000
,
0010
0100
1100
1000
0001
0001
0001
0100
,
1000
0000
0100
0000
1000
0000
0100
0000
0001
0000
0100
0001
0100
0000
0010
0000
,
1000
0000
0100
0000
0010
0000
0001
0000
1000
0000
0100
1000
0100
0000
1000
0000
,
1001
0000
0100
0000
1000
0000
0100
0000
0001
0000
0100
0010
0100
0000
1000
0000
,
0100
0000
0001
0000
1000
0000
0100
0000
0001
0000
0100
0010
0100
0000
1000
0000
,
0001
0000
0100
0000
1000
0000
0100
0000
0001
0000
0010
0100
0010
0000
0001
0000
,
1000
0000
0000
0001
0000
0000
1000
0000
0000
0100
0000
0000
1000
0000
0000
0001
0000
0000
0100
0000
0000
0001
0000
0000
1000
0000
0001
0000
1000
0000
0001
0000
1000
0000
0001
0000
1000
0000
0001
0000
1000
0000
0001
0000
1000
0000
0001
0000
,
1000
0000
0001
0000
1000
0000
0100
1000
0100
0000
0010
0000
0001
0000
0100
0001
,
0100
0000
0010
0000
0100
0000
0001
0010
0001
0000
0100
0000
1000
0000
0000
0000
,
0100
0000
0001
0000
0001
0000
1000
0000
0100
0000
1000
0000
0001
1000
0001
0000
,
0100
0000
0001
1000
0001
0000
0010
0000
0100
0000
0100
0000
0100
0000
0000
0000
,
0010
0000
0001
0000
0100
0000
0010
0100
0010
0000
1000
0000
0010
0000
1000
0100
,
1000
0000
0001
0000
0100
0000
0001
1000
0001
0000
1000
0000
0100
0000
0000
0000
,
1000
0001
0100
M1MM
1000
0010
MM1M
0001
,
1000
0001
1000
0000
0001
1000
0001
0000
1000
0100
1000
0000
1000
0000
0001
0000
,
0200
0000
0000
0000
0310
0000
0010
0100
0010
0000
1000
0000
0010
0100
0010
0000
,
1000
0000
0100
0000
0010
0000
0010
0001
0010
0000
0100
0000
0001
0100
0001
0000
,
0100
0000
1000
0000
0001
0000
0001
1000
0001
0000
0100
0000
0001
1000
0002
0000
,
0000
0000
1003
0100
1000
0000
0010
0000
0100
0010
0100
0010
0100
0000
0010
1000
,
0100
0000
0010
0000
0001
0000
0100
0001
0100
0000
0001
0000
0010
0000
0100
1000
,
0100
0000
0010
0000
0001
0000
1000
0001
0100
0000
0010
0000
1000
0000
0010
0000
,
1010
0100
0010
0110
0001
1000
1100
0001
,
1000
0001
1000
0001
0000
0000
0100
0001
0100
0001
0000
0000
1000
0100
1000
0100
0000
0000
0010
0000
0000
0000
0000
0000
,
1102
0000
0000
0000
,
0000
0000
0000
0000
,
0003
0000
0000
000M
0000
0000
0000
0000
000M
0000
0000
0000
0000
000M
0000
0000
,
0000
0000
000M
0000
0000
0000
0000
000M
0000
0000
0000
0000
0000
0000
0000
0000
;
