#TITLE:Sakura Sunrise;
#SUBTITLE:;
#ARTIST:Ryu☆;
#TITLETRANSLIT:;
#SUBTITLETRANSLIT:;
#ARTISTTRANSLIT:Ryu☆;
#GENRE:;
#CREDIT:Original file downloaded from Z-I-v;
#BANNER:Sakura Sunrise.png;
#BACKGROUND:Sakura Sunrise-bg.png;
#LYRICSPATH:;
#CDTITLE:./CDTITLES/DanceDanceRevolution X2.png;
#MUSIC:Sakura Sunrise.ogg;
#OFFSET:-0.088;
#SAMPLESTART:67.201;
#SAMPLELENGTH:15.000;
#SELECTABLE:YES;
#BPMS:0.000=181.000;
#STOPS:;
#BGCHANGES:-0.125=Sakura Sunrise.avi=1.000=0=0=0=StretchNoLoop====,
99999=-nosongbg-=1.000=0=0=0 // don't automatically add -songbackground-
;
#KEYSOUNDS:;

//---------------dance-single - Telperion----------------
#NOTES:
     dance-single:
     Telperion:
     Challenge:
     14:
     -1.000,-1.000,-1.000,-1.000,-1.000:
0000
0000
0000
0000
,
0000
0000
0000
0000
,
0000
0000
0000
0000
,
0000
0000
0000
0000
,
0000
0000
0000
0000
,
0000
0000
0000
0000
,
0000
0000
0000
0000
,
0000
1000
0001
1000
0000
0110
0110
0000
,
0001
1000
0100
1000
0001
0100
0010
0100
,
1000
0100
0001
0010
0100
0100
0100
0000
,
1000
0100
0010
0100
1000
0010
0100
1000
,
0100
0100
0001
0001
0010
0010
0100
0000
,
0010
0001
0100
0001
0010
1000
0100
1000
,
0010
0100
1000
0010
0100
0100
0100
0010
,
1000
1000
0100
0100
0001
0001
0100
1000
,
0000
0011
0101
0110
0000
1010
1100
0000
,
1000
0010
0100
0010
1000
0100
0001
0100
,
1010
0000
0101
0000
1010
0100
0100
0100
,
0010
0001
0100
0001
1000
0100
0010
0001
,
0011
0010
0100
0100
0001
0001
0100
1000
,
0010
0100
0010
1000
0001
0010
0100
0010
,
0101
0000
1010
0000
0000
0001
0001
0001
,
0100
1000
0100
0001
0010
0010
0100
0100
,
0000
1010
1100
0110
0000
0011
0101
0000
,
0010
0100
1000
0100
0001
0010
0001
0100
,
0010
0010
1000
0100
0010
0010
0001
0100
,
0110
0001
0010
0100
1000
0010
0100
1000
,
1100
0110
0101
0000
,
0010
0100
1000
0010
0001
0001
0010
1000
,
0001
1000
0100
1000
0010
0010
0100
0100
,
0001
0010
1000
1000
0010
0010
0001
0000
,
0000
0010
0001
1000
0000
0110
0110
0000
,
1000
0001
0010
0000
0100
0000
0000
0100
,
1000
0010
0100
0000
1000
0100
0100
0100
,
0010
1000
0100
0000
0010
0000
0000
0010
,
0001
0011
0000
0100
0000
1100
1000
1000
,
0010
0100
0001
0100
0010
0000
0000
1000
,
0100
0010
0001
0010
0100
0001
0001
0001
,
0000
0101
0000
1100
0000
1010
0010
0010
,
0000
0100
0001
1000
0000
0110
0110
0000
,
1002
0000
0000
0000
0010
0000
1003
0100
,
0011
0000
0101
0000
1010
0100
0100
0100
,
0002
0000
0000
0000
1000
0000
0013
0100
,
1100
1000
0010
0010
0100
0001
0001
0001
,
1000
0100
0010
0001
1000
0100
0010
0001
,
1000
0100
0001
0100
1000
0001
0001
0001
,
0100
0100
1000
1000
0200
0010
1000
0010
,
0300
1010
1100
0101
0000
0110
0011
0000
,
1000
0011
0101
1100
0000
0110
1010
0000
,
0002
0000
0000
0003
,
1001
0000
0110
0000
1001
0010
0010
0010
,
0001
0010
0100
1000
0001
0010
1000
0010
,
0001
0100
0001
0010
0100
0001
0001
0000
,
0100
1000
0010
0100
1000
0100
0001
0100
,
0110
0010
1000
1000
0100
0100
0001
0000
,
0100
1000
0010
0001
0100
0001
0010
0100
,
0001
0010
0100
0010
0001
1000
1000
1000
,
0000
0010
0000
0100
0000
0001
0000
1000
,
0000
1100
0110
0011
0000
0101
0110
0000
,
0010
1000
0010
0001
1000
0100
0001
0010
,
0110
0000
1001
0000
0110
1000
1000
1000
,
0010
0100
1000
0001
0010
0100
0001
0010
,
0100
0100
1000
1000
0010
0010
0010
0000
,
0100
0001
0010
0001
1000
0100
0010
0001
,
0011
0000
1100
0000
0011
1000
1000
1000
,
0010
0010
2002
0000
3013
0010
0001
1000
,
0000
1010
0101
0011
0000
0110
2002
0000
,
3003
0000
0000
0000
;
