#TITLE:SOLID STATE SQUAD;
#SUBTITLE:-conclusion-;
#ARTIST:L.E.D. vs kors k;
#TITLETRANSLIT:;
#SUBTITLETRANSLIT:;
#ARTISTTRANSLIT:;
#GENRE:coolness;
#CREDIT:Telperion;
#BANNER:s3cclzn-bn.png;
#BACKGROUND:s3cclzn-bg.png;
#LYRICSPATH:;
#CDTITLE:CD-title-DDR.png;
#MUSIC:s3cclzn.ogg;
#OFFSET:-0.036327;
#SAMPLESTART:13.970000;
#SAMPLELENGTH:23.229000;
#SELECTABLE:YES;
#DISPLAYBPM:155.000000;
#BPMS:0.000000=155.000000,96=465,99=232.5,100=155,162.5=232.5,164=155,225=232.5,225.5=155,226=232.5,226.5=155,227=232.5,227.5=155;
#STOPS:96=.774194,99=0.129032,162.5=0.064516,163=0.064516,163.5=0.064516,225=0.064516,226=0.064516,227=0.064516;
#DELAYS:;
#TIMESIGNATURES:0.000000=4=4
;
#BGCHANGES:;
#KEYSOUNDS:;
#ATTACKS:;

//---------------dance-single - Telperion----------------
#NOTES:
     dance-single:
     Telperion:
     Hard:
     8:
     0.496,0.565,0.223,0.248,0.140,363.000,27.000,30.000,0.000,0.000,0.000,0.000,0.496,0.565,0.223,0.248,0.140,363.000,27.000,30.000,0.000,0.000,0.000,0.000:
1001
0000
0000
0000
,
1001
0000
0000
0000
,
1001
0000
0110
0000
,
0101
0000
1010
0000
,
2000
3100
0002
0103
,
0010
0002
0103
2000
,
3100
1000
0100
0010
0100
1000
0100
0001
,
0010
1000
0010
0100
0001
0100
0010
0001
,
1000
0000
0000
0000
,
0220
0000
0000
0000
,
0330
0000
0000
0000
0001
0010
0100
2000
,
0000
0000
0000
0000
0000
0000
0000
3000
,
0000
0000
0000
0000
,
0000
0000
0010
0001
0010
0100
0001
0020
,
0000
0000
0000
0000
0000
0130
0001
0100
,
2000
0000
0000
0002
0000
0000
0000
0000
0000
0000
0000
0000
3003
0000
0001
0000
,
0000
0100
0000
0010
0000
1000
0000
0000
,
0210
0000
0000
0000
,
0000
0000
0000
0000
,
0302
0000
0000
0000
,
0023
0000
0000
0000
,
0230
0000
0000
0000
,
0000
0000
0000
0000
,
2300
0000
0000
0000
,
3001
0000
0000
0110
,
1001
0000
0001
0000
0010
0000
0001
1000
0000
0001
1000
0000
0020
0000
0030
0000
,
0100
0000
0100
0000
0001
0000
0100
0010
0000
0010
1000
0000
0001
1000
0000
0000
,
0100
0000
0010
0000
0010
0000
0001
0010
0000
0100
1000
0000
0002
0000
0003
0000
,
0100
0000
0001
0000
0000
0001
0000
0000
0100
0010
0100
0000
0001
0000
0001
0000
,
0000
0000
1000
0000
0001
0000
0010
0100
0000
0010
0100
0000
0002
0000
0003
0000
,
0100
0000
0000
0000
1000
0000
0000
0001
0000
0000
0001
0000
1000
0000
0000
0000
,
0010
0000
0010
0000
0100
0000
0001
1000
0000
0100
1000
0000
0002
0000
0003
0000
,
1000
0000
0000
1000
0000
0000
1000
0000
0001
0010
0100
0000
1000
0000
1000
0000
,
1001
0000
0001
0000
0100
0000
0001
1000
0000
1000
0100
0000
0020
0000
0030
0000
,
0100
0000
1000
0000
0010
0000
0000
0101
0000
0000
0001
0000
0010
0000
0000
0000
,
0001
0000
0001
0000
1000
0000
0010
1000
0000
0100
0010
0000
0200
0000
0300
0000
,
1000
0000
0000
0001
0000
0000
1000
0000
0100
0010
0100
0000
1000
0000
1000
0000
,
0001
0000
0100
0000
0100
0000
0010
1000
0000
1000
0001
0000
0010
0000
0001
0000
,
1000
0000
0100
0000
0100
0000
1000
0001
0000
0100
0010
0000
0100
0000
0000
0000
,
0001
0000
0100
0000
0100
0000
1000
0100
0000
0010
1000
0000
0100
0000
0020
0000
,
0100
0000
0000
0000
0030
0010
0100
0010
,
1001
0000
0000
0000
,
0000
0000
0000
0000
0000
0000
0000
1010
,
0000
0101
0000
0000
0000
0000
0000
0020
,
0000
0200
0000
0000
0000
0000
0000
0000
,
0330
1001
0000
0000
,
0000
0000
0000
0000
0000
0000
0000
0101
,
0000
1100
0000
0000
0000
0000
0000
0000
,
0021
0000
0030
0000
,
0001
1000
0100
0010
0001
1000
0100
0010
,
0001
0100
0010
1000
0001
0100
0010
1000
,
0001
0100
0010
0100
1000
0100
0010
1000
,
0001
0010
0100
1000
0001
0010
0100
0001
,
0100
1000
0010
0001
1000
0100
0010
1000
,
0001
0010
0100
0001
1000
0010
0001
1000
,
0010
0000
0110
0000
0101
0000
0011
2001
,
0000
0100
0100
0100
,
3001
0100
0010
0000
0001
0010
1000
0100
,
0010
0001
0010
0001
1000
0001
1000
0001
,
0100
0010
0100
0010
1000
0100
0010
0001
,
0100
0010
0100
0010
1000
0010
1000
0010
,
0100
0001
0100
0001
0010
0001
0100
0000
,
0001
0010
0100
0000
1000
0100
0010
0001
,
1000
0001
0010
0000
0100
1000
0010
0001
,
0010
0100
1000
0000
0100
0010
1000
0001
,
0010
0100
0000
0010
0000
0100
0000
0000
,
1001
0001
0100
0020
0001
0000
0130
0000
,
0001
0010
0001
0000
0100
0010
0100
0000
,
0001
0000
1000
0100
1000
0000
0001
0000
1000
0000
0100
0000
0010
0000
0200
0000
,
1000
0000
0000
0000
0301
0000
0000
0000
0000
0000
1000
0000
0000
0001
0000
0000
,
0110
0010
0100
0001
1000
0010
0100
0001
,
0011
0010
0100
1000
0001
0010
0100
0010
,
0001
0010
0001
0000
1000
0000
1000
0000
0010
0100
0010
0000
1000
0000
0010
0000
,
0000
0100
0000
0100
0000
0100
0000
0001
,
0220
0000
0000
0000
,
0000
0000
0000
0000
,
0330
0000
0000
0000
;

//---------------dance-single - Telperion----------------
#NOTES:
     dance-single:
     Telperion:
     Medium:
     6:
     0.355,0.440,0.157,0.149,0.033,264.000,19.000,18.000,0.000,0.000,0.000,0.000,0.355,0.440,0.157,0.149,0.033,264.000,19.000,18.000,0.000,0.000,0.000,0.000:
0000
0000
0000
0000
,
0000
0000
0000
0000
,
0000
0000
0000
0000
,
0000
0000
0000
0000
,
1000
1000
0001
0001
,
0100
0010
0010
1000
,
1000
0100
0001
0000
0100
1000
0010
0000
,
0100
1000
0100
0010
0100
0000
0001
0000
,
0110
0000
0000
0000
,
0002
0000
0000
0000
,
0000
0000
0000
0000
1003
0000
0000
0020
,
0000
0000
0000
0000
0000
0000
0000
0030
,
0000
0000
0000
0000
,
0000
0000
0100
0000
0010
0000
0000
2000
,
0000
0000
0000
3000
,
0200
0000
0000
0000
0000
0000
0000
0300
,
0000
0000
0000
0000
,
0210
0000
0000
0000
,
0000
0000
2300
0000
,
3002
0000
0000
0000
,
0003
0000
0000
0000
,
0200
0000
0000
0000
,
0000
0000
0000
0000
,
0020
0000
0000
0000
,
0330
0000
0000
0010
,
1001
0000
0010
0000
0001
0100
1000
0000
,
0100
0000
0100
0000
0010
1000
0100
0000
,
0010
0000
0100
0000
0001
0100
1000
0000
,
0010
0000
0000
0100
0000
0000
0010
0000
0100
0000
0000
0000
0100
0000
0000
0000
,
1000
0000
0001
0000
1000
0100
0001
0000
,
0100
0000
0010
0000
0001
0010
0100
0000
,
1000
0010
0100
0000
0001
0100
0010
0000
,
1000
0000
0000
1000
0000
0000
1000
0000
0001
0000
0000
0000
1000
0000
0000
0000
,
0110
0000
0001
0000
1000
0100
0001
0000
,
0100
0000
0010
0000
0001
0000
0000
0100
0000
0000
1000
0000
0100
0000
0000
0000
,
0010
0000
0010
0000
1000
0010
0001
0000
,
0001
0000
0000
0010
0000
0000
0100
0000
0001
0000
1000
0000
0001
0000
0000
0000
,
0010
0000
0000
0000
0100
0000
0000
0010
0000
0000
0000
0000
1001
0000
0000
0000
,
0100
0000
0000
0000
0010
0000
0000
0100
0000
0000
0000
0000
1001
0000
0000
0000
,
0010
0000
0100
0000
0010
0000
0000
1000
0000
0000
0001
0000
1000
0000
0002
0000
,
1000
0000
0000
0000
0003
0001
1000
0001
,
0110
0000
0000
0000
,
0000
0000
0000
0000
0000
0000
0000
0011
,
0000
1100
0000
0000
0000
0000
0000
0020
,
0000
0200
0000
0000
0000
0000
0000
0000
,
0330
1001
0000
0000
,
0000
0000
0000
0000
0000
0000
0000
0011
,
0000
1001
0000
0000
0000
0000
0000
0000
,
1020
0000
0030
0000
,
1000
0001
1000
0000
0100
1000
0100
0000
,
0010
0100
0010
0000
0001
0010
0100
1000
,
0001
1000
0001
0000
0100
0001
0100
0000
,
0010
0100
0010
0000
1000
0010
0100
0001
,
0010
0100
0010
0000
0001
0100
0010
0000
,
1000
0001
1000
0000
0100
0010
0100
0000
,
2000
0000
3020
0000
0230
0000
0301
0010
,
0000
0001
0010
0100
0010
0001
1000
0000
,
0010
0100
1001
0110
,
1001
0001
1000
0000
0010
0000
0100
0000
,
0001
0000
0100
0000
0010
1000
0100
0010
,
0001
0000
0010
0000
0001
0000
0010
0100
,
1000
0100
1000
0001
,
0110
0000
1000
0000
0010
0100
0001
0010
,
0001
0000
1000
0000
0100
1000
0001
0100
,
0010
0000
1000
0000
0010
0000
1000
0001
,
0000
0100
0000
0001
0000
0100
0000
0000
,
0110
0100
0001
1000
0100
0000
0010
0000
,
0100
0000
0010
0000
0100
1000
0010
0000
,
0100
0010
1000
0100
0010
0000
0100
0000
,
1000
0000
0000
0000
0001
0000
0000
0000
0000
0000
0100
0000
0000
0100
0000
0000
,
0100
0010
0100
0000
0001
1000
0100
0000
,
0010
0100
0010
0000
0001
1000
0010
0000
,
0100
0010
0100
0010
1000
0001
1000
0001
,
0010
0100
0000
0100
0000
0100
0000
0000
,
2002
0000
0000
0000
,
0000
0000
0000
0000
,
3003
0000
0000
0000
;

//---------------dance-single - Telperion----------------
#NOTES:
     dance-single:
     Telperion:
     Easy:
     3:
     0.236,0.275,0.091,0.165,0.000,169.000,11.000,20.000,0.000,0.000,0.000,0.000,0.236,0.275,0.091,0.165,0.000,169.000,11.000,20.000,0.000,0.000,0.000,0.000:
0000
0000
0000
0000
,
0000
0000
0000
0000
,
0000
0000
0000
0000
,
0000
0000
0000
0000
,
0000
0000
0000
0000
,
0000
0000
0000
0000
,
0000
0000
0000
0000
,
0000
0000
0000
0000
,
0000
0000
0000
0000
,
2002
0000
0000
0000
,
0000
0000
0000
0000
,
0000
0000
0000
0000
,
3003
0000
0000
0000
,
0000
0010
0100
0000
,
0200
0000
0000
0000
,
0302
0000
0000
0000
,
1003
0000
0000
0000
,
2002
0000
0000
0000
,
0000
0000
0000
0000
,
0000
0000
0000
0000
,
3003
0000
0000
0000
,
0020
0000
0000
0000
,
0230
0000
0000
0000
,
2300
0000
0000
0000
,
3001
0000
0000
0100
,
1001
0001
1000
1000
,
0010
0100
0001
0001
,
0020
0001
0000
0031
,
1000
0001
0100
0010
,
1000
0010
0100
0100
,
0001
1000
0100
0100
,
0020
0100
0000
0130
,
1000
0001
0010
0100
,
1001
1000
0001
0001
,
0100
0010
0100
0100
,
0002
1000
0000
1003
,
0100
0010
0001
1000
,
0020
0100
0000
0130
,
0002
1000
0000
1003
,
0200
0010
0000
0310
,
0110
0000
0000
0000
,
1001
0000
0000
0000
,
0000
0000
0000
0000
0000
0000
0000
0020
,
0000
0200
0000
0000
0000
0000
0000
0030
,
0000
0300
0000
0000
0000
0000
0000
0000
,
0000
1001
0000
0000
,
0000
0000
0000
0000
0000
0000
0000
0100
,
0000
0010
0000
0000
0000
0000
0000
0000
,
0110
0000
0000
0000
,
1000
1000
1000
1000
,
0001
0001
0001
0001
,
0100
0100
0100
0100
,
0010
0010
0100
0100
,
0001
0100
0001
0100
,
0010
1000
0010
1000
,
0001
0010
0100
0010
,
1000
0010
0100
0010
,
0002
0000
1000
1003
,
0110
1000
0010
0100
,
0001
1000
0010
0100
,
1000
0100
1000
0100
,
0001
0100
0001
0000
,
0010
0100
1000
0001
,
0010
0100
1000
0001
,
0100
0010
0100
0010
,
1000
0001
1000
0000
,
0110
0001
0010
0100
,
1000
0001
0010
0100
,
0001
0100
0001
0100
,
1000
0000
0001
0000
0000
0100
0000
0000
,
0010
0010
0010
0010
,
0100
0100
0100
0100
,
0001
1000
0001
1000
,
0002
0000
2000
3003
,
1001
0000
0000
0000
;

//---------------dance-single - Telperion----------------
#NOTES:
     dance-single:
     Telperion:
     Beginner:
     1:
     0.073,0.183,0.091,0.000,0.000,51.000,11.000,0.000,0.000,0.000,0.000,0.000,0.073,0.183,0.091,0.000,0.000,51.000,11.000,0.000,0.000,0.000,0.000,0.000: // measure 1
0000
0000
0000
0000
,  // measure 2
0000
0000
0000
0000
,  // measure 3
0000
0000
0000
0000
,  // measure 4
0000
0000
0000
0000
,  // measure 5
0000
0000
0000
0000
,  // measure 6
0000
0000
0000
0000
,  // measure 7
0000
0000
0000
0000
,  // measure 8
0000
0000
0000
0000
,  // measure 9
0000
0000
0000
0000
,  // measure 10
0010
0000
0000
0000
,  // measure 11
0000
0000
0000
0000
,  // measure 12
0000
0000
0000
0000
,  // measure 13
0000
0000
0000
0000
,  // measure 14
0000
0000
0000
0000
,  // measure 15
0000
0000
0000
0000
,  // measure 16
0000
0000
0000
0000
,  // measure 17
0000
0000
0000
0000
,  // measure 18
0010
0000
0000
0000
,  // measure 19
0000
0000
0000
0000
,  // measure 20
0000
0000
0000
0000
,  // measure 21
0000
0000
0000
0000
,  // measure 22
0000
0000
0000
0000
,  // measure 23
0000
0000
0000
0000
,  // measure 24
0000
0000
0000
0000
,  // measure 25
0000
0000
0000
0000
,  // measure 26
1001
0000
0000
0000
,  // measure 27
1000
0000
0000
0000
,  // measure 28
0001
0000
0000
0000
,  // measure 29
0001
0000
0000
0000
,  // measure 30
0010
0000
0000
0000
,  // measure 31
0010
0000
0000
0000
,  // measure 32
0100
0000
0000
0000
,  // measure 33
0010
0000
0000
0000
,  // measure 34
1001
0000
0000
0000
,  // measure 35
0001
0000
0000
0000
,  // measure 36
1000
0000
0000
0000
,  // measure 37
1000
0000
0000
0000
,  // measure 38
0010
0000
0000
0000
,  // measure 39
0010
0000
0000
0000
,  // measure 40
0100
0000
0000
0000
,  // measure 41
0000
0000
0000
0000
,  // measure 42
0110
0000
0000
0000
,  // measure 43
0000
0000
0000
0000
,  // measure 44
0000
0000
0000
0000
,  // measure 45
0000
0000
0000
0000
,  // measure 46
0000
0110
0000
0000
,  // measure 47
0000
0000
0000
0000
,  // measure 48
0000
0000
0000
0000
,  // measure 49
1001
0000
0000
0000
,  // measure 50
0001
0000
0000
0000
,  // measure 51
1000
0000
0000
0000
,  // measure 52
0010
0000
0000
0000
,  // measure 53
0100
0000
0000
0000
,  // measure 54
0001
0000
0001
0000
,  // measure 55
0001
0000
0001
0000
,  // measure 56
1000
1000
1000
1000
,  // measure 57
1000
0000
0000
0000
,  // measure 58
0100
0100
0010
0000
,  // measure 59
0110
0000
0000
0000
,  // measure 60
0100
0000
0000
0000
,  // measure 61
1000
0000
0000
0000
,  // measure 62
0001
0000
0000
0000
,  // measure 63
0100
0000
0000
0000
,  // measure 64
0010
0000
0000
0000
,  // measure 65
1000
0000
0000
0000
,  // measure 66
0000
0000
0000
0000
,  // measure 67
1001
0000
0000
0000
,  // measure 68
0001
0000
0000
0000
,  // measure 69
0010
0000
0000
0000
,  // measure 70
0100
0000
0000
0000
,  // measure 71
0110
0000
0000
0000
,  // measure 72
0000
0000
0000
0000
,  // measure 73
1001
0000
0000
0000
,  // measure 74
0110
0000
0000
0000
,  // measure 75
1001
0000
0000
0000
;

//---------------dance-double - Telperion----------------
#NOTES:
     dance-double:
     Telperion:
     Hard:
     8:
     0.473,0.534,0.182,0.289,0.116,344.000,22.000,35.000,0.000,0.000,0.000,0.000,0.473,0.534,0.182,0.289,0.116,344.000,22.000,35.000,0.000,0.000,0.000,0.000:
00011000
00000000
00000000
00000000
,
00011000
00000000
00000000
00000000
,
01001000
00000000
00010100
00000000
,
00101000
00000000
00010010
00000000
,
00002100
00003001
00000210
00001300
,
00010000
21000000
30100000
01020000
,
00130000
01000000
00100000
10000000
00010000
01000000
00100000
00001000
,
00010000
00000010
00001000
00000010
00000100
00001000
00000001
00000010
,
00001000
00000000
00000000
00000000
,
00000002
00000000
00000000
00000000
,
00000003
00000000
00000000
00000000
00000010
00000100
00010000
02000000
,
00000000
00000000
00000000
00000000
00000000
00000000
00000000
03000000
,
00000000
00000000
00000000
00000000
,
00000000
00000000
10000000
00010000
10000000
00100000
00010000
00000020
,
00000000
00000000
00000000
00000000
00000030
00000100
00001000
00000100
,
00000002
00000000
00000000
00002000
00000000
00000000
00000000
00000000
00000000
00000000
00000000
00000000
00003003
00000000
00000001
00000000
,
00000000
00001000
00000000
00000100
00000000
00000000
00000000
00000000
,
00022000
00003000
00000000
00000000
00000000
00000000
00000000
00000000
,
00000000
00000000
00032000
00000000
,
02003000
00000000
00000000
00000000
,
00000000
00000000
03000000
00000000
,
00200000
00000000
00000000
00000000
,
00310000
00000000
00000000
00001000
00000000
00000000
00000020
00000000
,
00000000
00000000
00000000
00000000
,
00000130
00000000
00000000
00000110
,
00001001
00000000
00000001
00000000
00001000
00000000
00000100
00010000
00000000
00001000
00010000
00000000
00000200
00000000
00000300
00000000
,
00010000
00000000
00001000
00000000
01000000
00000000
00000000
00100000
00000000
00000000
01000000
00000000
10000000
00000000
00000000
00000000
,
01000000
00000000
00100000
00000000
10000000
00000000
00010000
01000000
00000000
01000000
00001000
00000000
00020000
00000000
00030000
00000000
,
00001000
00000000
00010000
00000100
00000000
00001000
00000100
00000000
00000010
00000100
00000010
00000000
00000100
00000000
00000100
00000000
,
00000000
00000000
00001000
00000000
00000001
00000000
00000000
00000010
00000000
00000000
00000100
00000000
00020000
00000000
00030000
00000000
,
00001000
00000000
00010000
00000000
01000000
00000000
00000000
10100000
00000000
00000000
00100000
00000000
01000000
00000000
00000000
00000000
,
00001000
00000000
00100000
00000000
00001000
00000000
00010000
00001000
00000000
00000000
00001000
00000000
02000000
00000000
03000000
00000000
,
00010000
00000000
00000000
10000000
00000000
00000000
01000000
00000000
00010000
00000100
00010000
00000000
00001000
00000000
00000010
00000000
,
00000001
00000000
00000010
00000000
00000100
00000000
00001000
00000100
00000000
00001000
00000100
00000000
00010000
00000000
00010000
00000000
,
00001000
00000000
01000000
00000000
00100000
00000000
00000000
00010000
00000000
00000000
00100000
00000000
01000000
00000000
00000000
00000000
,
00010000
00000000
10000000
00000000
00010000
00000000
00100000
00001000
00100000
00000000
00001000
00000000
00010000
00000000
00000000
00000000
,
00001000
00000000
00000000
00000100
00000000
00000000
00000001
00000000
00000010
00000100
00000010
00000000
00000001
00000000
00000001
00000000
,
00000000
00000000
00001000
00000000
00000001
00000000
00000000
00000100
00000000
00000000
00000010
00000000
00010000
00000000
00001000
00000000
,
00100000
00000000
01000000
00000000
01000000
00000000
00000000
00010000
00000000
00000000
01000000
00000000
10000000
00000000
00000000
00000000
,
00100000
00000000
01000000
00000000
00001000
00000000
00010000
00000100
00000000
00010000
00001000
00000000
00000100
00000000
00000002
00000000
,
00000010
00000000
00000000
00000000
00000003
00000001
00000001
00000001
,
00001000
00000000
00000000
00000000
,
00000000
00000000
00000000
00000000
00000000
00000000
00000000
00011000
,
00000000
10010000
00000000
00000000
00000000
00000000
00000000
00200000
,
00000000
02000000
00000000
00000000
00000000
00000000
00000000
00000000
,
03300000
10010000
00000000
00000000
,
00000000
00000000
00000000
00000000
00000000
00000000
00000000
00011000
,
00000000
00000011
00000000
00000000
00000000
00000000
00000000
00000000
,
00002100
00000000
00003000
00000000
,
00000001
00000100
00000010
00001000
00000100
00010000
01000000
00100000
,
00010000
10000000
00100000
01000000
00001000
00010000
00001000
00000100
,
00000001
00000010
00000100
00000010
00000001
00001000
00000100
00010000
,
01000000
10000000
00100000
01000000
00001000
00010000
00000020
00000030
,
00000100
00001000
00010000
01000000
10000000
01000000
00010000
00000100
,
00000010
00000001
00000100
00010000
01000000
00100000
00001000
00000010
,
00000001
00000010
00000100
00001000
00010000
01000000
00100000
00020000
,
00000000
10000000
01000000
00031000
,
00100000
00000000
00000000
00000000
10000000
01000000
00010000
00000100
,
00000020
00000001
00000100
00000031
,
00000100
00000000
00001000
00000000
00000001
00000100
00001000
00000000
,
00020000
00000000
01000000
00000000
00032000
00000000
00003100
00001000
,
00020000
01000000
00031000
00001000
,
01000000
00100000
10000000
00000000
00001000
00010000
01000000
10000000
,
00010000
01000000
00010000
00000000
10000000
01000000
00100000
00001000
,
00010000
00000010
00001000
00000000
00000010
00010000
00001000
00200000
,
00000000
02300000
00000000
03020000
00000000
00030000
00000000
00000000
,
01100000
00000000
00001000
00020000
00100000
00000000
00001000
00000000
,
01000000
00030000
00001000
00000000
00000100
00000001
00000010
00000000
,
00000001
00000000
00000100
00000010
00000100
00000000
00001000
00000000
00010000
00000000
00001000
00000000
00100000
00000000
01000000
00000000
,
10000000
00000000
00010000
00000000
10000000
00000000
00010000
00000000
00000000
00000000
00010000
00000000
00000000
01000000
00100000
00000000
,
10000000
00100000
01000000
00001000
00010000
00000100
00000010
00000001
,
00001000
00000001
00000010
00000100
00001000
00010000
00100000
01000000
,
10000000
00100000
10000000
00000000
00010000
00000000
01000000
00000000
00001000
00010000
00001000
00000000
00010000
00000000
00000100
00000000
,
00000010
00000001
00000000
00000001
00000000
00000001
00000000
00001000
,
00000220
00000000
00000000
00000000
,
00000000
00000000
00000000
00000000
,
00000330
00000000
00000000
00000000
;

//---------------dance-double - Telperion----------------
#NOTES:
     dance-double:
     Telperion:
     Medium:
     6:
     0.348,0.489,0.240,0.190,0.017,243.000,29.000,23.000,0.000,0.000,0.000,0.000,0.348,0.489,0.240,0.190,0.017,243.000,29.000,23.000,0.000,0.000,0.000,0.000:
00000000
00000000
00000000
00000000
,
00000000
00000000
00000000
00000000
,
00000000
00000000
00000000
00000000
,
00000000
00000000
00000000
00000000
,
00010000
00100000
01000000
10000000
,
00010000
00100000
00001000
00000100
,
00000001
00000010
00000001
00000000
00001000
00000010
00001000
00000000
,
00000100
00010000
00001000
00000000
00100000
00010000
01000000
00000000
,
00100000
00000000
00000000
00000000
,
20000000
00000000
00000000
00000000
,
30000000
00000000
00000000
00000000
00010000
00000000
00000000
00200000
,
00000000
00000000
00000000
00000000
00000000
00000000
00000000
00300000
,
00000000
00000000
00000000
00000000
,
00000000
00000000
01000000
00000000
00100000
00000000
00000000
00002000
,
00000000
00000000
00000000
00000000
00000000
00000000
00000000
00003000
,
00000200
00000000
00000000
00000000
00000000
00000000
00000300
00000100
,
00000000
00000000
00000000
00000000
,
00000002
00000000
00000000
00000000
,
00000000
00000000
00000023
00000000
,
00000230
00000000
00000000
00000000
,
00000300
00000000
00000000
00000000
,
00020000
00000000
00000000
00000000
,
02030000
00000000
00000000
00000000
,
23000000
00000000
00000000
00000000
,
30010000
00000000
00000000
00000000
,
10000000
00010000
01000000
01100000
,
00010000
00000100
00000010
00000011
,
00001000
00000010
00000100
00001001
,
00000100
00000000
00000000
00000010
00000000
00000000
00000100
00000000
00000010
00000000
00000000
00000000
00000010
00000000
00000000
00000000
,
00001000
00000100
00000010
00000110
,
00001000
00010000
00100000
01010000
,
10000000
00010000
00100000
10010000
,
00100000
00000000
00000000
10000000
00000000
00000000
00100000
00000000
01000000
00000000
00010000
00000000
01000000
00000000
00000000
00000000
,
01100000
10000000
01000000
00010000
,
00000100
00000010
00001000
00000010
,
00000001
00000100
00001000
00010000
,
00100000
00000000
00000000
01000000
00000000
00000000
00100000
00000000
10000000
00000000
00010000
00000000
10000000
00000000
00000000
00000000
,
10000000
01000000
00010000
01000000
,
10000000
00100000
00010000
00100000
,
01000000
00100000
00010000
00001000
,
00000020
00000000
00000000
00000000
00000030
00000100
00000010
00000100
,
00001001
00000000
00000000
00000000
,
00000000
00000000
00000000
00000000
00000000
00000000
00000000
00000100
,
00000000
00010000
00000000
00000000
00000000
00000000
00000000
00002000
,
00000000
02000000
00000000
00000000
00000000
00000000
00000000
00000000
,
03003000
01100000
00000000
00000000
,
00000000
00000000
00000000
00000000
00000000
00000000
00000000
11000000
,
00000000
00110000
00000000
00000000
00000000
00000000
00000000
00000000
,
00002000
00000000
00013000
00000000
,
00000100
00010000
00001000
00000000
00010000
00000100
00000010
00000000
,
00000001
00001000
00000010
00000000
00001000
00000001
00000010
00000000
,
00000100
00010000
00001000
00000000
01000000
00010000
10000000
00000000
,
00100000
01000000
00010000
00100000
00001000
00010000
00000100
00000000
,
00000020
00000130
00020000
00031000
,
02000000
03100000
02000000
13000000
,
01000000
10000000
01000000
00100000
01000000
00010000
00100000
02000000
,
00000000
03000000
00010000
00000000
00001000
00000000
00000100
00000000
,
00000002
00000000
00001000
00000000
00001003
00000001
00001000
00000000
,
00000011
00000100
00001100
00011000
,
00000100
00011000
01000000
00011000
,
01010000
00010000
11000000
10000000
,
00110000
00100000
11000000
01000000
,
01100000
00001000
00010100
00001001
,
00000010
00001100
00010000
00011000
,
00002010
00000000
00003001
00000000
00000012
00000000
00001003
00000100
,
00000000
00000010
00000000
00000100
00000000
00001000
00000010
00000000
,
00001010
00000001
00000000
00000100
00000000
00001000
00000000
00010000
,
00000000
01000000
00000000
10000000
00100000
01000000
00010000
00000000
,
00100000
00010000
00100000
00000000
01000000
10000000
01000000
00000000
,
00100000
00000000
01000000
00000000
00000000
00000000
00100000
00000000
00000000
00000000
00001000
00000000
00000000
00010000
00000000
00000000
,
00001000
00010000
00001000
00010000
00000010
00010000
00000010
00010000
,
00000010
00000100
00000010
00000100
00000001
00000100
00000001
00000100
,
00000010
00001000
00000100
00010000
00001000
00100000
00010000
02000000
,
00000000
00000000
00000000
03000000
,
01100000
00000000
00000000
00000000
;

//---------------dance-double - Telperion----------------
#NOTES:
     dance-double:
     Telperion:
     Easy:
     2:
     0.122,0.183,0.091,0.157,0.000,73.000,11.000,19.000,0.000,0.000,0.000,0.000,0.122,0.183,0.091,0.157,0.000,73.000,11.000,19.000,0.000,0.000,0.000,0.000:
00000000
00000000
00000000
00000000
,
00000000
00000000
00000000
00000000
,
00000000
00000000
00000000
00000000
,
00000000
00000000
00000000
00000000
,
00000000
00000000
00000000
00000000
,
00000000
00000000
00000000
00000000
,
00000000
00000000
00000000
00000000
,
00000000
00000000
00000000
00000000
,
00000000
00000000
00000000
00000000
,
00020000
00000000
00000000
00000000
,
00000000
00000000
00000000
00000000
,
00000000
00000000
00000000
00000000
00000000
00000000
00000000
00030000
,
00000000
00000000
00000000
00000000
,
00000000
00002000
00000000
00000000
,
00000000
00000000
00000000
00000000
,
00000000
00000000
00000000
00000000
,
00000000
00003000
00000000
00000000
00000000
00000000
00000000
00000000
,
01002000
00000000
00000000
00000000
,
00000000
00000000
00000000
00000000
,
02003000
00000000
00000000
00000000
,
00000000
00000000
00000000
00000000
00000000
00000000
00000000
03000000
,
00200000
00000000
00000000
00000000
,
00000000
00000000
00000000
00000000
,
00300000
00000000
00000000
00000000
,
01100000
00000000
00000000
00000000
,
20010000
00000000
00000000
00000000
,
32000000
00000000
00000000
00000000
,
03200000
00000000
00000000
00000000
,
00300000
00000000
00000000
00000000
,
00002000
00000000
00000000
00000000
,
00023000
00000000
00000000
00000000
,
00030020
00000000
00000000
00000000
,
00000030
00000000
00000000
00000000
,
00000120
00000000
00000000
00000000
,
00020030
00000000
00000000
00000000
,
00032000
00000000
00000000
00000000
,
00003000
00000000
00000000
00000000
,
00200000
00000000
00000000
00000000
,
02300000
00000000
00000000
00000000
,
23000000
00000000
00000000
00000000
,
30010000
00000000
00000000
00000000
,
01100000
00000000
00000000
00000000
,
00000000
00000000
00000000
00000000
,
00000000
01010000
00000000
00000000
00000000
00000000
00000000
00000000
,
00000000
00000000
00000000
00000000
,
00000000
01001000
00000000
00000000
,
00000000
00000000
00000000
00000000
,
00000000
00010100
00000000
00000000
00000000
00000000
00000000
00000000
,
00011000
00000000
00000000
00000000
,
00001000
00000000
00100000
00000000
,
00010000
00000000
10000000
00000000
,
00100000
00000000
01000000
00000000
,
00001000
00000000
00010000
00000000
,
00000100
00000000
00001000
00000000
,
00000100
00000000
00000010
00000000
,
00000100
00000010
00000100
00000010
,
00000200
00000000
00000000
00000000
,
00000300
00000000
00000000
00000000
,
00001001
00000000
00000001
00000000
,
00001000
00000000
00000001
00000000
,
00000010
00000000
00000100
00000000
,
00010000
00000000
00001000
00000000
,
01000000
00000000
00010000
00000000
,
01000000
00000000
00100000
00000000
,
01000000
00000000
10000000
00000000
,
01000000
00000000
00100000
00000000
,
10010000
00000000
10000000
00000000
,
00010000
00000000
10000000
00000000
,
01000000
00000000
00100000
00000000
,
00001000
00000000
00000000
00000000
,
00010000
00000000
00010000
00000000
,
00010000
00000000
00010000
00000000
,
00001000
00010000
00001000
00010000
,
00002000
00000000
00000000
00000000
,
00003000
00000000
00000000
00000000
;
