#TITLE:AKATSUKI;
#SUBTITLE:;
#ARTIST:L.E.D. vs GUHROOVY;
#TITLETRANSLIT:;
#SUBTITLETRANSLIT:;
#ARTISTTRANSLIT:;
#GENRE:;
#CREDIT:Telperion;
#BANNER:;
#BACKGROUND:;
#LYRICSPATH:;
#CDTITLE:;
#MUSIC:AKATSUKI.ogg;
#OFFSET:-2.964;
#SAMPLESTART:18.348;
#SAMPLELENGTH:12.820;
#SELECTABLE:YES;
#DISPLAYBPM:187.000;
#BPMS:0.000=187.210;
#STOPS:;
#BGCHANGES:;
#KEYSOUNDS:;

//---------------dance-single - Tel-ITG----------------
#NOTES:
     dance-single:
     Tel-ITG:
     Challenge:
     11:
     -1.000,-1.000,-1.000,-1.000,-1.000:
0000
0000
0000
0000
,
0000
0000
0000
0000
,
0000
0000
0000
0000
,
0000
0000
0000
0000
,
0200
0000
0300
0000
,
0000
0000
0000
0000
,
0002
0000
0000
0000
,
2000
0000
0000
3003
,
0001
0110
0000
0010
0001
0100
1000
0100
,
0010
1100
0000
0010
1000
0100
0001
0101
,
1000
1001
0000
1000
0100
0100
0010
0010
,
1000
0000
0010
0000
0000
0000
0001
0000
0200
0000
0000
0310
0000
0100
0000
0001
,
1000
0110
0000
0001
0100
1000
0100
0100
,
0010
0000
1000
0000
0000
0000
0100
0000
0002
0000
0000
0103
0000
0010
0100
0000
,
1000
0000
0101
0000
0000
0000
0001
0000
1000
0000
1000
0000
0010
0000
0100
1000
,
0100
1000
0100
0010
0100
0000
0001
0000
1000
0000
0100
0000
0001
0000
0001
0000
,
0100
1000
0001
1000
0000
1000
0100
0010
,
0001
0100
1000
0010
1000
0100
0100
0000
,
0001
1000
0001
0100
0000
0001
0100
0010
,
1000
0100
0001
0010
0001
0100
0100
0000
,
1000
0001
0100
1000
0001
0010
0100
1000
,
0010
1000
0100
0001
0010
1000
0100
1000
,
0010
0100
1000
0001
0100
1000
0001
0010
,
1000
0000
0100
0010
0000
0010
0001
0000
0100
0000
0001
0100
0010
0000
1000
0010
,
0100
1000
0100
1000
0100
0001
0010
0001
,
0100
0000
0010
0100
0010
0000
0010
0000
0100
0000
0001
0000
0001
0000
0010
0000
,
0010
0100
1000
0100
0001
0100
1000
0010
,
0100
1000
0010
1000
0100
0010
0010
0000
,
1000
0010
1000
0010
0010
0001
0010
0100
,
0001
0000
1000
0100
1000
0000
1000
0000
0001
0000
0010
0000
0010
0000
0001
0000
,
0001
0100
0010
1000
0010
0100
0001
0100
,
1000
0100
0010
0000
1000
0000
0100
0010
0100
0000
1000
0000
1000
0000
0000
0000
,
2002
3000
0020
0003
,
0200
0000
0000
0000
0000
0000
0000
0330
,
0010
0100
0010
0100
0010
0100
0010
0100
0010
0100
0010
0100
0010
0100
0010
0100
,
0040
0000
0000
0000
0000
0100
0000
0000
0000
0100
0000
0000
0030
0001
1000
0000
,
1001
0000
0001
1000
1100
0000
0110
0000
,
0011
0000
0001
1000
1010
0000
0110
0000
,
0101
0000
0011
0100
1100
0000
1001
0000
,
0101
0000
0001
1000
1000
0100
1001
0000
,
1100
0000
1000
0001
0101
0000
0011
0000
,
1100
0000
0001
1000
1001
0000
0110
0000
,
1010
0011
1100
0101
,
1000
0100
0100
1000
0004
0100
0000
0103
,
0001
1000
1000
0100
0001
1000
0010
0001
,
0100
0001
0001
0100
1000
0001
0010
0100
,
1000
0100
0100
1000
0100
0010
0100
0001
,
0010
0100
0100
0010
0001
0010
0100
1000
,
0001
1000
1000
0001
0100
1000
0010
1000
,
0100
0001
0001
0010
1000
0100
1000
0010
,
0001
0100
1000
0100
0001
0010
1000
0010
,
0004
4000
0000
0000
0000
0000
0000
0000
0000
0000
0000
0000
0000
0000
0003
0000
,
0002
0000
0000
0000
0000
0000
0000
3000
0000
0000
0000
0000
0000
0000
0003
0000
,
1001
0000
1000
0100
1000
0000
1000
0000
0001
0100
0001
0000
1001
0000
0000
0000
,
1000
0000
0001
0000
0100
0000
0010
0100
0010
0000
1000
0000
0001
0000
0010
0000
,
0001
1000
0100
0010
1000
0100
1000
0010
,
0001
0000
1000
0000
0100
0000
0010
0100
0010
0000
0001
0000
0100
0000
0010
0000
,
0001
0000
0010
0000
1000
0000
0010
0000
0100
0000
0001
1000
0001
0000
0100
0000
,
0010
0000
1000
0000
0100
0000
0010
0100
0010
0000
0100
0000
0100
0000
1000
0000
,
1000
0000
0001
0000
0001
0000
0100
0000
1000
0000
0100
0010
1000
0000
0100
0000
,
0010
0000
0100
0000
1000
0000
0001
1000
0100
0000
0010
0000
0001
0000
0100
0000
,
1000
0000
0010
0000
1000
0000
0100
0000
0001
0000
1000
0001
1000
0000
0000
0000
,
0100
0000
0001
0000
0100
0000
0010
0001
0010
0000
0100
0000
1000
0000
0100
0000
,
0001
1000
0010
0001
0100
1000
1000
0100
,
0100
0000
0001
0000
1000
0000
0001
1000
0001
0000
1000
0000
0010
0000
0100
0000
,
0002
0000
0000
0000
2003
0000
0000
0000
3100
0000
0001
0100
0001
0000
0100
0000
,
1000
0000
0100
0000
1000
0000
0001
0100
0001
0000
1000
0000
0100
0000
0010
0000
,
0001
0000
0100
0000
0010
0000
0100
0000
1000
0000
0100
0010
1000
0000
0100
0000
,
0001
0000
0100
0000
0010
0000
0100
0010
0100
0000
1000
0000
1000
0000
0001
0000
,
0100
0000
1000
0000
0001
0000
0001
0000
0010
0000
0010
0000
1000
0010
1000
0100
,
0010
0000
0100
0000
0110
0000
0001
0100
0001
0000
0100
0000
0020
0000
0000
0000
,
2030
0000
3001
0010
1000
0001
0001
0100
,
0100
0000
0010
0000
0001
0000
1000
0001
1000
0000
0010
0000
0200
0000
0000
0000
,
1300
0100
0010
0001
0100
0001
0010
0100
,
0001
0000
0010
0000
0011
0000
0100
0010
0100
0000
1000
0000
1001
0000
0000
0000
,
0101
0000
0000
0000
1100
0000
0000
0000
0011
0000
0010
0001
0010
0000
0001
0000
,
1000
0000
0010
0000
1000
0000
0100
0010
0100
0000
1000
0000
0001
0000
0100
0010
,
0100
0000
1000
0000
0001
0000
0010
0000
1000
0000
0100
1000
0100
0000
0010
0000
,
0001
0000
0100
0001
0100
0000
0010
0000
1000
0000
0100
1000
0100
0000
0010
0000
,
0001
0000
0100
0001
1000
0000
0100
1000
0001
0000
0100
0001
1000
0100
1000
0001
,
0100
0000
0000
0000
;

//---------------dance-double - Tel-ITG----------------
#NOTES:
     dance-double:
     Tel-ITG:
     Challenge:
     11:
     -1.000,-1.000,-1.000,-1.000,-1.000:
00000000
00000000
00000000
00000000
,
00000000
00000000
00000000
00000000
,
00000000
00000000
00000000
00000000
,
00000000
00000000
00000000
00000000
,
00000200
00000000
00000300
00000000
,
00000000
00000000
00000000
00000000
,
02000000
00000000
00000000
00000000
,
20000000
00000000
00000000
33000000
,
00010000
11000000
00000000
10000000
01000000
00100000
00001000
00000100
,
00000010
00000101
00000000
00000001
00000010
00001000
00010000
00011000
,
00100000
00110000
00000000
00010000
01000000
00100000
00001000
00000010
,
00000100
00000000
00001001
00000000
00000000
00000000
00000001
00000000
00000010
00000000
00000100
00010000
00000000
00001000
00000000
00100000
,
00010000
00110000
00000000
00010000
10000000
00100000
00010000
00001000
,
00000100
00000000
00000101
00000000
00000000
00000000
00000100
00000000
00001001
00000000
00000000
00001000
00000000
00000001
00001000
00000000
,
00000100
00000000
00000110
00000000
00000000
00000000
00000010
00000000
00001000
00000000
00100000
00000000
01000000
00000000
00010000
01000000
,
00010000
01000000
00100000
01000000
00100000
00000000
00010000
00000000
01000000
00000000
00001000
00000000
00010000
00000000
00001000
00010000
,
00001000
00010000
00001000
00000100
00000001
00001000
00000010
00000001
,
00000100
00000001
00000010
00000100
00000001
00000010
00000010
00000000
,
00000001
00000100
00001000
00010000
00100000
10000000
01000000
00010000
,
00100000
00010000
01000000
00100000
00001000
00010000
00010000
00000000
,
00001000
01000000
00100000
00010000
00001000
00000100
00000010
00000001
,
00000100
00000001
00000010
00001000
00000100
00000010
00000010
00000000
,
00000001
00000010
00001000
00010000
01000000
00100000
00010000
01000000
,
10000000
00000000
00000000
00100000
00000000
00000000
00010000
00000000
01000000
00000000
00100000
01000000
00100000
00000000
01000000
00100000
,
01000000
00100000
10000000
01000000
00010000
00000100
00000010
00000100
,
00001000
00000000
00000001
00001000
00000001
00000000
00000100
00000000
00010000
00000000
01000000
00000000
01000000
00000000
00100000
00000000
,
00100000
10000000
00100000
00010000
00001000
00000100
00000010
00001000
,
00000100
00000000
00000001
00000100
00000001
00000000
00000100
00000000
00010000
00000000
01000000
00000000
00100000
00000000
00010000
00000000
,
10000000
01000000
00100000
00001000
00000010
00000001
00000100
00001000
,
00000010
00001000
00000100
00000010
00001000
00000010
00000010
00010000
,
00010000
00001000
00010000
00100000
10000000
01000000
00100000
00010000
,
10000000
01000000
10000000
00000000
00010000
01000000
00010000
00100000
01000000
00100000
00010000
00000000
00100000
00000000
01000000
00000000
,
02200000
03000000
00002000
00300000
,
00000200
00003000
00000002
00000303
,
00000001
00000010
00000001
00000000
00001000
00000100
00001000
00000000
00000100
00010000
00000100
00000000
00010000
00001000
00100000
00010000
,
00400000
00040000
00000000
00000000
00300000
00000000
00000000
00000000
40000000
00000000
00000000
00000000
30030000
00000000
00000000
00000000
,
10010000
00000000
10000000
01000000
01010000
00000000
00011000
00000000
,
00010100
00000000
00010000
00000100
00000110
00000000
00000011
00000000
,
00001100
00000000
00010100
00010000
00001000
00100000
00110000
00000000
,
11000000
00000000
00010000
10000000
10000000
00010000
10000000
00000000
,
10010000
00000000
10000000
00100000
00110000
00000000
01100000
00000000
,
01001000
00000000
00010000
00000010
00001020
00000000
00000001
00000000
,
00001030
00001100
00000110
00010000
,
00100000
00000000
01000000
10000000
10000000
01000000
00010000
00001000
,
00000100
00000010
00000001
00000010
00000100
00000001
00000010
00001000
,
00010000
01000000
00100000
01000000
10000000
01000000
00010000
00001000
,
00000100
00000010
00000100
00000001
00000100
00001000
00010000
00100000
,
10000000
01000000
00000000
00000000
01100000
00000000
00110000
00000000
,
01010000
00010000
01000000
00100000
00010000
00001000
00000100
00000010
,
00000100
00000001
00000010
00000100
00010000
01000000
00100000
00010000
,
10000000
01000000
00100000
00001000
00010000
00100000
10000000
00010000
,
40000000
00040000
00000000
00000000
00000000
00000000
00000000
00000000
00000000
00000000
00000000
00000000
00000000
00000000
30000000
00000000
,
20000000
00000000
00030000
00000000
,
30010000
00000000
10000000
01000000
10000000
00000000
01000000
00000000
00010000
00001000
00010000
00000000
00001000
00000000
00000000
00000000
,
00010000
00000000
01000000
00000000
00100000
00000000
00001000
00010000
00001000
00000000
00100000
00000000
01000000
00000000
10000000
00000000
,
00010000
00000000
00001000
00000000
00000001
00001000
00000001
00000010
,
00000001
00000000
00000100
00000000
00000010
00000000
00010000
00001000
00010000
00000000
00000010
00000000
00000100
00000000
00000001
00000000
,
00000010
00000000
00000000
00000000
00001000
00000000
00000000
00000000
01000000
00000000
00010000
01000000
00010000
00000000
00100000
00000000
,
01000000
00000000
10000000
00000000
00010000
00000000
01000000
00100000
01000000
00000000
00010000
00000000
10000000
00000000
01000000
00000000
,
00020000
00000200
00000010
00030300
,
00000001
00000000
00001000
00000000
00000010
00000000
00000100
00000001
00000100
00000000
00000010
00000000
00001000
00000000
00000100
00000000
,
00000020
00000230
00020000
00030301
,
00010000
00000100
00001000
00000100
00000010
00000001
00000100
00001000
,
00010000
01000000
00100000
01000000
00010000
00000100
00001000
00000100
,
00010000
00000000
01000000
00000000
00100000
00000000
00001000
00010000
00001000
00000000
00100000
00000000
01000000
00000000
00010000
00000000
,
00002000
02000000
10100000
03003000
,
00001000
01000000
00100000
00010000
01000000
00010000
00100000
10000000
,
01000000
00000000
00010000
00000000
00001000
00000000
00000010
00000000
00000001
00000000
00000100
00000001
00000100
00000000
00000000
00000000
,
00000001
00001000
00000100
00000001
00000010
00000001
00000100
00001000
,
00000001
00000000
00000100
00000000
00001000
00000000
00001000
00000000
00010000
00000000
00010000
00001000
00100000
00010000
00100000
00001000
,
00010000
00000000
00001000
00000000
00100000
00000000
01000000
10000000
01000000
00000000
00100000
00000000
00001000
00000000
00010000
00000000
,
00000010
00000100
00001000
00000010
00001000
00000100
00000010
00000000
,
00002000
00000000
00000000
00000000
00003010
00000000
00000100
00000001
00000100
00000000
00000010
00000000
00010000
00000000
00001000
00000000
,
00100000
00000000
01000000
00000000
00010000
00000000
00100000
00000000
00010000
00000000
01000000
00100000
01000000
00000000
00000000
00000000
,
10000000
00000000
00010000
00000000
01000000
00000000
00001000
00010000
00001000
00000000
01000000
00000000
00100000
00000000
00001000
00000000
,
00000010
00000000
00000100
00000000
00001000
00000000
00000010
00000000
00001000
00000000
00000100
00001000
00000100
00000000
00000010
00000000
,
00002000
00000000
00000000
00000000
00003100
00000000
00010000
00001000
00010000
00000000
00000100
00000000
00000010
00000000
00001000
00000000
,
00100000
00000000
01000000
00000000
00010000
00000000
00100000
00000000
00010000
00000000
01000000
00010000
01000000
00000000
00100000
00000000
,
00010000
00000000
10000000
01000000
10000000
00000000
01000000
00000000
00010000
00000000
00001000
00010000
00001000
00000000
00100000
00000000
,
01000000
00000000
00010000
01000000
00010000
00000000
00001000
00000000
00000100
00000000
00000010
00000100
00000001
00000000
00001000
00000000
,
00001001
00000000
00000000
00000000
;
