#TITLE:Raison d'être;
#SUBTITLE:~Intersection of Fates~;
#ARTIST:Zektbach;
#TITLETRANSLIT:;
#SUBTITLETRANSLIT:;
#ARTISTTRANSLIT:;
#CREDIT:Telperion;
#BANNER:Raison-d'être-bn.png;
#BACKGROUND:Raison-d'être-bg.png;
#LYRICSPATH:;
#CDTITLE:;
#MUSIC:Raison d'être.ogg;
#OFFSET:-1.301;
#SAMPLESTART:32.200;
#SAMPLELENGTH:24.000;
#SELECTABLE:YES;
#DISPLAYBPM:155.000:175.000;
#BPMS:0.000=155.000,80.000=87.500,84.000=175.000,116.000=87.500,132.000=175.000;
#STOPS:;
#BGCHANGES:;

//---------------dance-single - ----------------
#NOTES:
     dance-single:
     :
     Easy:
     3:
     0.302,0.320,0.229,0.084,0.000:
0000
0000
0000
0000
,
0000
0000
0000
0000
,
1000
0001
1000
0001
,
0100
0010
0100
0010
,
1000
0001
1000
0001
,
1000
0100
1000
0100
,
0010
0001
0010
0001
,
0100
0001
0100
0001
,
0110
0000
0000
0000
,
1001
0000
0000
1001
,
0110
0000
0000
0000
,
0110
0000
0110
0000
,
0001
0010
0100
1000
,
0001
0010
0100
1000
,
0010
0100
0001
1000
,
0010
0100
0001
1000
,
1001
0000
0000
0000
,
1001
0000
0000
0110
,
1001
0000
0000
0000
,
1001
0000
0000
0110
,
1001
0100
0010
0100
,
1000
0010
0100
0001
,
1000
0010
0100
0001
,
0010
0001
0100
0001
,
0010
0001
0100
0001
,
1000
0010
0100
0001
,
1000
0010
0100
0001
,
0010
0001
0100
0001
,
0010
0001
0100
0001
,
2000
0010
0000
0100
,
0000
0001
3000
0100
,
0010
0200
1000
0000
,
0001
0000
1300
0100
,
0010
0100
1000
0100
,
0010
0100
1000
0100
,
0010
0001
0010
0100
,
0010
0001
0010
0100
,
1000
0010
0100
0010
,
1000
0010
0100
0010
,
1000
0001
0100
0001
,
1000
0001
0100
0001
,
1000
0000
0100
0000
,
0010
0000
0001
0000
,
0100
0000
0001
0000
,
1000
0000
0001
0000
,
1000
0000
0010
0000
,
0001
0000
0010
0000
,
0100
0000
1000
0000
,
0100
0000
0010
0000
,
1000
0001
1000
0001
,
1000
0100
1000
0100
,
1000
0010
1000
0010
,
0100
0010
0100
0010
,
0100
0001
0100
0001
,
0010
0001
0010
0001
,
1000
0001
1000
0001
,
0100
0010
0100
0010
,
0000
0110
0000
0110
,
0000
1001
0000
1001
,
0000
0110
0000
0110
,
0000
1001
0000
1001
,
0000
0110
0000
0011
,
0000
0101
0000
1100
,
0000
1010
0000
1010
,
0000
1100
0000
0101
,
0001
1000
0001
1000
,
0010
1000
0100
1000
,
0001
0100
0001
0100
,
0001
0010
0001
1000
,
0001
1000
0010
1000
,
0100
1000
0001
1000
,
0010
0100
0001
0100
,
1000
0100
0001
1001
,
0000
0000
0000
0000
,
0002
0000
0000
0000
,
2003
0000
0000
0000
,
3200
0000
0000
0000
,
0302
0000
0000
0000
,
0203
0000
0000
0000
,
0320
0000
0000
0000
,
0032
0000
0000
0000
,
2003
0000
0000
0000
,
3020
0000
0000
0000
,
0000
0000
0000
0000
,
0030
0000
0000
0000
;

//---------------dance-single - Copied from----------------
#NOTES:
     dance-single:
     Copied from:
     Beginner:
     1:
     0.106,0.188,0.099,0.030,0.000:
0000
0000
0000
0000
,
0000
0000
0000
0000
,
1000
0000
0000
0000
,
0001
0000
0000
0000
,
1001
0000
0000
0000
,
0010
0000
0000
0000
,
1000
0000
0000
0000
,
1000
0000
0000
0000
,
0001
0000
0000
0000
,
0001
0000
0000
0000
,
1000
0000
0000
0000
,
1000
0000
0000
0000
,
0020
0000
0000
0000
,
0030
0000
0000
0000
,
0020
0000
0000
0000
,
0030
0000
0000
0000
,
0200
0000
0000
0000
,
0300
0000
0000
0000
,
0200
0000
0000
0000
,
0300
0000
0000
0000
,
1001
0000
0000
0000
,
0110
0000
0000
0000
,
0010
0000
0000
0000
,
0010
0000
0000
0000
,
0000
0000
0000
0000
,
1001
0000
0000
0000
,
0001
0000
0000
0000
,
0001
0000
0000
0000
,
0000
0000
0000
0000
,
0100
0000
0010
0000
,
0001
0000
0010
0000
,
1000
0000
0001
0000
,
0100
0000
0001
0000
,
1000
0000
0000
0000
,
0001
0000
0000
0000
,
1001
0000
0000
0000
,
0000
0000
0000
0000
,
0010
0000
0000
0000
,
0100
0000
0000
0000
,
0110
0000
0000
0000
,
0000
0000
0000
0000
,
1000
0000
0000
0000
,
0100
0000
0000
0000
,
0010
0000
0000
0000
,
0001
0000
0000
0000
,
0001
0000
0000
0000
,
0100
0000
0000
0000
,
0010
0000
0000
0000
,
1000
0000
0000
0000
,
1000
0000
0000
0000
,
0100
0000
0000
0000
,
1100
0000
0000
0000
,
0000
0000
0000
0000
,
0010
0000
0000
0000
,
0001
0000
0000
0000
,
0011
0000
0000
0000
,
0000
0000
0000
0000
,
1000
0000
0000
0000
,
0001
0000
0000
0000
,
0100
0000
0000
0000
,
0010
0000
0000
0000
,
0010
0000
0000
0000
,
1000
0000
0000
0000
,
0100
0000
0000
0000
,
0010
0000
0000
0000
,
0001
0000
0000
0000
,
0100
0000
0000
0000
,
0010
0000
0000
0000
,
1000
0000
0000
0000
,
0001
0000
0000
0000
,
0001
0000
0000
0000
,
1000
0000
0000
0000
,
1000
0000
1000
0000
,
1000
0000
0000
0000
,
1001
0000
0000
0000
,
0110
0000
0000
0000
,
0101
0000
0000
0000
,
1100
0000
0000
0000
,
0001
0000
1000
0000
,
0001
0000
1000
0000
,
0001
0000
1000
0000
,
0001
0000
1000
0000
,
1001
0000
0000
0000
;

//---------------dance-single - ----------------
#NOTES:
     dance-single:
     :
     Medium:
     5:
     0.449,0.531,0.221,0.366,0.000:
0000
0000
0000
0000
,
0000
0000
0000
0000
,
1000
0000
0001
1000
0001
0000
0100
0000
,
0010
0000
1000
0100
1000
0000
0001
0000
,
0100
0010
1000
0010
,
0001
0010
1000
0010
,
0100
0001
0100
1000
,
0100
0001
0100
1000
,
1000
0000
0001
1000
0001
0000
0000
0000
,
1000
0000
0100
0010
0100
0000
0000
0000
,
0010
0000
1000
0100
1000
0000
0010
0000
,
0100
0000
0001
0010
0001
0000
0100
0000
,
0110
0000
0010
0100
0010
0000
0010
0000
,
1000
0000
0001
1000
0001
0000
1000
0000
,
1000
0000
0010
1000
0010
0000
0010
0000
,
0100
0000
0001
0100
0001
0000
0010
0000
,
0011
0001
1001
0001
,
0110
0010
1010
0010
,
0110
0100
1100
0100
,
0101
0100
1100
0100
,
0210
0000
0010
0300
0010
0100
0010
0100
,
0010
0010
1000
0010
,
0001
0010
0100
0001
,
0010
0010
0001
0010
,
1000
0010
0100
1000
,
0100
0100
0001
0100
,
1000
0100
0001
0010
,
0100
0100
0001
0100
,
1000
0100
0010
0001
,
0020
0230
2300
3002
,
0203
0320
2030
3200
,
0320
0230
0302
0203
,
2300
3020
0230
0320
,
1030
0001
0100
0010
,
1000
0000
0001
0100
0010
0000
1000
0100
,
0010
0001
0100
0010
,
1000
0000
0100
0000
0010
0000
0001
0100
,
0010
1000
0001
1000
,
0100
0000
1000
0100
1000
0000
0001
0000
,
0100
0010
0100
0001
,
0010
0100
1000
0100
0010
0001
0010
0100
,
0020
0000
2030
0000
,
3002
0000
0203
0000
,
0302
0000
2003
0000
,
3002
0000
0203
0000
,
0020
0000
0330
0000
,
0000
2200
3300
0000
,
0202
0000
0303
0000
,
0000
0220
0330
0000
,
0100
0000
1000
0000
0100
1000
0010
1000
,
0001
0100
0010
1000
,
0001
0000
0100
0000
0010
0100
0001
0100
,
0010
1000
0100
0010
,
0001
0000
0010
0000
0001
0100
0001
1000
,
0001
0010
0100
1000
,
0010
0000
1000
0000
0100
1000
0000
0100
,
1000
0010
0100
1000
,
0002
0103
0200
0310
,
0020
1030
2000
3100
,
0200
0310
0020
0031
,
0002
0103
0200
0301
,
0002
1003
2000
3100
,
0200
0310
0020
0031
,
0002
0103
0200
0010
,
0010
0001
0001
0310
,
0110
0000
0001
1000
0001
0000
0001
0000
,
0100
0000
0010
0100
0010
0000
0010
0000
,
1000
0000
0010
1000
0010
0000
0010
0000
,
0100
0000
0100
0001
0100
0000
0101
0000
,
0001
0010
0100
0010
0001
0010
0100
0010
,
0001
1000
0001
1000
,
0010
0100
0001
0100
0010
0100
0001
0100
,
0010
0100
0001
1000
,
2200
0000
0000
3300
,
1100
0100
1100
0100
,
0110
0010
0110
0010
,
0011
0001
0011
0001
,
1001
0001
1001
0001
,
0100
0010
1000
0100
,
0001
0100
1000
0010
,
0100
0010
1000
0001
,
0110
1001
0110
1001
,
0110
0000
0000
0000
;

//---------------dance-single - ----------------
#NOTES:
     dance-single:
     :
     Hard:
     7:
     0.552,0.688,0.526,0.366,0.114:
0000
0000
0000
0000
,
0000
0000
0000
0000
,
1000
0000
0000
0001
0000
0000
1000
0000
0001
0000
1000
0000
0001
0000
0000
0000
,
0100
0000
0000
0010
0000
0000
0100
0000
0010
0000
0100
0000
0010
0000
0000
0000
,
1000
0000
0000
0100
1000
0000
0100
1000
0100
0000
0100
0000
0000
0000
0000
0000
,
0010
0000
0000
0001
0010
0000
0001
0010
0001
0000
0001
0000
0000
0000
0000
0000
,
0100
0000
0000
0010
0100
0000
0010
0100
0010
0000
0010
0000
0000
0000
0000
0000
,
1000
0000
0000
0010
1000
0000
0010
1000
0010
0000
0010
0000
0000
0000
0000
0000
,
1001
0100
0010
0001
,
0100
1000
0000
0100
,
1001
0010
0100
1000
,
0010
0001
0000
0100
,
1001
0000
0001
1000
0000
0100
0000
1000
0001
0000
0001
0000
0000
0000
0000
0000
,
0010
0000
0100
0010
0000
0001
0000
0010
0100
0000
0100
0000
0000
0000
0000
0000
,
1000
0000
0100
0010
0000
0100
0000
1000
0100
0000
0100
0000
0000
0000
0000
0000
,
0010
0000
0001
0100
0000
0010
0000
1000
0100
0000
0200
0000
0000
0000
0000
0000
,
0301
0000
1000
0001
1000
0010
0000
0100
,
0010
0000
0100
0001
0010
0001
0000
0100
,
0110
0000
1000
0100
1000
0010
0000
0100
,
1000
0000
0100
0010
1000
0100
0010
0001
,
2000
0002
3003
0010
1200
0020
0330
0001
,
0110
0000
0000
0000
0011
0000
0000
0000
0000
0000
0100
0000
0000
0010
0000
0000
,
0002
0000
0000
0000
0200
0000
0000
0000
0303
0000
0000
1001
0000
0000
0000
0000
,
1000
0100
0020
0000
0001
0000
1000
0000
,
0032
1000
0010
1003
,
0110
0000
0000
0000
2200
0000
0000
0000
3300
0000
1000
0000
0000
0001
0000
0000
,
0020
0000
0000
0000
0002
0000
0000
0000
0033
0000
0000
1010
0000
0000
0000
0000
,
0010
0100
2000
0000
0100
0000
0001
0000
,
3200
1000
0001
1000
,
0301
0010
0000
0100
1000
0110
0000
0002
,
2000
0000
3003
0000
0110
0220
0000
0330
,
0202
0000
0303
0010
1100
2200
0000
3300
,
2002
0000
3003
0000
0110
1001
0000
0000
,
0110
0000
1000
0010
0100
0000
0100
0001
,
0010
0000
0100
1000
0100
0000
0010
0001
,
1000
0000
0000
0000
0100
0000
0010
0000
1000
0000
0000
0010
0000
0000
0001
0000
,
0010
0000
0100
0010
0100
0000
1000
0000
,
0210
0001
0010
1000
,
0320
0000
1030
0000
0100
0001
0010
0000
,
0220
0000
0000
0330
,
2002
0000
0000
3003
,
1000
0001
1000
0000
0000
0000
0100
0010
,
0001
0220
0330
0110
,
0001
1000
0001
0000
0000
0000
0100
0010
,
0001
2200
3300
1100
,
0011
2020
0000
0000
,
0000
0000
0000
0000
0000
0000
0000
0000
3030
0000
0000
0001
0000
0000
0100
0000
,
0010
0000
0000
1000
0000
0000
0100
0000
0010
0000
0000
1000
0000
0000
0010
0000
,
0001
0022
0000
0033
,
1000
0000
0201
0000
1300
0100
0000
0010
,
1000
0100
0000
0001
0000
0100
0000
1000
,
0010
0000
0021
0000
1030
0010
0000
0100
,
1000
0100
0000
0001
0000
0010
0000
0000
,
0100
0000
2020
0000
3030
0101
0000
0000
,
0002
0010
0000
1000
0000
0010
0003
1000
,
0100
0000
0011
0000
0010
0100
0000
1000
,
0000
0100
0000
0010
0001
0100
0010
1000
,
0100
0001
0010
1000
,
0010
0001
0100
1000
,
0100
0010
1000
0100
,
0001
0100
0010
0001
,
0100
1000
0100
0101
,
0011
0001
0100
1100
,
1010
0100
0010
0000
0011
0100
1000
0000
,
1100
0010
0100
0001
0100
0010
0100
1000
,
0100
1000
0010
0100
0010
0000
0110
0000
,
0010
0100
0001
1000
0100
0000
1100
0000
,
0100
1000
0100
0010
0001
0000
0101
0000
,
0001
0100
0010
0001
0010
0000
0110
0000
,
1000
1100
0001
0101
,
1000
1010
0001
0011
,
1100
0011
1010
0101
,
0011
0110
1010
0110
,
2002
0000
0000
3003
,
1001
0100
0010
0001
0000
0100
0010
0001
,
0010
0100
1000
0100
0000
0010
1000
0100
,
0010
0001
0000
0100
0000
0010
1000
0010
,
0100
0001
0010
0001
0000
0001
0100
0000
,
1010
0100
0010
1000
0000
0011
0000
1000
,
0100
0010
1000
0100
0000
1010
0000
0001
,
0010
0100
1000
0010
0000
0101
0000
0010
,
1100
0000
0010
0101
0000
1010
0000
0110
,
2002
0000
0000
0000
,
0000
0000
0000
0000
,
0000
0000
0000
0000
,
0000
0000
0000
0000
,
3003
0000
0000
0000
;

//---------------dance-single - ----------------
#NOTES:
     dance-single:
     :
     Challenge:
     9:
     0.724,0.819,0.305,0.473,0.339:
0000
0000
0000
0000
,
0000
0000
0000
0000
,
1000
0010
0000
0100
0000
0001
0000
0010
0100
0000
0100
0000
0000
0000
0000
0000
,
0001
0100
0000
0010
0000
0001
0000
0010
0100
0000
0100
0000
0000
0000
0000
0000
,
1000
0100
0000
0010
0000
0001
0000
0100
0010
0000
0010
0000
0000
0000
0000
0000
,
0001
1000
0000
0001
0000
0100
0010
0100
0010
0000
0010
0000
0000
0000
0000
0000
,
1000
0010
0000
0100
0000
0001
0010
0001
0010
0000
0010
0000
0000
0000
0000
0000
,
0100
0001
0000
0100
0000
1000
0100
1000
0100
0000
0100
0000
0000
0000
0000
0000
,
1001
0000
0100
0000
0010
0000
0100
0001
0010
0000
0010
0000
0000
0000
0100
0000
,
0011
0000
1000
0000
0000
0000
1000
0100
0001
0100
1000
0000
0000
0000
0101
0000
,
1010
0000
0101
0000
0000
0000
1000
0100
0010
0000
0100
0000
0000
0000
0100
0000
,
1010
0000
0001
0000
0000
0000
0001
0100
1000
0100
0001
0000
0000
0000
0000
0000
,
1010
0000
0000
0001
0100
0000
1000
0100
0010
0000
1000
0000
0000
0000
1000
0000
,
0011
0000
0000
0100
1000
0000
0100
0001
0010
0000
0001
0000
0000
0000
0001
0000
,
1100
0000
0000
0001
1000
0000
0001
1000
0010
0000
1000
0000
0000
0000
1000
0000
,
0101
0000
0000
0010
0001
0000
0100
0010
0001
0000
0010
0000
0000
0000
1000
0000
,
0100
0100
1000
0001
0010
0010
0000
0010
,
1000
1000
0100
0010
0001
0001
0010
0001
,
0011
0011
1000
0100
0010
0010
0000
0010
,
1000
0010
0001
0010
1000
0100
0001
0100
,
1000
0000
1010
0000
0000
0100
0001
0010
1000
0000
0011
0000
0000
0100
1000
0010
,
0100
0000
0010
0000
1000
0000
0010
0000
0100
0000
0001
0000
0000
0010
0000
0000
,
0001
0100
0010
1000
0100
0001
0100
1000
,
0010
0100
1000
0100
0002
1000
0000
0013
,
0001
0100
0020
1000
0000
0100
0000
1030
,
0100
0001
0100
0010
0001
1000
0100
0001
,
0200
0010
0000
0010
0300
0010
0001
1000
,
0100
0010
1000
0010
0001
0100
1000
0100
,
0010
0001
0020
1000
0000
0001
0030
1000
,
0002
0000
0000
0000
1003
0000
0001
0010
0200
0000
0002
0000
0003
0000
1300
0000
,
0022
0000
0000
0000
0033
0000
1000
0010
0200
0000
2000
0000
3000
0000
0301
0000
,
2000
0000
3010
0000
0200
0000
0301
0010
0200
0000
1300
0000
2000
0000
3001
0000
,
0001
0000
0010
0000
1000
0000
0010
0001
0100
0000
2002
0000
0000
0000
3003
0000
,
0010
0000
0100
0000
0001
0010
0000
0100
1000
0000
0010
0000
0100
1000
0000
0100
,
0010
0000
1000
0000
0010
0100
0000
0001
0010
0000
0100
0000
1000
0100
0000
0010
,
0001
0000
1000
0000
0001
0000
0010
0000
1000
0000
0000
0010
0000
0000
0001
0000
,
2010
0000
3000
0000
0001
1000
0000
0001
0100
0000
0010
0000
1000
0100
0000
0001
,
2000
3010
0200
1300
0020
0130
2000
3100
,
0002
0013
0200
0301
2000
3001
0200
1300
,
0020
0030
0002
0000
,
2000
0000
0000
3003
,
0201
0000
2000
0000
3300
0000
0010
1000
,
0100
0202
0303
1010
,
1200
0000
0002
0000
0303
0000
0010
1000
,
0100
0002
0010
1003
,
0200
0001
2300
3002
,
0023
0000
0000
0000
1000
0000
0000
0000
0031
0000
1000
0000
0000
0100
0000
0000
,
0001
0000
0000
0010
0000
0000
1000
0000
0200
0000
0000
0000
0001
0000
0000
0000
,
1300
0022
0033
0011
,
1000
0100
0001
0100
0000
1010
0000
0100
,
0010
0100
1000
0001
0010
1000
0001
0100
,
1000
0010
0001
0010
0000
1100
0000
0010
,
0100
0010
0001
1000
0100
0001
1000
0010
,
0001
0010
1000
0010
0000
0101
0000
0010
,
0100
1000
0100
0010
0001
0010
0100
1000
,
0100
0001
0010
0000
1000
1100
0000
0101
,
0000
0110
0000
0021
0000
1030
0000
0101
,
0010
0000
0000
0010
0001
0000
0000
0001
0100
0000
0000
0100
0010
0000
0000
0010
,
0001
0000
0000
0001
0010
0000
0000
0010
0100
0000
0000
0100
0001
0000
0010
0000
,
1000
0000
0000
1000
0010
0000
0000
0010
0100
0000
0000
0100
1000
0000
0000
1000
,
0010
0000
0000
0010
0001
0000
0000
0001
0010
0000
0000
0010
1000
0000
0100
0000
,
0010
0000
0000
0010
0100
0000
0000
0100
0010
0000
0000
0010
1000
0000
0000
1000
,
0100
0000
0000
0100
0010
0000
0000
0010
0001
0000
0000
0001
1000
0000
0001
0000
,
1000
0000
0010
0000
1000
0010
1000
0000
0001
0000
0100
0000
0001
0100
0001
0000
,
1000
0000
0100
0000
1000
0100
1000
0000
0001
0000
0010
0001
0010
0001
0010
0001
,
0010
0020
0130
0200
0310
0020
0031
0002
,
0103
0200
1300
2000
3100
0200
0301
0002
,
0013
0020
0130
0200
1300
2000
3100
0200
,
0301
0002
1003
2000
3001
0001
1001
0000
,
0010
0100
1010
0000
0001
0100
1010
0000
,
1000
0100
0011
0000
0100
1000
0011
0000
,
1000
0001
0110
0000
0001
1000
0110
0000
,
0001
0100
1000
0001
0010
0001
1000
0202
,
0000
0000
0000
0303
,
1000
0100
0010
1000
0100
0010
0100
0001
,
0001
1000
0100
0001
0100
0010
0001
0100
,
0100
1000
0010
0001
0010
0100
1000
0100
,
0100
1000
0001
0010
0001
1000
0100
0010
,
0010
1000
0100
0001
1000
0010
0001
1000
,
1000
0010
0001
0010
0100
1000
0001
0010
,
0010
1000
0010
0100
0001
0010
0100
1000
,
1000
0010
0001
0001
1000
0100
0001
0001
,
2002
0000
0000
0000
,
0000
0000
0000
0000
,
0000
0000
0000
0000
,
0000
0000
0000
0000
,
3003
0000
0000
0000
;

//---------------dance-double - ----------------
#NOTES:
     dance-double:
     :
     Easy:
     3:
     0.290,0.320,0.244,0.091,0.000:
00000000
00000000
00000000
00000000
,
00000000
00000000
00000000
00000000
,
10000000
00000000
00010000
10000000
,
01000000
00000000
00100000
01000000
,
10000000
00000000
01000000
00000000
,
00010000
00000000
00001000
00000000
,
00000100
00000000
00000001
00000000
,
00000010
00000000
00000100
00000000
,
00001001
00000000
00000000
00000000
,
00000110
00000000
00000000
00011000
,
00011000
00000000
00000000
00000000
,
01100000
00000000
01100000
00000000
,
00010000
00100000
00010000
01000000
,
00010000
00100000
00010000
01000000
,
00001000
00100000
00001000
01000000
,
00001000
00100000
00001000
01000000
,
00011000
00000000
00000000
00000000
,
10010000
00000000
00000000
01100000
,
10010000
00000000
00000000
00000000
,
00011000
00000000
00000000
00000110
,
00001001
00000000
10010000
00000000
,
10000000
00100000
10000000
00100000
,
01000000
00010000
01000000
00010000
,
00100000
00001000
00100000
00001000
,
00010000
00000100
00010000
00000100
,
00010000
00001000
00010000
00001000
,
00010000
00000100
00010000
00000100
,
00001000
00000010
00001000
00000010
,
00000100
00000001
00000100
00000001
,
00000200
00000010
00000000
00000001
,
00000000
00000010
00000000
00000301
,
00000010
00002000
00010000
00000000
,
00100000
00000000
00013000
01000000
,
00100000
10000000
00100000
01000000
,
00100000
10000000
00100000
01000000
,
00001000
00100000
00010000
00100000
,
00001000
00100000
00010000
00100000
,
00001000
01000000
00001000
00010000
,
00001000
01000000
00001000
00010000
,
00000100
00001000
00000010
00001000
,
00000100
00001000
00000010
00001000
,
00000001
00000000
00000100
00000000
,
00000010
00000000
00010000
00000000
,
00001000
00000000
01000000
00000000
,
00100000
00000000
10000000
00000000
,
01000000
00000000
00100000
00000000
,
00001000
00000000
00010000
00000000
,
00000100
00000000
00010000
00000000
,
00000010
00000000
00000100
00000000
,
00000010
00000100
00000010
00000100
,
00000010
00001000
00000010
00001000
,
00000001
00001000
00000001
00001000
,
00000100
00010000
00000100
00010000
,
00001000
01000000
00001000
01000000
,
00010000
00100000
00010000
00100000
,
00010000
10000000
00010000
10000000
,
00100000
10000000
00100000
10000000
,
00100000
01100000
00000000
01100000
,
00000000
10010000
00000000
10010000
,
00000000
01010000
00000000
01010000
,
00000000
00101000
00000000
00101000
,
00000000
00011000
00000000
00011000
,
00000000
00010100
00000000
00010100
,
00000000
00001010
00000000
00001010
,
00000000
00001001
00000000
00001001
,
00000001
00000010
00000100
00001000
,
00000001
00000010
00000100
00000000
,
00010000
00001000
01000000
00001000
,
00100000
00001000
00010000
00000000
,
00100000
01000000
10000000
00010000
,
00100000
01000000
10000000
00000000
,
00001000
00010000
00000100
00010000
,
00000010
00010000
00001000
00011000
,
00000000
00000000
00000000
00000000
,
20000000
00000000
00000000
00000000
,
30200000
00000000
00000000
00000000
,
02300000
00000000
00000000
00000000
,
03002000
00000000
00000000
00000000
,
00023000
00000000
00000000
00000000
,
00030020
00000000
00000000
00000000
,
00000230
00000000
00000000
00000000
,
00000302
00000000
00000000
00000003
,
00002002
00000000
00000000
00000000
,
00000000
00000000
00000000
00000000
,
00003003
00000000
00000000
00000000
;

//---------------dance-double - ----------------
#NOTES:
     dance-double:
     :
     Medium:
     6:
     0.460,0.544,0.290,0.381,0.000:
00000000
00000000
00000000
00000000
,
00000000
00000000
00000000
00000000
,
00010000
00000000
00001000
00010000
00001000
00000000
01000000
00000000
,
00100000
00000000
10000000
01000000
10000000
00000000
00010000
00000000
,
01000000
00100000
10000000
00100000
,
00010000
00100000
10000000
00100000
,
01000000
00010000
01000000
10000000
,
01000000
00010000
01000000
10000000
,
00010000
00000000
01000000
00001000
01000000
00000000
00000000
00000000
,
00001000
00000000
00010000
00000100
00010000
00000000
00000000
00000000
,
00001000
00000000
00010000
00001000
00010000
00000000
00000010
00000000
,
00000100
00000000
00000001
00000010
00000001
00000000
00001000
00000000
,
00001001
00000000
00000001
00001000
00000001
00000000
00000010
00000000
,
00001000
00000000
00010000
00000100
00010000
00000000
00000010
00000000
,
00000100
00000000
00000001
00000010
00000001
00000000
00000100
00000000
,
00000010
00000000
00010000
00001000
00010000
00000000
00001000
00000000
,
00011000
00010000
00110000
00100000
,
01100000
01000000
01001000
00001000
,
00101000
00100000
00110000
00010000
,
00010100
00000100
00000110
00000010
,
00000210
00000000
00000010
00000300
00000010
00000100
00000010
00000100
,
00000010
00000100
00001000
00000001
,
00000010
00000100
00010000
00000010
,
00000100
00001000
00010000
00001000
,
00100000
00010000
10000000
00000000
,
01000000
00100000
00010000
10000000
,
01000000
00100000
00001000
01000000
,
00100000
00010000
00001000
00010000
,
00000100
00010000
00001000
00010000
,
00002000
02003000
03020000
00230000
,
02300000
23000000
30200000
02300000
,
03002000
00203000
00300200
00020300
,
00030020
00002030
00003002
00000203
,
00000310
00000100
00000001
00000010
,
00000100
00000000
00010000
00001000
00010000
00000000
00001000
00010000
,
00001000
00100000
01000000
10000000
,
00100000
00000000
01000000
00000000
00001000
00000000
00010000
00001000
,
00010000
00000100
00010000
00001000
,
01000000
00000000
00001000
00010000
00001000
00000000
00010000
00000000
,
01000000
00100000
01000000
10000000
,
00100000
01000000
00010000
01000000
00001000
01000000
00010000
01000000
,
00200000
00000000
20300000
00000000
,
30020000
00000000
02030000
00000000
,
03002000
00000000
00203000
00000000
,
00320000
00000000
02030000
00000000
,
00200000
00000000
03300000
00000000
,
00000000
02002000
03003000
00000000
,
00022000
00000000
00033000
00000000
,
00000000
00020200
00030300
00000000
,
00000100
00000000
00001000
00000000
00000010
00001000
00000100
00001000
,
00000010
00000100
00000001
00000010
,
00000100
00000000
00010000
00000000
00001000
00100000
00001000
00010000
,
00001000
00100000
01000000
00010000
,
00011000
00000000
00011000
00000000
00010000
00001000
00010000
00000100
,
00010000
00000010
00000100
00000001
,
00000010
00000000
00000100
00000000
00010000
00001000
00000000
00010000
,
00001000
00100000
00010000
01000000
,
00020000
01030000
02000000
03100000
,
00200000
10300000
20000000
31000000
,
02000000
03100000
00200000
00301000
,
00002000
01003000
02000000
03010000
,
00020000
00130000
00200000
00301000
,
00002000
00013000
00020000
00030010
,
00000020
00001030
00002000
00000010
,
00000010
00000001
00000001
00003010
,
00001010
00000000
00000010
00001000
00000010
00000000
00001000
00000000
,
00000001
00000000
00000010
00000100
00000010
00000000
00000100
00000000
,
00001000
00000000
00000100
00010000
00000100
00000000
00010000
00000000
,
00001000
00000000
01000000
00010000
01000000
00000000
01010000
00000000
,
00010000
00100000
01000000
00100000
00010000
00100000
01000000
00100000
,
00010000
10000000
00001000
00010000
,
00000100
00010000
00001000
00010000
00000010
00010000
00001000
00010000
,
00000100
01000000
00001000
00010000
,
00022000
00033000
00000000
00000000
,
11000000
01000000
11000000
01000000
,
01100000
00100000
01100000
00100000
,
00110000
00010000
00110000
00010000
,
00011000
00001000
00011000
00001000
,
00001010
00000010
00001010
00000010
,
00000110
00000100
00000110
00000100
,
00000101
00000101
00000011
00000011
,
00001100
00010010
00001100
00000010
,
00022000
00000000
00000000
00000000
,
00000000
00000000
00000000
00000000
,
00033000
00000000
00000000
00000000
;

//---------------dance-double - ----------------
#NOTES:
     dance-double:
     :
     Hard:
     8:
     0.510,0.590,0.503,0.099,0.114:
00000000
00000000
00000000
00000000
,
00000000
00000000
00000000
00000000
,
00001000
00000000
00000000
00010000
00000000
00000000
00001000
00000000
01000000
00000000
00001000
00000000
00010000
00000000
00000000
00000000
,
00010000
00000000
00000000
00001000
00000000
00000000
00010000
00000000
00000100
00000000
00010000
00000000
00001000
00000000
00000000
00000000
,
00010000
00000000
00000000
00010000
01000000
00000000
10000000
01000000
10000000
00000000
01000000
00000000
00000000
00000000
00000000
00000000
,
00100000
00000000
00000000
00100000
00010000
00000000
00100000
00001000
00100000
00000000
00010000
00000000
00000000
00000000
00000000
00000000
,
00100000
00000000
00000000
00100000
00001000
00000000
00010000
00000100
00010000
00000000
00010000
00000000
00000000
00000000
00000000
00000000
,
00001000
00000000
00000000
00001000
00010000
00000000
00000100
00000010
00000100
00000000
00010000
00000000
00000000
00000000
00000000
00000000
,
00001100
00000010
00000001
00000100
,
00001000
00010000
00000000
00001000
,
00110000
10000000
01000000
00010000
,
00001000
00000100
00000001
00000010
,
00000100
00000000
00001000
00000001
00000000
00000010
00000000
00000001
00001000
00000000
00001000
00000000
00000000
00000000
00000000
00000000
,
00000100
00000000
00000010
00000100
00000000
00001000
00000000
00000100
00000010
00000000
00000010
00000000
00000000
00000000
00000000
00000000
,
00000001
00000000
00001000
00000100
00000000
00010000
00000000
00000100
00001000
00000000
00001000
00000000
00000000
00000000
00000000
00000000
,
00000100
00000000
00010000
00001000
00000000
00100000
00000000
00010000
01000000
00000000
01000000
00000000
00000000
00000000
00000000
00000000
,
00010000
00000000
10000000
00010000
10000000
00100000
00000000
01000000
,
00001000
00000000
00100000
00001000
00010000
00001000
00000000
00100000
,
01001000
00000000
01000000
00001000
00010000
00000100
00000000
00001000
,
00000010
00000000
00000100
00000001
00000010
00000100
00000010
00000001
,
00001000
00000100
00000000
00100000
00011000
00100000
00000000
00000100
,
00011000
00000000
00000000
00000000
00110000
00000000
00000000
00000000
00000000
00000000
01000000
00000000
00000000
00100000
00000000
00000000
,
00010000
00000000
00000000
00000000
01001000
00000000
00000000
00000000
00000000
00000000
00000000
00010100
00000000
00000000
00000000
00000000
,
00001000
01000000
00100000
00000000
00010000
00000000
00001000
00000000
,
00010000
00000100
00000010
00000100
,
00101000
00000000
00000000
00000000
00010010
00000000
00000000
00000000
00000000
00000000
00000100
00000000
00000000
00010000
00000000
00000000
,
00100000
00000000
00000000
00000000
00010000
00000000
00000000
00000000
00000000
00000000
00000000
00001100
00000000
00000000
00000000
00000000
,
00000010
00000001
00000100
00000000
00001000
00000000
00000100
00000000
,
00000001
00000010
00000100
00001000
,
00010000
00100000
00000000
01000000
10000000
01100000
00000000
00010000
,
00001000
00000000
00000000
00000000
00000011
00010100
00000000
00000000
,
00001000
00010100
00000000
00100000
11000000
00101000
00000000
00000000
,
00011000
00000000
00000000
00000000
01000100
00011000
00000000
00000000
,
01100000
00000000
10000000
00100000
01000000
00000000
01000000
00010000
,
00100000
00000000
01000000
00010000
00001000
00000000
00010000
00001000
,
00000100
00000000
00001000
00000000
00010000
00000000
00001000
00000000
00000100
00000000
00000000
00000001
00000000
00000000
00000010
00000000
,
00001000
00010000
00101000
00010000
,
00002100
00003010
00000100
00001000
,
00010000
00000000
01000000
00000000
00010000
00001000
01000000
00000000
,
00220000
00000000
00330000
00000000
,
02002000
00000000
03003000
00000000
,
00010000
00001000
00010000
00000000
00000000
00000000
01000000
00100000
,
00010000
01001000
00000000
00010100
,
00100000
01000000
00100000
00000000
00000000
00000000
00001000
00000100
,
00000010
00000101
00000000
00010010
,
00011000
00022000
00000000
00000000
,
00000000
00000000
00000000
00000000
00033000
00000000
00000000
00000000
00000000
00000000
00000000
00000100
00000000
00000000
01000000
00000000
,
00010000
00000000
00000000
10000000
00000000
00000000
01000000
00000000
00100000
00000000
00000000
00001000
00000000
00000000
00010000
00000000
,
00000010
00022000
00033000
00000000
,
10000000
00000000
01010000
00000000
10000000
01000000
00000000
00100000
,
00001000
01000000
00000000
00010000
00000000
00001000
00000000
00000100
,
00000010
00000000
00001100
00000000
00000000
00000010
00000000
00000100
,
00001000
00000100
00000000
00000001
00000000
00000010
00000000
00000000
,
00001000
00000000
00000011
00000000
00000000
00010100
00000000
00000000
,
00010000
00001000
00000000
00100000
00000000
00010000
00000000
10000000
,
01000000
00000000
00110000
00000000
00100000
01000000
00000000
00101000
,
00000000
01000000
00000000
00100000
10000000
01000000
00100000
00001000
,
00010000
00000100
00010000
00000010
,
00000100
00001000
00000100
00000010
,
00001000
00000100
01000000
00010000
,
00100000
01000000
10000000
00100000
,
00010000
00001000
00010000
01000000
,
10000000
00100000
00010000
00001000
,
00000100
00001010
00000001
00001100
,
00000010
00010000
00001000
00100000
00010000
00100000
01000000
10000000
,
01000000
00100000
00010000
01000000
00100000
00000000
01100000
00000000
,
00100000
01000000
00001000
00010000
00000100
00000000
00011000
00000000
,
00000100
00010000
00000010
00001000
00000100
00000000
00001010
00000000
,
00000100
00000001
00000010
00000100
00001000
00000000
00011000
00000000
,
00100000
00110000
00000010
00001010
,
00010000
00010100
00001000
01010000
,
00110000
01001000
00001100
00010010
,
00001001
00000110
00001100
00000101
,
00020020
00000000
00000000
00030030
,
00010000
00000100
00000010
00000001
00000000
00000100
00000010
00000001
,
00000010
00000100
00001000
00010000
00000000
00100000
10000000
01000000
,
00100000
00001000
00000000
01000000
00000000
00000100
00010000
00001000
,
00100000
00001000
01000000
00100000
00000000
01000000
10000000
00000000
,
00110000
01000000
00100000
00010000
00000000
01001000
00000000
00010000
,
01000000
10000000
01000000
00100000
00000000
01010000
00000000
00010000
,
00001000
00000100
00000010
00001000
00000000
00001010
00000000
00000100
,
00110000
00000000
00010000
01001000
00000000
00010010
00000000
00101000
,
00022000
00000000
00000000
00000000
,
00000000
00000000
00000000
00000000
,
00000000
00000000
00000000
00000000
,
00000000
00000000
00000000
00000000
,
00033000
00000000
00000000
00000000
;

//---------------dance-double - ----------------
#NOTES:
     dance-double:
     :
     Challenge:
     9:
     0.694,0.787,0.374,0.297,0.274: // measure 1
00000000
00000000
00000000
00000000
,  // measure 2
00000000
00000000
00000000
00000000
,  // measure 3
10000000
00100000
00000000
01000000
00000000
00010000
00000000
00100000
01000000
00000000
10000000
00000000
10000000
00000000
10000000
00000000
,  // measure 4
00010000
01000000
00000000
00100000
00000000
10000000
00000000
01000000
00100000
00000000
00010000
00000000
00010000
00000000
00010000
00000000
,  // measure 5
11000000
00000000
00000000
00100000
01000000
00000000
00010000
00001000
00000010
00000000
00000001
00000000
00000000
00000000
00000000
00000000
,  // measure 6
00000101
00000000
00000000
00000010
00000100
00000000
00001000
00010000
00100000
00000000
10000000
00000000
00000000
00000000
00000000
00000000
,  // measure 7
11000000
00000000
00000000
00100000
01000000
00000000
00010000
00001000
00000010
00000000
00000001
00000000
00000000
00000000
00000000
00000000
,  // measure 8
00000101
00000000
00000000
00000010
00000100
00000000
00001000
00010000
00100000
00000000
10000000
00000000
00000000
00000000
00000000
00000000
,  // measure 9
00011000
00100000
01000000
10000000
00010000
00010000
00000000
00010000
,  // measure 10
00011000
00000010
00000100
00000001
00001000
00001000
00000000
01000100
,  // measure 11
00011000
01000000
00100000
10000000
01000000
01000000
00000000
00001000
,  // measure 12
00011000
00000100
00000010
00000001
00000100
00000100
00000100
00000100
,  // measure 13
00000100
00000001
00000000
00000100
00000000
00001000
00000000
00010000
01000000
00000000
10000000
00000000
00000000
00000000
10000000
00000000
,  // measure 14
00100000
10000000
00000000
01000000
00000000
00010000
00000000
00001000
00000100
00000000
00000001
00000000
00000000
00000000
00000001
00000000
,  // measure 15
00000100
00000001
00000000
00000010
00000000
00001000
00000000
00010000
00100000
00000000
10000000
00000000
00000000
00000000
10000000
00000000
,  // measure 16
01000000
10000000
00000000
00100000
00000000
00010000
00000000
00001000
00000010
00000000
00000001
00000000
00000100
00000000
00000010
00000000
,  // measure 17
00001000
00000100
00000100
00001000
00100000
01000000
00000000
00010000
,  // measure 18
10100000
01000000
00100000
00010000
01000000
00100000
00010000
00001000
,  // measure 19
00011000
01000000
01000000
10000000
10000000
00100000
00000000
00100000
,  // measure 20
01010000
00100000
00001000
00010000
00011000
00000100
00001000
00000010
,  // measure 21
00021000
00000000
00000100
00000000
00030000
00000010
00000100
00000001
00001200
00000000
00010000
00000300
00000000
00100000
01000000
00010000
,  // measure 22
00011000
00001000
01000000
10000000
01000000
00010000
01000000
10000000
,  // measure 23
01000000
00100000
00010000
00001000
00100000
00010000
00001000
01000000
,  // measure 24
00010000
00001000
00010000
00000010
00010000
00000100
00010000
00001000
,  // measure 25
01000000
00100000
10000000
01000000
00010000
00001000
01000000
00100000
,  // measure 26
00010000
00001000
00000010
00001000
00010000
00000100
00001000
00000010
,  // measure 27
00000100
00000010
00000001
00000010
00000100
00001000
01000000
00001000
,  // measure 28
00100000
00010000
01000000
00100000
10000000
01000000
00100000
00010000
,  // measure 29
10000000
01000000
00010000
01000000
00010000
00001000
00010000
00001000
,  // measure 30
00000200
00000000
00000320
00000000
00200030
00000000
00310000
01000000
,  // measure 31
00200000
00000000
20300000
00010000
30100000
02020000
00030000
00000000
,  // measure 32
03000200
00000000
00000320
00000000
00000032
00000103
00000000
00001010
,  // measure 33
00010200
00001000
00010000
01000300
00100010
00022000
00000000
00033000
,  // measure 34
00010000
00000000
10000000
00000000
01000000
00100000
00000000
00010000
10000000
00000000
01000000
00000000
00100000
00010000
00000000
01000000
,  // measure 35
00010000
00000000
00100000
00000000
00001000
00010000
00000000
00000100
00010000
00000000
00001000
00000000
00000010
00000100
00000000
00001000
,  // measure 36
00000100
00000010
00000001
00000100
00001000
00000100
00000010
00001000
,  // measure 37
00000100
00000000
00010000
00000000
00001000
00010000
00000000
00001000
00010000
00000000
01000000
00000000
00200000
00000000
10000000
00000000
,  // measure 38
01300000
00100000
00001000
01000000
10000000
01000000
00100000
00001000
,  // measure 39
00010000
01000000
00001000
00010000
00000100
00010000
00001000
00000010
,  // measure 40
00000100
00001000
00000010
00010000
00000100
00001000
00000010
00000200
,  // measure 41
00002000
00000000
00000000
00003300
,  // measure 42
00022000
00000000
00000000
00000000
00033000
00000000
00010000
00001000
,  // measure 43
00010000
22000000
33000000
00110000
,  // measure 44
00022000
00000000
00000000
00000000
00033000
00000000
00001000
00010000
,  // measure 45
00001000
00000202
00000303
00001010
,  // measure 46
00022000
00000000
00000000
00000000
00033000
00000000
01000000
00001000
,  // measure 47
00010000
00000000
00000000
00000000
00011000
00000000
00000000
00000000
00000000
00000000
00000010
00000000
00000000
00000001
00000000
00000000
,  // measure 48
00000100
00000000
00000000
00001000
00000000
00000000
00010000
00000000
01000000
00000000
00000000
10000000
00000000
00000000
00100000
00000000
,  // measure 49
00010000
00022000
00000000
00033000
,  // measure 50
00001000
00010000
00001000
00100000
01000000
00100000
00001000
00010000
,  // measure 51
00001000
01000000
00100000
10000000
02000000
00010000
00000000
13000000
,  // measure 52
00200000
00000000
01300000
00001000
00010000
00000100
00001000
00000010
,  // measure 53
00000100
00010000
00000100
00000010
00000001
00000010
00001000
00000100
,  // measure 54
00020000
00000000
00031000
00000100
00000010
00000100
00001000
00010000
,  // measure 55
00000100
00000010
00000001
00000010
00000200
00000001
00000000
00000310
,  // measure 56
00000002
00000000
00001003
00000100
00010000
00001000
00000000
00100000
,  // measure 57
00000000
01010000
00000000
00100000
00000000
11000000
00000000
00100000
,  // measure 58
00001000
00000000
00000000
00001000
00010000
00000000
00000000
00010000
01000000
00000000
00000000
01000000
10000000
00000000
00000000
10000000
,  // measure 59
00100000
00000000
00000000
00100000
10000000
00000000
00000000
10000000
01000000
00000000
00000000
01000000
00010000
00000000
00000000
00010000
,  // measure 60
00001000
00000000
00000000
00001000
01000000
00000000
00000000
01000000
00100000
00000000
00000000
00100000
00010000
00000000
00000000
00010000
,  // measure 61
00001000
00000000
00000000
00001000
00000010
00000000
00000000
00000010
00000100
00000000
00000000
00000100
00001000
00000000
00000001
00000000
,  // measure 62
00001000
00000000
00000000
00001000
00000100
00000000
00000000
00000010
00000001
00000000
00000000
00000100
00000010
00000000
00001000
00000000
,  // measure 63
00000100
00000000
00000000
00000100
00010000
00000000
00000000
00010000
00001000
00000000
00000000
00001000
00100000
00000000
00010000
00000000
,  // measure 64
01000000
00000000
00100000
01000000
00100000
00000000
00000000
00000000
10000000
00000000
01000000
00100000
01000000
00000000
00000000
00000000
,  // measure 65
10000000
01000000
00100000
00001000
00010000
00000010
00000100
00001000
,  // measure 66
00011000
00101000
00011000
00010010
,  // measure 67
00001000
00010000
00100000
10000000
01000000
00010000
00001000
01000000
,  // measure 68
00001000
00010100
00011000
01001000
,  // measure 69
00010000
00001000
00000010
00000100
00001000
00000000
00000010
00000100
,  // measure 70
00001000
01001000
00110000
01001000
,  // measure 71
00010000
00100000
01000000
00100000
00010000
00100000
01000000
00100000
,  // measure 72
00010000
00001010
00010100
00001010
,  // measure 73
00110000
00000000
00001100
00000000
00100000
01000000
10000000
00001000
,  // measure 74
00022000
00000000
00000000
00033000
,  // measure 75
00010000
10000000
01000000
00100000
00010000
01000000
10000000
01000000
,  // measure 76
01000000
10000000
00100000
00010000
00001000
00100000
00001000
00010000
,  // measure 77
00010000
00100000
00010000
01000000
00001000
00010000
00000100
00001000
,  // measure 78
00001000
00010000
00000010
00000100
00001000
00000100
00000010
00000001
,  // measure 79
00000001
00000010
00000000
00000100
00001000
00010000
00001000
00000100
,  // measure 80
00000100
00000010
00001000
00000100
01000000
00010000
10000000
00100000
,  // measure 81
00100000
00001000
00010000
00000100
00000010
00000001
00000100
00000010
,  // measure 82
00000010
00000100
00010000
01000000
10000000
10000000
00000000
00001000
,  // measure 83
00022000
00000000
00000000
00000000
,  // measure 84
00000000
00000000
00000000
00000000
,  // measure 85
00000000
00000000
00000000
00000000
,  // measure 86
00000000
00000000
00000000
00000000
,  // measure 87
00033000
00000000
00000000
00000000
;
