#TITLE:Programmed Universe;
#SUBTITLE:;
#ARTIST:kors k;
#TITLETRANSLIT:;
#SUBTITLETRANSLIT:;
#ARTISTTRANSLIT:;
#GENRE:Trance;
#CREDIT:Telperion restepping;
#BANNER:prog_uni-bn.png;
#BACKGROUND:prog_uni-bq.png;
#LYRICSPATH:;
#CDTITLE:!CDTitle.png;
#MUSIC:prog_uni.ogg;
#OFFSET:-0.329;
#SAMPLESTART:72.175;
#SAMPLELENGTH:19.499;
#SELECTABLE:YES;
#DISPLAYBPM:73.5:147;
#BPMS:0.000=147.000,
120.250=140.416,
120.500=134.127,
120.750=128.119,
121.000=122.381,
121.250=116.899,
121.500=111.663,
121.750=106.662,
122.000=101.885,
122.250=97.321,
122.500=92.962,
122.750=88.799,
123.000=84.821,
123.250=81.022,
123.500=77.393,
123.750=73.927,
124.000=70.616,
124.250=67.453,
124.500=64.432,
124.750=61.546,125.000=73.50
,141.000=147.00
;
#STOPS:
;
#BGCHANGES:;
#KEYSOUNDS:;
#ATTACKS:;

//---------------dance-single - ----------------
#NOTES:
     dance-single:
     :
     Challenge:
     11:
     0.779,1.000,0.192,0.440,1.000,526.000,21.000,48.000,55.000,0.000,3.000,0.779,1.000,0.192,0.440,1.000,526.000,21.000,48.000,55.000,0.000,3.000:
0000
0M00
0000
0000
,
0000
0M00
0000
0000
,
000M
0000
0M00
000M
0000
0000
000M
0000
,
0000
0M00
0000
0000
,
M00M
0M00
0000
0000
,
0000
0M00
0000
0000
,
000M
0000
0M00
000M
0000
0000
0000
0000
,
2002
0000
0000
0000
0000
0000
0003
3000
,
001M
0000
1000
0100
1000
0000
0001
0000
1000
0010
0100
0010
1000
0000
2020
0000
,
3030
0000
0001
1000
0001
0000
0010
0000
0100
1000
0000
1000
0002
0000
0023
0000
,
0030
0000
0001
0100
0001
0000
1000
0000
0001
0010
0100
0010
0001
0000
2002
0000
,
3003
0000
1000
0100
1000
0000
0001
0000
0000
0100
0000
0000
0020
0000
2030
0000
,
3000
0000
1000
0100
1000
0000
0001
0000
0100
0001
0010
0001
0100
0000
0220
0000
,
0330
0000
0000
0000
0000
0000
1000
0000
0000
0001
0000
0000
1000
0000
0000
0000
0000
0000
0100
0000
0010
0000
0001
0000
0010
0000
0000
0000
0000
0000
0100
0000
0000
0000
0000
0000
2000
0000
0000
0000
0000
0000
3002
0000
0000
0000
0000
0000
,
0013
0000
0001
0000
0100
0000
0010
0000
1000
0001
0010
0001
0100
0000
0210
0000
,
0301
0000
1000
0001
0000
0000
1000
0001
0000
0001
1000
0100
002M
0000
0000
0000
,
0130
1000
0000
0100
1000
0001
1000
0100
1000
0010
0000
0010
0200
0000
0302
0000
,
1003
0001
0010
0100
0000
0010
0001
1000
0001
0010
0000
0010
0200
0000
2300
0000
,
3100
1000
0100
1000
0010
0000
1000
0010
0100
0001
1000
0001
0100
0001
0020
0000
,
0130
1000
0100
0010
0000
0010
0100
1000
0001
0100
0001
0100
2000
0000
3400
0000
,
0310
0100
0010
0000
1000
0001
1000
0001
1000
0010
0100
0001
2000
0000
3002
0000
,
0013
0000
0000
0001
0000
0000
0010
0000
0000
0100
0000
0000
0000
0000
0000
0100
0000
0000
1000
0000
0100
0000
0010
0000
0001
0000
0000
0000
0000
0000
0100
0000
0000
0000
0000
0000
0020
0000
0000
0000
0000
0000
2030
0000
0000
0000
0000
0000
,
3010
0100
0000
0100
0001
1000
0100
0000
0010
0100
0000
0100
1000
0001
0100
0000
,
0010
0100
0010
0100
0002
1000
0003
0100
0001
0010
0400
0000
1300
0100
0010
0001
,
2M00
0000
3001
2000
0001
3000
0201
0000
,
0001
0001
0001
0001
,
0301
0001
0001
0001
,
0001
0000
0000
0000
,
1020
0000
0000
0000
0000
0000
0000
0000
0000
0000
0000
0000
0000
0000
0000
0000
0000
0000
0000
0000
0000
0000
0000
0030
0210
0000
0000
0000
0000
0000
0000
0000
0000
0000
0000
0000
0000
0000
0000
0000
0000
0000
0000
0000
0000
0000
0000
0300
0102
0000
0000
0000
0000
0000
0000
0000
0000
0000
0000
0000
0000
0000
0000
0000
,
0000
0000
0000
0000
,
0043
0000
0000
0000
,
0000
0000
0000
0000
0000
0000
0000
0000
0000
0000
0000
0000
0000
0000
0000
0000
M13M
0000
0000
0000
0000
0000
0000
0000
1000
0000
0000
0000
0001
0000
0000
0000
2MM2
0000
0000
0000
0000
0000
0000
0000
0000
0000
0000
0000
0000
0000
0000
0000
3000
0000
0000
0000
0103
0010
0100
0010
0100
0000
0000
0000
0001
0000
0000
0000
,
110M
0000
0000
0000
0000
0000
0000
0000
0000
0000
0000
0000
1000
0000
0000
0000
0000
0000
0000
0000
0000
0000
0000
0000
0020
0000
0000
0000
0000
0000
0000
0000
0000
0000
0000
0000
0000
0000
0000
0000
0000
0000
0000
0000
0000
0000
0000
0000
M031
0000
0000
0000
0000
0000
0000
0000
0000
0000
0000
0000
0010
0000
0000
0000
0000
0000
0000
0000
0000
0000
0000
0000
201M
0000
0000
0000
0000
0000
0000
0000
0000
0000
0000
0000
0000
0000
0000
0000
0000
0000
0000
0000
0000
0000
0000
0000
3M01
0000
0000
0000
0000
0000
0010
0000
0000
0000
0000
0000
0001
0000
0000
0000
0000
0000
0010
0000
0000
0000
0000
0000
0100
0000
0000
0000
0000
0000
0000
0000
0000
0000
0000
0000
1000
0000
0000
0000
0001
0000
0000
0000
1000
0000
0000
0000
0100
0000
0000
0010
0000
0000
0100
0000
0000
0010
0000
0000
0100
0000
0000
0000
0000
0000
0000
0000
0000
0000
0000
0000
0000
0000
0000
0000
0000
0000
0000
0000
0000
0000
0000
0000
100M
0000
0000
0000
0000
0000
0000
0000
0000
0000
0000
0000
,
101M
0000
M100
0010
0100
0001
0100
0001
10M0
0000
0000
0000
0001
0000
1000
0000
1MM1
0000
0000
0000
1000
0000
0200
0000
001M
0000
0000
0000
10M0
0000
0000
0000
,
M301
0000
0000
0000
0000
0000
0100
0000
1100
0000
0000
0000
0011
0000
0000
0000
0000
0000
0000
0000
1000
0001
1000
0001
1000
0000
0000
0000
0010
0000
0000
0000
M110
0000
0000
0000
0000
0000
0100
0000
0000
0000
0001
0000
0000
0000
0100
0000
0001
0000
0000
0000
1000
0001
1000
0001
1000
0000
0000
0000
0100
0000
0000
0000
,
1000
0000
0000
0000
2020
0000
0000
0000
0000
0000
0000
0000
0000
0000
0000
3000
013M
0000
0000
0000
0000
0000
0000
0000
0000
0000
0000
0000
0001
0000
0000
0000
0000
0000
0000
0000
0000
0000
0000
0000
0100
0000
0000
0000
0000
0000
0000
0000
0000
0000
0000
0000
0001
0000
0000
0000
0000
0000
0000
0000
0000
0000
0000
0000
,
1000
0000
0001
1000
0100
0000
0000
1000
0000
0000
0100
0000
0000
1000
0000
0001
,
1000
0001
0100
0000
0001
0000
0000
1000
0000
0000
0001
0000
0000
1000
0000
0010
,
1000
0001
1000
0100
0010
0000
0000
0100
0000
0000
0010
0000
0100
1000
0001
0010
,
0001
1000
0001
0100
0010
0000
1000
0010
0000
0010
0100
0000
0001
0100
0000
0010
,
1000
0001
0100
0001
0010
0000
0001
0010
0000
0010
0100
0000
1000
0001
0000
0010
,
0001
1000
0010
0100
0001
0000
0100
0000
0010
1000
0000
1000
0001
0000
0100
0000
,
0010
0000
0000
0000
1000
0000
0000
0000
0000
0000
0000
0000
1000
0000
0000
0000
0002
0000
0000
0000
0000
0000
0000
0000
0000
0000
0000
0000
0000
0000
0000
0003
0202
0000
0000
0000
0000
0000
0000
0000
0000
0000
0000
0000
0000
0000
0000
0303
2020
0000
0000
0000
0000
0000
0000
0000
0000
0000
0000
0000
0000
0000
0000
3030
,
0001
0010
0100
1000
0MM1
0000
1000
0001
0000
1000
0001
0000
0100
0010
0000
0010
,
1000
0000
0100
1000
0001
0010
0100
1000
0001
0010
0100
0010
1000
0010
0100
0010
,
0001
0000
1000
0010
1000
0000
0001
1000
0000
0001
1000
0000
0100
0010
0000
0010
,
0001
0000
1000
0001
1000
0010
0100
0001
1000
0010
0100
0010
1000
0001
0000
0001
,
0010
0100
1000
0001
0M10
0000
0100
0010
0000
0100
1000
0000
0001
0100
0000
0001
,
1000
0000
0010
1000
0010
0100
0001
0100
0001
1000
0100
0010
0001
1000
0001
0010
,
0000
0000
0100
0000
1000
0001
0100
0000
2000
0000
3100
0000
0001
0100
0001
1000
,
0000
0000
0000
1000
0000
0000
0010
0000
0000
0000
0000
0000
1000
0000
0000
0001
0000
0000
1000
0000
0000
0100
0000
0000
0010
0000
0000
0010
0000
0000
0010
0000
0000
0020
0000
0000
000M
0000
000M
0000
000M
0000
000M
0000
000M
0000
000M
0000
,
100M
0000
0130
0000
0110
0000
0000
0001
1000
0000
0001
0000
0100
0010
0100
0000
,
0001
0000
1000
0001
0100
0000
0010
0000
0100
0000
1000
0000
0100
0001
0000
0001
,
1000
0100
0010
0001
0010
0000
0000
0010
0001
0000
1000
0000
0010
0100
0010
0000
,
1000
0000
0001
1000
0001
0000
0010
0000
0100
0000
1000
0000
0100
0001
0000
0001
,
0100
1000
0001
0010
0001
0000
0000
1000
0001
0000
0001
0000
0100
0001
0000
0100
,
0010
0000
1000
0010
0100
0001
0100
0001
1000
0001
1000
0100
0010
0000
0000
0100
,
0000
0000
1000
0000
0001
0000
0001
0100
0000
0000
0100
0010
0000
0000
0010
1000
,
0000
0000
0000
0000
1000
0000
0001
0000
0000
0000
0000
0000
0010
0000
0001
0000
0010
0000
0100
0000
1000
0000
0100
0000
1000
0001
1000
0000
0100
0000
1000
0000
,
0010
0100
0001
0010
M200
0000
0000
M000
0000
0000
M000
0000
0000
M000
0000
0000
,
M300
0000
0000
M000
0000
0000
M000
0000
0000
M000
0000
0000
M000
0000
0000
0000
;

//---------------dance-double - ----------------
#NOTES:
     dance-double:
     :
     Challenge:
     10:
     0.673,1.000,0.192,0.431,0.660,446.000,21.000,47.000,23.000,0.000,2.000,0.673,1.000,0.192,0.431,0.660,446.000,21.000,47.000,23.000,0.000,2.000: // measure 0
00000000
000MM000
00000000
00000000
,  // measure 1
00000000
000MM000
00000000
00000000
,  // measure 2
0000000M
00000000
000MM000
0000000M
00000000
00000000
0000000M
00000000
,  // measure 3
00000000
000MM000
00000000
00000000
,  // measure 4
MMM00000
000MM000
00000000
00000000
,  // measure 5
00000000
000MM000
00000000
00000000
,  // measure 6
0000000M
00000000
000MM000
0000000M
00000000
00000000
0000000M
00000000
,  // measure 7
00022000
00000000
00000000
00033000
,  // measure 8
00100010
00000000
00010000
00000000
00001000
00000000
01000000
00000000
00001000
00000100
00000000
00000100
00000001
00000000
00000020
00000000
,  // measure 9
00000030
00000000
00000100
00001000
00000100
00000000
00010000
00000000
01000000
10000000
00000000
10000000
00200000
00000000
20300000
00000000
,  // measure 10
30000000
00000000
00010000
00000000
01000000
00000000
00001000
00000000
00010000
00000010
00001000
00000001
00000100
00000000
00000020
00000000
,  // measure 11
00000030
00000000
00001000
00000000
00000001
00000000
00010000
00000000
00000000
01000000
00000000
00000000
20000000
00000000
30200000
00000000
,  // measure 12
01300000
00000000
00010000
00000000
00100000
00000000
00001000
00000000
00010000
00000100
00001000
00000100
00010000
00000000
00000020
00000000
,  // measure 13
00000130
00000000
00000000
00000000
00000000
00000000
00000001
00000000
00000000
00001000
00000000
00000000
00000010
00000000
00000000
00000000
00000000
00000000
00010000
00000000
00001000
00000000
00010000
00000000
00001000
00000000
00000000
00000000
00000000
00000000
00010000
00000000
00000000
00000000
00000000
00000000
00200000
00000000
00000000
00000000
00000000
00000000
20300000
00000000
00000000
00000000
00000000
00000000
,  // measure 14
31000000
00000000
00010000
00000000
01000000
00000000
00010000
00000000
00000100
00001000
00000100
00010000
00000100
00000000
00000020
00000000
,  // measure 15
00000031
00000000
00000100
00000000
00001000
00000000
00010000
00000000
00100000
00000000
01000000
00100000
20000000
00000000
00000000
00000000
,  // measure 16
30010000
00100000
00010000
00000000
01000000
00000000
01010000
00000000
00000000
00011000
00000000
00000000
00001100
00000000
00000002
00000000
,  // measure 17
00001003
00000100
00000010
00001000
00000000
00000010
00000100
00000000
00010000
00000010
00000000
00010000
00001000
00010000
00000020
00000000
,  // measure 18
00001030
00000010
00001000
00000000
00001200
00000000
00000000
00000000
00000301
00000000
00000100
00000000
00001000
00000000
00020000
00000000
,  // measure 19
00130000
00010000
01000000
00100000
00000000
01000000
00010000
01000000
00001000
00010000
00001000
00010000
00000001
00000000
00040000
00000000
,  // measure 20
00031000
00010000
00001000
00000000
00010000
00000000
00000010
00000000
00001000
00000010
00000100
00000010
00001000
00000000
00000002
00000000
,  // measure 21
00001003
00000000
00000000
00000100
00000000
00000000
00001000
00000000
00000000
00000010
00000000
00000000
00000000
00000000
00000000
00000000
00000000
00000000
00010000
00000000
00001000
00000000
00010000
00000000
00001000
00000000
00000000
00000000
00000000
00000000
01000000
00000000
00000000
00000000
00000000
00000000
01200000
00000000
00000000
00000000
00000000
00000000
20300000
00000000
00000000
00000000
00000000
00000000
,  // measure 22
30010000
10000000
00000000
01000000
00100000
00010000
00100000
00000000
00001000
00010000
00000000
00000100
00001000
00000100
00000010
00000000
,  // measure 23
00000001
00000000
00000100
00000000
00001000
00010000
00000000
01000000
10000000
00010000
00200000
00000000
00310000
01000000
00010000
00100000
,  // measure 24
00002000
00000000
00013000
00002000
00010000
00003000
00010020
00000000
,  // measure 25
00010000
00010000
00010000
00010000
,  // measure 26
00010030
00010000
00010000
00010000
,  // measure 27
00010000
00000000
00000000
00000000
,  // measure 28
00001010
00000000
00000000
00010010
00000000
00000000
00012000
00000000
,  // measure 29
00000000
00000000
00000000
00000000
,  // measure 30
40003000
00000000
00000000
00000000
,  // measure 31
00000000
00000000
00000000
00000000
00000000
00000000
00000000
00000000
00000000
00000000
00000000
00000000
00000000
00000000
00000000
00000000
31000000
00000000
00000000
00000000
00000000
00000000
00000000
00000000
10000000
00000000
00000000
00000000
01000000
00000000
00000000
00000000
00210000
00000000
00000000
00000000
00000000
00000000
00000000
00000000
00000000
00000000
00000000
00000000
00000000
00000000
00000000
00000000
00300000
00000000
00000000
00000000
00001000
00010000
00001000
00010000
00001000
00000000
00000000
00000000
00010000
00000000
00000000
00000000
,  // measure 32
00002000
00000000
00000000
00000000
00003200
00000000
00000000
00000000
00000302
00000000
00000000
00000000
00000000
00000000
00000000
00000000
00000013
00000000
00000000
00000000
00000000
00000000
00000000
00000000
00000010
00000000
00000000
00000000
00000000
00000000
00000000
00000000
00000010
00000000
00000001
00000000
00000010
00000000
00000100
00000000
00001000
00000000
00000000
00000000
00000100
00000000
00000000
00000000
00010000
00001000
00010000
00001000
00010000
00000000
00000000
00000000
00000000
00000000
00000000
00000000
00000001
00000000
00000000
00000000
,  // measure 33
00001010
00000000
00001000
00000001
00001000
00000001
00001000
00000001
00000010
00000000
00000000
00000000
00000001
00000000
00000100
00000000
00001020
00000000
00000000
00000000
00000100
00000000
00000000
00000000
00010030
00000000
00000000
00000000
00010000
00000000
00000000
00000000
,  // measure 34
00010010
00000000
00000000
00000000
00000000
00000000
00010000
00000000
00001000
00000000
00000000
00000000
00022000
00000000
00000000
00000000
00033000
00000000
00000000
00000000
01000000
00001000
01000000
00001000
01000000
00000000
00000000
00000000
00010000
00000000
00000000
00000000
00100000
00000000
00000000
00000000
00000000
00000000
01000000
00000000
00000000
00000000
10000000
00000000
00000000
00000000
01000000
00000000
00100000
00000000
00000000
00000000
00010000
01000000
00010000
01000000
00010000
00000000
00000000
00000000
10000000
00000000
00000000
00000000
,  // measure 35
00100000
00120000
00000000
00000000
00032000
00000000
00000000
00000000
00000000
00000000
01000000
00000000
00000000
00000000
00000000
00000000
,  // measure 36
00010000
00000000
00010000
00000000
00000000
01000000
00000000
00000000
,  // measure 37
00023000
00000000
00001000
00000000
00000000
00000100
00000000
00000000
,  // measure 38
00032000
00000000
00010000
00000000
00000000
02003000
00000000
00000000
,  // measure 39
03100000
00000000
00000000
00000000
20000000
00000000
00000000
30200000
00000000
00000000
10000000
00000000
00000000
01300000
00000000
00000000
,  // measure 40
00010000
00000000
00100000
00000000
01200000
00000000
00000000
00302000
00000000
00000000
00013000
00000000
00011000
00000000
00000000
00000000
,  // measure 41
00010010
00000000
00000100
00000000
00000001
00000000
00000010
00000000
00000100
00010000
00000000
00001000
00010000
00000000
01000000
00000000
,  // measure 42
10000000
00010000
00000000
10000000
00200000
00000000
00000000
00000000
00300200
00000000
00000000
00000000
00000302
00000000
00000000
00000000
,  // measure 43
00000013
00000100
00001000
00000100
00000010
00000000
00000001
00001000
00000001
00000000
00001000
00000000
00000010
00000100
00000010
00001000
,  // measure 44
00000001
00000000
00001000
00000000
00000001
00000000
00001000
00000100
00010000
00000000
00001000
00100000
00010000
00000000
01000000
00001000
,  // measure 45
00010000
00000000
01000000
00100000
00010000
00000000
10000000
00000000
00010000
00000000
10000000
00000000
00100000
10000000
01000000
10000000
,  // measure 46
00010000
00000000
01000000
00000000
10000000
00000000
01000000
00000000
00010000
00000000
00000100
00000000
00000001
00000010
00000000
00000001
,  // measure 47
00000100
00000000
00000010
00001000
00000010
00000000
00001000
00000001
00001000
00000000
00000100
00000000
00000010
00000100
00000010
00000100
,  // measure 48
00000001
00000000
00001000
00000000
00000010
00000000
00001000
00000000
00010000
00000000
00100000
00000000
01000000
00000000
00100000
10000000
,  // measure 49
00000000
10000000
00010000
00000000
10000000
00100000
10000000
01000000
00020000
00000000
00000000
00000000
00031000
01000000
00001000
00010000
,  // measure 50
00000100
00001000
00000010
00000000
00000100
00000001
00000010
00000100
00100000
00001000
00010000
00002000
00000000
00000000
00000000
00000000
,  // measure 51
00100000
00000000
00013000
00000000
01001000
00000000
01000000
00010000
01000000
00000000
00010000
00000000
10000000
00100000
00000000
00000000
,  // measure 52
00010000
00001000
00001000
00100000
01000000
00010000
00000100
00000010
,  // measure 53
00001000
00000000
00010000
00000000
00000010
00000000
00000010
00001000
00000010
00000000
00000100
00000000
00000001
00001000
00000000
00000000
,  // measure 54
00000100
00000000
00010000
00000000
00010000
00000000
00001000
00000000
00000010
00000000
00001000
00000000
00010000
00100000
00000000
00100000
,  // measure 55
01000000
00000000
00010000
01000000
00010000
00000000
10000000
00010000
00000000
01000000
00010000
00000000
01000000
00001000
00000000
00010000
,  // measure 56
00000100
00000000
00000010
00000000
00001000
00000000
00000010
00000000
00000100
00000000
00001000
00000000
00000010
00000000
00000100
00000010
,  // measure 57
00000100
00000000
00000001
00000000
00001000
00000000
00000001
00001000
00000000
00000000
00000100
00010000
00000000
00000000
00001000
00100000
,  // measure 58
00000000
00000000
00010000
10000000
00000000
00000000
00100000
01000000
00010000
01000000
00001000
00000000
00010000
00001000
01000000
00010000
,  // measure 59
00100000
01000000
10000000
00100000
02000000
00000000
00000000
00000000
00000000
00000000
00000000
00000000
00000000
00000000
00000000
00000000
,  // measure 60
03000000
00000000
00000000
00000000
;
