#TITLE:Out Of Control;
#SUBTITLE:(Short Edit);
#ARTIST:Andy Hunter;
#TITLETRANSLIT:;
#SUBTITLETRANSLIT:;
#ARTISTTRANSLIT:;
#GENRE:;
#CREDIT:Telperion;
#BANNER:Out of Control-bn.png;
#BACKGROUND:Out of Control-bg.png;
#LYRICSPATH:;
#CDTITLE:;
#MUSIC:Out Of Control (Short Edit).ogg;
#OFFSET:-14.359;
#SAMPLESTART:58.798;
#SAMPLELENGTH:12.000;
#SELECTABLE:YES;
#DISPLAYBPM:135.000;
#BPMS:0.000=135.016;
#STOPS:;
#BGCHANGES:;
#KEYSOUNDS:;

//---------------dance-single - Blank----------------
#NOTES:
     dance-single:
     Blank:
     Challenge:
     10:
     0.789,0.658,0.899,0.360,0.420:
1000
0000
0001
0010
0001
0000
0010
0100
1000
0100
1000
0100
1000
0000
0100
0010
,
0001
1000
0010
1000
0010
0000
1000
0001
0100
0001
0100
0001
0100
0000
0010
0100
,
0001
0000
1000
0010
1000
0000
0010
0100
0001
0100
0001
0100
0001
0000
0100
0010
,
1000
0001
0010
0001
0010
0000
0001
0000
0100
0000
0100
0000
0100
0000
0100
0000
,
1001
0000
1000
0001
1000
0000
0001
0010
0100
0010
0001
0010
0100
0000
1000
0010
,
0100
0010
1000
0010
0100
0000
0001
0100
0010
0100
0001
0100
0010
0000
0100
0001
,
2000
0000
0200
0000
,
0002
0000
3313
MMMM
,
1000
0000
1001
0000
1001
0000
1000
0010
0100
0000
0110
0000
0110
0000
0100
0010
,
1000
0000
1100
0000
1100
0000
0100
0010
0001
0000
0101
0000
0101
0000
0001
0010
,
0100
0000
0110
0000
0110
0000
0100
1000
0010
0000
1010
0000
1010
0000
0010
0100
,
0001
0000
0011
0000
0011
0000
0010
0001
2000
0000
0001
0000
0001
0000
3001
0000
,
0001
0000
1010
0000
1010
0000
0010
1000
0100
0000
0110
0000
0110
0000
0010
0001
,
0100
0000
0110
0000
0110
0000
0010
1000
0001
1000
0100
1000
0001
0000
0010
0001
,
0100
0000
0110
0000
0110
0000
0010
1000
0100
0000
0101
0000
0101
0000
0100
1000
,
0010
0000
0011
0000
0011
0000
0010
1000
0002
0000
1000
0000
1000
0000
1003
0000
,
0002
1003
0200
1300
0001
1000
0100
0001
,
0020
0031
0200
0301
0010
0001
0100
1000
,
0020
1030
0200
1300
0001
1000
0100
0001
,
0020
0031
2000
3001
2000
0100
0100
3100
,
2000
3001
2000
3100
0010
0001
0100
1000
,
0200
0301
0200
0310
1000
0100
0001
0100
,
2000
3010
0200
0310
0001
0010
1000
0100
,
0002
0103
0020
0130
0002
1000
1000
1003
,
1001
0000
1000
0100
1000
0000
0100
1000
0100
0000
1000
0000
1100
0000
1010
0000
,
0101
0000
0001
0100
0001
0000
0100
0001
0100
0000
0001
0000
0101
0000
0011
0000
,
1100
0000
1000
0100
1000
0000
0010
0100
0010
0000
1000
0000
1100
0000
0110
0000
,
0101
0000
0001
0100
0001
0000
0010
0100
0010
0000
0001
0000
0101
0000
0110
0000
,
1100
0000
1000
0010
1000
0000
0100
1000
0100
0000
1000
0000
1010
0000
1100
0000
,
0101
0000
0001
0010
0001
0000
0100
0001
0100
0000
0001
0000
0011
0000
0101
0000
,
1100
0000
1000
0010
0100
0000
0010
1000
0100
0000
1000
0000
1100
0000
1001
0000
,
0101
0000
0001
0010
0100
0000
0010
0001
0100
0000
0001
0000
0101
0000
1001
0000
,
1100
0000
1000
0001
0010
0000
0001
1000
0010
0000
1000
0000
1010
0000
1001
0000
,
0101
0000
0001
1000
0010
0000
1000
0001
0010
0000
0001
0000
0011
0000
1001
0000
,
1100
0000
1000
0010
0100
0010
1000
0100
1000
0000
0010
0000
0110
0000
1100
0000
,
0101
0000
0001
0010
0100
0010
0001
0100
0001
0000
0010
0000
0110
0000
0101
0000
,
1100
0000
0001
0010
1000
0000
0010
0001
1000
0000
0010
0000
0011
0000
0110
0000
,
0101
0000
1000
0010
0001
0000
0010
1000
0001
0000
0010
0000
1010
0000
0110
0000
,
1100
2000
0010
3002
0100
0010
0203
1300
,
0101
0002
0010
2003
0200
0020
3331
MMMM
,
1111
0000
0000
0000
,
0000
0000
0000
0000
,
0000
0000
0101
0000
1200
0301
0000
1010
,
0000
0011
0000
1010
0000
0001
1010
0000
,
0000
0000
0110
0000
0011
1010
0000
1100
,
0000
0101
0000
0022
0000
0000
0000
0000
,
0033
0000
1001
0000
0011
1100
0000
0101
,
0000
0000
1010
0000
0000
0000
0011
0000
0000
0000
1000
0001
2002
0000
3003
0000
,
1000
0001
1001
1000
0100
0010
0110
0010
,
0001
1000
1001
1000
0010
0110
0110
0100
,
0001
1000
1001
0001
0100
0010
0110
0100
,
0001
1000
1001
1000
0100
0110
0110
0010
,
1000
0100
1000
0100
1000
0000
0100
0010
0001
0010
0001
0010
0001
0000
0010
0001
,
0100
0010
0100
0010
0100
0000
0010
1000
0100
0000
1100
0000
1001
0000
1100
0000
,
0001
0100
0001
0100
0001
0010
0001
0010
0100
1000
0100
1000
0010
1000
0010
1000
,
0002
0200
2000
3313
0010
M00M
0MM0
M00M
,
1000
0100
1000
0000
1100
0000
0100
0010
0001
0010
0001
0000
0011
0000
0010
0001
,
0100
1000
0100
0000
1100
0000
0100
0001
0010
0100
1000
0000
1100
0000
1100
0000
,
1000
0100
0010
0000
0110
0000
0010
0001
0100
0001
0010
0000
0011
0000
0010
0100
,
1000
0001
1000
0000
1001
0000
0001
0100
0010
0000
0010
0000
0010
0000
0010
0000
,
0001
1000
0001
0000
0101
0000
0100
0010
1000
0100
0001
0000
0101
0000
0100
1000
,
0010
0100
0001
0000
0101
0000
0100
0001
0010
0000
1010
0000
0011
0000
1010
0000
,
0002
0200
1313
0001
2000
0200
3311
0100
,
2000
0002
3013
0001
0020
0002
0200
2000
,
3333
0000
0000
0000
,
MMMM
0000
0000
0000
;

//---------------dance-double - ----------------
#NOTES:
     dance-double:
     :
     Challenge:
     10:
     0.798,0.658,0.907,0.412,0.427:
10000000
00000000
00010000
00100000
00010000
00000000
00100000
01000000
10000000
01000000
10000000
01000000
10000000
00000000
01000000
00100000
,
00010000
10000000
00100000
10000000
00100000
00000000
10000000
00010000
01000000
00010000
01000000
00010000
01000000
00000000
00100000
01000000
,
00010000
00000000
10000000
00100000
10000000
00000000
00100000
01000000
00010000
01000000
00010000
01000000
00010000
00000000
01000000
00100000
,
10000000
00010000
00100000
00010000
00100000
00000000
00010000
00000000
10000000
00000000
01000000
00000000
00010000
00000000
00001000
00000000
,
00000100
00000000
00000001
00001000
00000001
00000000
00001000
00000010
00000100
00000010
00001000
00000010
00000100
00000000
00000001
00000010
,
00000100
00000010
00000001
00000010
00000100
00000000
00001000
00000100
00000010
00000100
00001000
00000100
00000010
00000000
00000100
00000001
,
00000200
00000000
02000000
00000000
,
00022000
03033300
01011100
000MM000
,
01000100
00000000
00011000
00000000
00011000
00000000
00010000
00001000
01000000
00000000
01010000
00000000
01010000
00000000
00010000
00100000
,
01000000
00000000
11000000
00000000
11000000
00000000
10000000
00010000
00100000
00000000
00110000
00000000
00110000
00000000
00010000
00001000
,
00000100
00000000
00001100
00000000
00001100
00000000
00000100
00000010
00000001
00000000
00000011
00000000
00000011
00000000
00000001
00000100
,
00000010
00000000
00000110
00000000
00000110
00000000
00000100
00000001
00002000
00000000
00000001
00000000
00000001
00000000
00003002
00000000
,
00010003
00000000
00011000
00000000
00011000
00000000
00001000
00100000
01000000
00000000
01100000
00000000
01100000
00000000
00100000
00010000
,
01000000
00000000
01100000
00000000
01100000
00000000
00100000
00010000
00001000
00000100
00000001
00000100
00001000
00000000
00010000
00001000
,
00010000
00000000
00011000
00000000
00011000
00000000
00010000
00000001
00000100
00000000
00000101
00000000
00000101
00000000
00000100
00000001
,
00000010
00000000
00000011
00000000
00000011
00000000
00000010
00001000
00020000
00000000
00000010
00000000
00000010
00000000
00030020
00000000
,
00020030
00031000
20000000
30010000
01000000
00100000
00010000
00001000
,
00000200
00000301
00002000
00003001
00000010
00000100
00001000
00010000
,
00200000
00310000
20000000
31000000
00100000
01000000
00010000
00001000
,
00000200
00001300
00020000
00031000
00000020
00000100
00000100
00000130
,
00020000
00031000
00000200
00000301
00000010
00000100
00010000
00001000
,
00020000
01030000
20000000
31000000
01000000
00010000
00001000
00000100
,
00000002
00001003
00002000
00013000
00010000
00001000
00100000
01000000
,
00020000
00130000
02000000
03100000
00020000
10000000
10000000
10030000
,
10010000
00000000
10000000
01000000
10000000
00000000
01000000
10000000
01000000
00000000
10000000
00000000
11000000
00000000
10100000
00000000
,
01100000
00000000
00100000
01000000
00100000
00000000
01000000
00100000
01000000
00000000
00100000
00000000
01100000
00000000
01010000
00000000
,
00110000
00000000
00100000
00010000
00100000
00000000
00010000
00100000
00010000
00000000
00010000
00000000
00110000
00000000
00101000
00000000
,
00011000
00000000
00001000
00100000
00001000
00000000
00100000
00010000
00100000
00000000
00010000
00000000
00011000
00000000
00010100
00000000
,
00001100
00000000
00001000
00000010
00001000
00000000
00000100
00001000
00000100
00000000
00001000
00000000
00001100
00000000
00001010
00000000
,
00000110
00000000
00000010
00001000
00000010
00000000
00000100
00000001
00000100
00000000
00000010
00000000
00000110
00000000
00000101
00000000
,
00000011
00000000
00000010
00000001
00000100
00000000
00000010
00000100
00000001
00000000
00000010
00000000
00000011
00000000
00000101
00000000
,
00000110
00000000
00000010
00001000
00000100
00000000
00000010
00000001
00000100
00000000
00000010
00000000
00000110
00000000
00001100
00000000
,
00001010
00000000
00000010
00001000
00000001
00000000
00000010
00000001
00001000
00000000
00000010
00000000
00001010
00000000
00010100
00000000
,
00011000
00000000
00001000
00010000
00000010
00000000
00000100
00000010
00010000
00000000
00001000
00000000
00011000
00000000
01010000
00000000
,
00101000
00000000
00100000
00001000
00010000
00001000
00100000
00010000
00100000
00000000
00001000
00000000
00101000
00000000
01010000
00000000
,
10100000
00000000
10000000
00100000
01000000
00100000
10000000
01000000
10000000
00000000
00100000
00000000
01100000
00000000
01001000
00000000
,
00110000
00000000
00010000
00100000
10000000
00000000
00100000
00010000
00001000
00000000
00010000
00000000
00011000
00000000
00001010
00000000
,
00010100
00000000
00010000
00000100
00000001
00000000
00000001
00000100
00010000
00000000
00001000
00000000
00101000
00000000
01100000
00000000
,
11000000
00000000
10000000
01000000
00001000
00000000
00001000
01000000
00100000
00000000
00001000
00000000
00000200
00000000
00000301
00000000
,
00001001
00010100
00001010
00011000
00020200
00000020
00030302
00M00000
,
00010133
000M0M00
00000000
00000000
00000000
00000000
00000000
00000000
,
00000000
00000000
00000000
00000000
,
00000000
00000000
00011000
00000000
00020100
01030000
00000000
10100000
,
00000000
00101000
00000000
00001001
00000000
00000010
00001001
00000000
,
00000000
00000000
00000110
00000000
00000011
00001010
00000000
00101000
,
00000000
10100000
00000000
22000000
00000000
00000000
00000000
00000000
,
33000000
00000000
00110000
00000000
11000000
01010000
00000000
00010001
,
00000000
00000000
01010000
00000000
00000000
00000000
11000000
00000000
00000000
00000000
10000000
00001000
00022000
00000000
00033000
00000000
,
00010000
00001000
00011000
00010000
00000010
00000100
00000110
00000010
,
00010000
00000100
00010100
00000200
02000000
00010000
03010300
01000000
,
00001000
00100000
00110000
00010000
10000000
00100000
10100000
10000000
,
01000000
00010000
01010000
02000000
00200000
00001000
03301000
00000000
,
01000000
10000000
01000000
10000000
01000000
00000000
00100000
00010000
01000000
00010000
01000000
00010000
01000000
00000000
00100000
10000000
,
00001000
00010000
00001000
00010000
00001000
00000000
00100000
00000100
00001000
00000000
00010010
00000000
00001100
00000000
00010010
00000000
,
00001000
00000001
00001000
00000001
00010000
00000100
00010000
00000100
00100000
00001000
00100000
00001000
10000000
00010000
10000000
00001000
,
00020000
02000000
00100000
03031000
00101000
0M0M0000
00M00M00
0000M0M0
,
10000000
01000000
10000000
00000000
11000000
00000000
01000000
00100000
00010000
00100000
00010000
00000000
00110000
00000000
00100000
00010000
,
01000000
10000000
01000000
00000000
11000000
00000000
01000000
00010000
00100000
01000000
10000000
00000000
11000000
00000000
11000000
00000000
,
00010000
00001000
00000100
00000000
00001100
00000000
00001000
00000100
00000001
00000010
00000001
00000000
00000011
00000000
00000010
00000100
,
00001000
00000001
00001000
00000000
00001001
00000000
00000001
00010000
00001000
00000000
00001000
00000000
00001000
00000000
00001000
00000000
,
10000000
00010000
10000000
00000000
11000000
00000000
01000000
00100000
00010000
01000000
10000000
00000000
11000000
00000000
01000000
00100000
,
00010000
00001000
00000100
00000000
00001100
00000000
00001000
00000200
00000002
00000000
00000010
00000000
00000313
00000000
00000000
00000000
,
00000002
00000200
00001313
00000001
00020000
00000200
00031310
00010000
,
00002000
02000000
03113000
00002000
00203000
00020000
02000000
20000000
,
33330000
00000000
00000000
00000000
,
MMMM0000
00000000
00000000
00000000
;

//---------------dance-single - Blank----------------
#NOTES:
     dance-single:
     Blank:
     Hard:
     8:
     0.515,0.487,0.337,0.180,0.116: // measure 1
1000
0000
0001
0010
0001
0000
1000
0010
1000
0000
0100
0000
0010
0000
0100
0000
,  // measure 2
1000
0000
0001
0100
0001
0000
0010
0100
0010
0000
0001
0000
0100
0000
0010
0000
,  // measure 3
1000
0000
0100
0010
0100
0000
1000
0100
1000
0000
0010
0000
1000
0000
0001
0000
,  // measure 4
0100
0000
0001
0100
0001
0000
0010
0001
0100
0000
0010
0000
0010
0000
0010
0000
,  // measure 5
0010
0000
1000
0010
1000
0000
0100
1000
0100
0000
0010
0100
0010
0000
0001
0010
,  // measure 6
0001
0000
0100
0001
0100
0000
0010
0100
0010
0000
1000
0010
1000
0000
0100
0010
,  // measure 7
0002
0000
2000
0000
,  // measure 8
0010
0000
30M3
M00M
,  // measure 9
1000
0001
1001
1000
0100
0010
0110
0100
,  // measure 10
1000
0001
0011
0010
0001
1000
1010
1000
,  // measure 11
0001
1000
1001
0001
0100
0010
0110
0100
,  // measure 12
0001
0010
0011
0001
1000
0011
0011
0000
,  // measure 13
1000
0001
1001
1000
0010
1000
1010
0010
,  // measure 14
1000
0001
0011
0001
0100
0010
0110
0100
,  // measure 15
0001
0010
0110
0100
1000
0010
0110
0100
,  // measure 16
0001
1000
1001
0001
1000
1001
1001
0000
,  // measure 17
0010
0001
0100
1000
0100
0001
0010
0100
,  // measure 18
0001
0100
1000
0100
0010
0001
1000
0010
,  // measure 19
1000
0100
0001
0100
1000
0100
0010
0100
,  // measure 20
0010
0001
0010
1000
0010
0010
0010
0010
,  // measure 21
0001
0001
1000
1000
0100
1000
0100
0000
,  // measure 22
0010
0010
0100
0100
1000
0100
0010
0000
,  // measure 23
0001
0001
0100
0100
0010
1000
0001
0000
,  // measure 24
1000
1000
0100
0100
0010
0001
0100
2000
,  // measure 25
0002
0000
0000
0000
,  // measure 26
3003
M00M
0000
0000
,  // measure 27
2002
0000
0000
0000
,  // measure 28
3003
M00M
0000
0000
,  // measure 29
2000
0000
3000
M000
,  // measure 30
0002
0000
0003
000M
,  // measure 31
0100
0000
0010
0000
,  // measure 32
1000
0000
0100
0000
,  // measure 33
0010
0001
0010
0100
,  // measure 34
1000
0001
0100
1000
,  // measure 35
0100
0010
0100
0001
1000
0010
0100
0010
,  // measure 36
1000
0001
0010
0100
0010
0001
1000
0100
,  // measure 37
0010
0100
1000
0001
0100
1000
0100
0001
,  // measure 38
1000
0100
0001
0100
1000
0001
0010
1000
,  // measure 39
0001
0100
1000
0001
0010
0100
1000
0001
,  // measure 40
0100
1000
0001
0010
0100
1000
0100
1000
,  // measure 41
0100
0M00
0000
0000
,  // measure 42
0000
0000
0000
0000
,  // measure 43
0000
0000
1001
0000
0010
1001
0000
0100
,  // measure 44
0000
1100
0000
0101
0000
0010
0101
0000
,  // measure 45
0000
0000
1000
0000
0002
0013
0000
2000
,  // measure 46
0000
3010
0000
0022
0000
0033
0000
0000
,  // measure 47
0000
0000
1100
0000
0010
1010
0000
0011
,  // measure 48
0000
0101
0000
1100
0000
0001
0101
0000
,  // measure 49
1000
0001
0011
0001
1000
0010
1010
1000
,  // measure 50
0001
0010
0011
0001
1000
1001
1001
0000
,  // measure 51
1000
0001
0101
0001
1000
0100
1100
1000
,  // measure 52
0001
0100
0101
0001
1000
1001
1001
0000
,  // measure 53
1000
0001
0010
0001
0010
0000
0000
0000
0001
1000
0100
0010
0100
0000
0000
0000
,  // measure 54
0010
0001
0100
0010
0100
0000
0000
0000
0010
1000
0001
0000
1001
0000
0000
0000
,  // measure 55
1000
0010
0100
1000
0100
0000
0000
0000
0001
0010
0100
0001
0100
0000
0000
0000
,  // measure 56
0010
0001
0100
0010
1000
0100
0010
0001
0100
0000
0100
0000
0100
0000
0200
0000
,  // measure 57
0301
1000
1000
0001
0001
0010
0001
1000
,  // measure 58
0010
1000
1000
0010
0010
1000
0100
0010
,  // measure 59
0001
1000
1000
0100
0100
1000
0100
0010
,  // measure 60
0001
0100
0100
0001
0001
0010
0100
1000
,  // measure 61
0001
1000
0002
0103
0020
2030
3100
0020
,  // measure 62
0130
0020
0031
0020
0130
1000
0010
0100
,  // measure 63
0001
0010
0002
1003
0002
0013
0100
2000
,  // measure 64
3100
0020
0031
0200
0301
1001
0110
1001
,  // measure 65
0000
0000
0000
0000
,  // measure 66
MMMM
0000
0000
0000
;

//---------------dance-double - Blank----------------
#NOTES:
     dance-double:
     Blank:
     Hard:
     9:
     0.488,0.396,0.345,0.255,0.079:
10000000
00010000
00010000
00100000
01000000
00010000
00010000
01000000
,
10000000
00100000
00100000
10000000
01000000
00010000
00001000
00000010
,
0M0M0001
00000100
00000100
00000001
00000010
00000100
00000100
00001000
,
00000001
00000100
00000100
00000010
00010000
00001000
01000000
00010000
,
1000M0M0
01000000
01000000
00100000
00010000
10000000
10000000
00010000
,
00100000
01000000
01000000
00100000
00001000
00010000
00000100
00000010
,
M0M00002
00000000
00001000
00000000
,
00020M00
00000000
00030013
000000M0
,
00010000
00001000
00011000
00010000
00000100
00000010
M0000110
00000010
,
M0000001
00000100
M0000110
00000010
00010000
00011000
00011000
00001000
,
01000000
00100000
01100000
01000000
00010000
00100000
0011000M
00010000
,
1000000M
01000000
1100000M
10000000
00100000
00010000
00001000
00000100
,
0M000001
00000010
0M000011
00000001
M0001000
00000100
M0001100
00001000
,
M0000100
00010000
00011000
00001000
0010000M
00010000
0011000M
00110000
,
0010000M
01000000
011000M0
00100000
000100M0
01000000
0110000M
00100000
,
0001000M
00001000
00011000
00010000
M0000100
00000010
M0000001
00000100
,
0M001000
00000100
0M000001
00000010
M0000100
00001000
00010000
00100000
,
01000000
10000000
0100000M
00010000
0100000M
10000000
0010000M
01000000
,
00001000
10000000
00010000
10000000
01000000
00010000
00001000
00000010
,
M0000001
00010000
M0001000
00010000
00000001
00000100
00001000
00010000
,
0010000M
01000000
0010000M
00010000
00001000
00000100
00000010
00001000
,
M0000100
00000001
M0000100
00001000
00000001
00000100
00001000
00010000
,
01000000
00010000
00001000
00010000
00100000
01000000
00010000
10000000
,
01000000
00010000
00001000
00000100
00000010
00000010
00000010
00000010
,
00000020
00000000
00000000
00000000
,
00000030
00000000
000000M0
00000000
,
00020000
00000000
00000000
00000000
,
00030000
00000000
000M0000
00000000
,
00000200
00000000
00000300
00000000
,
00002M00
00000000
00003000
00000000
,
0002M000
00000000
00030000
00000000
,
002M0000
00000000
00300000
00000000
,
02M00000
03000000
00020000
0M030000
,
00002000
000M3000
00000020
0000M030
,
00000200
000003M0
00002000
00003M00
,
00020000
0003M000
00200000
003M0000
,
01000000
10M00000
00100000
01000000
,
M0010000
00001000
000M0010
00000100
,
M0000001
00000010
00000100
00001000
00010000
00100000
01000000
10000000
,
0010000M
01000000
00001000
00010000
00000010
00000100
00000001
00000000
,
00001001
00000000
00000000
00000000
,
MM0MM0MM
00000000
00000000
00000000
,
00000000
00000000
00000110
00000000
00000001
00001000
00000000
00000110
,
00000000
00000011
00000000
00001100
00000000
00000010
00002002
00000000
,
00003003
00000000
00010100
00000000
00001000
00010100
00000000
01001000
,
00000000
00010010
00000000
00202000
00000000
00000000
00000000
00000000
,
00303000
00000000
01100000
00000000
10000000
00010000
00000000
01100000
,
00000000
10100000
00000000
01010000
00000000
00100000
10010000
00000000
,
20000000
00010000
30100000
01000000
00020000
10000000
00130000
01000000
,
00020000
01000000
00031000
00010000
00000100
00011000
00011000
00000000
,
00010000
00000001
00000010
00000001
00000200
00000010
00000301
00000100
,
00001000
00010000
00001000
00000100
00000010
00001001
00000110
00000000
,
00000010
00000001
00000010
00000001
00000010
00000000
00000000
00000000
00000100
00000010
00000100
00000010
00000100
00000000
00000000
00000000
,
00001000
00000100
00010000
00000100
00001000
00000000
00000000
00000000
00000001
00000000
00000110
00000000
00001001
00000000
00000000
00000000
,
00000001
00000000
00000010
00000001
00000100
00000000
00000010
00001000
00000100
00000000
00010000
00001000
01000000
00000000
00100000
10000000
,
01000000
00100000
01000000
00100000
01000000
10000000
01000000
10000000
00200000
00000000
00000000
00000000
00300000
00000000
00000000
00000000
,
20000000
30010000
02000000
03001000
01000000
01100000
01100000
00000000
,
00200000
10300000
02000000
03010000
00001000
00011000
00011000
00000000
,
00020000
00030001
00000200
00000301
00000010
00000110
00000110
00000000
,
00000200
00000310
00000002
00000103
00001000
00001100
00001100
00000000
,
00000100
00000000
00000001
00000010
00000001
00000000
00001000
00000000
00000100
00000000
00010000
00001000
00010000
00000000
00000001
00000000
,
00000010
00000000
00000100
00001000
00000100
00000000
00010000
00000000
00001000
00000000
01000000
00010000
01000000
00000000
00100000
00000000
,
00010000
00000000
00001000
00000100
00001000
00000000
00010000
00000000
00100000
00000000
01000000
00010000
01000000
00000000
00100000
00000000
,
01000000
00000000
00001000
00100000
00001000
00000000
00000100
00000000
00000001
00000000
00000010
00000000
00001000
00000000
00020000
00000000
,
00000000
00000000
00000000
00000000
,
0003000M
00000000
0M000M00
00000000
,
000M0000
00000000
00000000
00000000
;

//---------------dance-single - Blank----------------
#NOTES:
     dance-single:
     Blank:
     Medium:
     6:
     0.359,0.312,0.142,0.150,0.011:
1000
0001
0001
0000
0100
0010
0010
0000
,
1000
0100
0100
0000
0010
0001
1000
0100
,
0010
0001
0001
0000
1000
0001
0010
0000
,
1000
0100
0010
0000
1000
0100
0100
0100
,
0010
1000
1000
0000
0010
0001
0001
0000
,
0100
1000
1000
0000
0100
0001
0010
0100
,
0002
0000
0203
0000
,
2300
3000
1001
1001
,
1001
0000
1010
0000
0001
0010
0100
0000
,
0110
0000
1010
0000
0010
0100
0001
0100
,
0101
0000
0011
0000
1000
0010
1000
0000
,
0110
0000
1001
0000
1000
0001
0001
1000
,
1001
0000
1100
0000
0010
0001
0100
0000
,
0011
0000
0101
0000
0010
0100
1000
0100
,
0101
0000
0101
0000
0001
1100
1100
0000
,
0010
0001
0100
1000
0100
0001
0010
0100
,
0001
0100
1000
0100
0000
0000
0000
0000
,
1000
0010
0001
0010
0000
0000
0000
0000
,
0100
1000
0100
0001
0000
0000
0000
0000
,
0010
1000
0010
0001
0000
0000
0000
0000
,
1000
0000
0010
0000
0001
0000
0010
0000
1000
0100
1000
0000
0010
0000
0000
0000
,
1000
0000
0100
0000
0001
0000
0100
0000
0010
0001
0010
0000
0100
0000
0000
0000
,
0001
0000
0100
0000
1000
0000
0100
0000
1000
0010
1000
0000
0100
0000
0000
0000
,
0010
0001
0100
1000
0100
0010
1000
0100
,
0002
0000
0000
0000
,
0003
0000
0000
0000
,
0200
0000
0000
0000
,
0300
0000
0000
0000
,
0020
0000
0000
0000
,
0030
0000
0000
0000
,
0002
0000
0000
0000
,
0003
0000
0000
0000
,
2000
0000
3000
0000
,
0020
0000
0030
0000
,
0200
0000
0300
0000
,
2000
0000
3000
0000
,
0002
0003
0200
0300
,
0020
0030
0002
0003
,
1000
0010
0100
0000
1000
0001
0100
0000
,
0010
0001
0100
0010
1000
0100
0010
0001
,
0100
0000
0000
0000
,
0000
0000
0000
0000
,
0M00
0000
0001
0000
1000
0001
0000
0001
,
0000
1000
0000
2000
0000
3001
0100
0000
,
0000
0000
0010
0000
0100
1000
0000
0100
,
0000
0001
0000
0200
0000
0300
0000
0000
,
0000
0000
0001
0000
0010
1000
0000
0001
,
0000
0100
0000
1000
0000
0010
0001
0000
,
0010
1000
0100
1000
0010
0100
0001
0010
,
0100
0001
0100
0010
0001
1000
1000
0000
,
0001
0100
0010
1000
0010
0100
0001
1000
,
0100
0001
0100
1000
0010
0100
0100
0000
,
0001
1000
1000
0100
0010
0100
0100
1000
,
0001
0010
0010
0100
1000
0001
0001
0000
,
1000
0001
0001
0100
0100
0010
0010
1000
,
1000
0100
0100
0010
0020
0000
0000
0000
,
0032
0000
0000
0000
0103
0010
0100
0000
,
0001
1000
0010
0000
0100
1000
1100
0000
,
0200
0000
0000
0000
0310
0100
0001
1000
,
0000
0010
0000
0100
0000
0001
0100
0000
,
0010
1000
0010
1000
0100
0010
0100
0010
,
0001
0100
0001
0100
0010
1000
1000
0000
,
0100
0010
0001
0010
0100
1000
0010
0100
,
0001
0100
0010
1000
0100
0001
0010
1000
,
0001
0000
0000
0000
;

//---------------dance-single - Blank----------------
#NOTES:
     dance-single:
     Blank:
     Easy:
     4:
     0.239,0.192,0.060,0.165,0.000:
2000
3000
0002
0003
,
0200
0300
0020
0030
,
2000
3000
0200
0300
,
0020
0030
0001
0001
,
1000
0100
0010
0100
,
1000
0001
0010
0001
,
0100
0010
1000
0100
,
0001
1000
2002
3003
,
1000
0001
1000
0100
,
0010
0001
1000
0001
,
0010
0001
1000
0010
,
0100
0001
1000
1000
,
0001
0000
0010
0000
0001
0010
0001
0000
,
0010
0000
0100
0000
1000
0100
1000
0000
,
0010
0000
0100
0000
0001
0100
0001
0000
,
0100
0000
0010
0000
1000
0001
1000
0001
,
1000
0100
0001
0010
,
0001
0100
1000
0010
,
0001
0100
0001
0010
,
1000
0200
0001
1300
,
0001
0100
1000
0010
,
1000
0100
0001
0010
,
1000
0010
0001
0100
,
0010
1000
0100
0100
,
0200
0000
0000
0000
,
0000
0000
0000
0000
,
0300
0000
0000
0000
,
0000
0000
0000
0000
,
2002
0000
0000
0000
,
0000
0000
0000
0000
,
3003
0000
0000
0000
,
0000
0000
0000
0000
,
0200
0000
0300
0000
,
0002
0000
0003
0000
,
2000
0000
3000
0000
,
0020
0000
0030
0000
,
1000
0000
0100
0000
,
0010
0000
0001
0000
,
1001
0000
0110
0000
,
1000
0010
0100
0001
,
0010
0000
0000
0000
,
0000
0000
0000
0000
,
0000
0000
0001
0000
2000
0000
0000
3001
,
0000
1000
0000
0001
0000
0000
1000
0000
,
0000
0000
0100
0000
0020
0000
0000
0130
,
0000
0010
0000
0100
0000
0000
0000
0000
,
0000
0000
1000
0000
0020
0000
0000
0130
,
0000
0001
0000
0020
0000
0000
0130
0000
,
1000
0100
0010
0100
,
1000
0001
0010
0011
,
1000
0100
0001
0100
,
1000
0010
0100
0110
,
0010
0010
1000
1000
,
0010
0100
0001
0101
,
0010
1000
0001
0010
,
0001
1000
0020
0000
,
0130
0000
0001
0000
0010
0100
0010
0000
,
0001
0100
1000
0000
,
0100
0000
0010
0000
1000
0100
1000
0000
,
0001
0010
0001
0000
,
0100
0000
1000
0000
0100
0010
0100
0000
,
0001
0010
0100
0001
,
0100
0000
1000
0000
0010
0100
0010
0000
,
1000
0001
1000
1000
,
1001
0000
0000
0000
;

//---------------dance-double - Blank----------------
#NOTES:
     dance-double:
     Blank:
     Medium:
     7:
     0.355,0.312,0.082,0.150,0.000:
00010000
00100000
01000000
00100000
00010000
01000000
00100000
00000000
,
10000000
01000000
00010000
00000000
00010000
01000000
10000000
00000000
,
00100000
01000000
00010000
01000000
00100000
10000000
01000000
00000000
,
00100000
00010000
10000000
00100000
00010000
00001000
00000100
00000001
,
00000010
00000100
00000010
00000001
00000100
00000010
00000100
00000000
,
00000001
00000100
00001000
00000000
00001000
00000100
00000001
00000000
,
00000020
00000000
00000230
00000000
,
00000002
00000000
00000303
00000M0M
,
00000010
00001000
00001000
00000000
00000010
00000100
00000100
00000000
,
00000100
00000001
00000001
00000000
00000010
00000100
00000010
00000000
,
00000001
00000100
00000010
00000000
00010000
00000100
00001000
00000000
,
00000001
00000100
00000010
00001000
00000010
00010000
00001000
01000000
,
00010000
10000000
00100000
00000000
01000000
00100000
01000000
00000000
,
00010000
00100000
00010000
00100000
01000000
10000000
01000000
00000000
,
00100000
00001000
00010000
00000000
01000000
10000000
00100000
00000000
,
00010000
00001000
01000000
00010000
00100000
00001000
00010000
00000100
,
00001000
00000010
00000100
00000010
00000000
00000000
00000000
00000000
,
00001000
00000100
00001000
00000010
00000000
00000000
00000000
00000000
,
00000100
00000001
00000010
00000001
00000000
00000000
00000000
00000000
,
00000010
00000100
00010000
00001000
00010000
00001000
00001000
00001000
,
01000000
00010000
00100000
00010000
00000000
00000000
00000000
00000000
,
10000000
00100000
10000000
01000000
00000000
00000000
00000000
00000000
,
00100000
00001000
00010000
00001000
00000000
00000000
00000000
00000000
,
01000000
00100000
00010000
00001000
00000100
00000010
00001000
00000100
,
00000020
00000000
00000000
00000000
,
00000032
00000000
00000000
00000000
,
00002003
00000000
00000000
00000000
,
00003020
00000000
00000000
00000000
,
00020030
00000000
00000000
00000000
,
00032000
00000000
00000000
00000000
,
00203000
00000000
00000000
00000000
,
00320000
00000000
00000000
00000000
,
20030000
00000000
31000000
00000000
,
02000000
00000000
03010000
00000000
,
00020000
00000000
00031000
00000000
,
00002000
00000000
00003100
00000000
,
00000200
00000000
00000301
00000000
,
00000020
00000000
00001030
00000000
,
00010000
00100000
00110000
00000000
00100000
10000000
10100000
00000000
,
01000000
00010000
00011000
00000000
00010000
00000100
00001000
00000001
,
00000010
00000000
00000000
00000000
,
00000000
00000000
00000000
00000000
,
00000000
00000000
00000010
00000000
00000001
00000100
00000000
00000010
,
00000000
00001000
00000000
00000100
00000000
00001000
00001001
00000000
,
00000001
00000000
00000010
00000000
00000200
00001000
00000000
00000001
,
00000000
00002300
00000000
00003001
00000000
00000000
00000000
00000000
,
00000000
00000000
00000001
00000000
00000100
00001000
00000000
00010000
,
00000000
00001000
00000000
00000100
00000000
00000010
00000100
00000000
,
00000001
00000100
00000001
00000000
00000010
00000100
00000010
00000000
,
00000100
00001000
00000100
00000000
00010000
00001000
00011000
00000000
,
00001000
00100000
00001000
00000000
01000000
00010000
01000000
00000000
,
00100000
10000000
00100000
00000000
01000000
10000000
11000000
00000000
,
10000000
01000000
00010000
00100000
01000000
00010000
00000000
10100000
,
00000000
00110000
00000000
10100000
00000000
00110000
00110000
00000000
,
00100000
00001000
00010000
00000010
00000100
00001000
00000100
00000001
,
00000010
00000100
00010000
00001000
02000000
00000000
03000000
00000000
,
00010000
10000000
10000000
00010000
00010000
00100000
01000000
00000000
,
10000000
00100000
00100000
01000000
01000000
00001000
00010000
00000000
,
00100000
01000000
01000000
00001000
00100000
00010000
10000000
00000000
,
01000000
00100000
00010000
00000000
00001000
00000100
00000010
00000000
,
00000001
00000100
00001000
00000100
00000010
00001000
00000100
00000000
,
00000010
00000001
00001000
00000100
00010000
00001000
00100000
00010000
,
01000000
10000000
01000000
00010000
00100000
01000000
10000000
01000000
,
00010000
00001000
00010000
00000100
00000001
00000010
00000001
00000100
,
00010000
00000000
00000000
00000000
;
