#TITLE:New Decade;
#SUBTITLE:-Extended Mix-;
#ARTIST:Sota F.;
#TITLETRANSLIT:;
#SUBTITLETRANSLIT:;
#ARTISTTRANSLIT:;
#GENRE:;
#CREDIT:Telperion;
#BANNER:;
#BACKGROUND:;
#LYRICSPATH:;
#CDTITLE:;
#MUSIC:ndext.ogg;
#OFFSET:-0.215986;
#SAMPLESTART:48.515999;
#SAMPLELENGTH:19.119999;
#SELECTABLE:YES;
#DISPLAYBPM:200.000000;
#BPMS:0.000000=200.000000;
#STOPS:;
#DELAYS:;
#TIMESIGNATURES:0.000000=4=4
;
#BGCHANGES:;
#KEYSOUNDS:;
#ATTACKS:;

//---------------dance-single - Telperion----------------
#NOTES:
     dance-single:
     Telperion:
     Challenge:
     9:
     1.000,1.000,0.568,0.602,0.722,1261.000,116.000,123.000,94.000,35.000,28.000,0.000,1.000,1.000,0.568,0.602,0.722,1261.000,116.000,123.000,94.000,35.000,28.000,0.000: // measure 1
0000
0000
0000
0000
,  // measure 2
0000
0000
0000
0000
,  // measure 3
0000
0000
0000
0000
,  // measure 4
0000
0000
0000
0000
,  // measure 5
0000
0000
0000
0000
,  // measure 6
0000
0000
0000
0000
,  // measure 7
0000
0000
0000
0000
,  // measure 8
0000
0000
0000
0000
,  // measure 9
0000
1000
1100
1000
,  // measure 10
1100
0001
0101
0001
,  // measure 11
0101
0000
0000
0000
1000
0000
0100
1000
0001
0000
0100
0000
0010
0100
0010
0000
,  // measure 12
2000
0000
3000
0000
0001
0010
0001
0000
0001
0000
0001
1000
0001
0000
0001
0000
,  // measure 13
0010
0001
0010
0000
0100
0000
0000
0000
0210
0000
0000
0000
1300
0000
0000
0000
,  // measure 14
2001
0000
3010
0100
0001
0010
1000
0001
,  // measure 15
0100
0000
1000
0000
0010
1000
0010
0100
0010
1000
0010
0000
0000
0000
0010
0100
,  // measure 16
0010
M1MM
M1MM
MMM1
,  // measure 17
4000
0000
3011
0000
0100
0002
1M10
0003
,  // measure 18
0001
0200
M011
0300
0100
0020
110M
0030
,  // measure 19
0001
0020
M101
0030
0010
0002
1100
0003
,  // measure 20
001M
0000
0100
0000
0010
0100
0010
0000
0010
0100
0010
1000
0001
0010
0100
1000
,  // measure 21
0010
0000
0100
2000
3000
M002
0003
001M
,  // measure 22
0001
0010
2000
3200
0302
2003
3020
0032
,  // measure 23
2003
0000
3200
0000
0301
0000
0100
0010
0100
0000
0100
0000
1000
0000
0010
0100
,  // measure 24
0010
0100
0010
0000
1000
0100
1000
0100
0010
0001
0010
0001
1000
0100
0010
0001
,  // measure 25
0200
0000
0000
0000
0000
0000
0000
0000
0000
0000
0000
0000
0000
0000
0000
0000
0000
0000
0000
0000
0000
0000
0000
0000
0000
0000
0000
0000
0000
0000
0000
0000
0000
0000
0000
0000
0000
0000
0000
0000
0000
0000
0000
0000
0000
0000
0000
0000
1311
0000
0000
0000
0000
0000
0000
0000
0000
0000
0000
0000
0000
0000
0000
0000
0000
0000
0000
0000
0000
0000
0000
0000
2000
0000
0000
0000
0000
0000
0000
0000
0000
0000
0000
0000
0000
0000
0000
0000
0000
0000
0000
0000
0000
0000
0000
0000
0020
0000
0000
0000
0000
0000
0000
0000
0000
0000
0000
0000
0000
0000
0000
0000
0000
0000
0000
0000
0000
0000
0000
3000
0200
0000
0000
0000
0000
0000
0000
0000
0000
0000
0000
0000
0000
0000
0000
0000
0000
0000
0000
0000
0000
0000
0000
0030
2000
0000
0000
0000
0000
0000
0000
0000
0000
0000
0000
0000
0000
0000
0000
0000
0000
0000
0000
0000
0000
0000
0000
0300
0200
0000
0000
0000
0000
0000
0000
0000
0000
0000
0000
0000
0000
0000
0000
0000
0000
0000
0000
0000
0000
0000
0000
3000
,  // measure 26
0002
0000
0000
0000
0000
0000
0000
0000
0000
0000
0000
0000
0000
0000
0000
0000
0000
0000
0000
0000
0000
0000
0000
0300
0013
0000
0000
0000
0000
0000
0000
0000
0000
0000
0000
0000
0000
0000
0000
0000
0000
0000
0000
0000
0000
0000
0000
0000
0000
0000
0000
0000
0000
0000
0000
0000
0000
0000
0000
0000
0000
0000
0000
0000
0000
0000
0000
0000
0000
0000
0000
0000
1100
0000
0000
0000
0000
0000
0000
0000
0000
0000
0000
0000
0000
0000
0000
0000
0000
0000
0000
0000
0000
0000
0000
0000
0000
0000
0000
0000
0000
0000
0000
0000
0000
0000
0000
0000
0000
0000
0000
0000
0000
0000
0000
0000
0000
0000
0000
0000
0011
0000
0000
0000
0000
0000
0000
0000
0000
0000
0000
0000
0000
0000
0000
0000
0000
0000
0000
0000
0000
0000
0000
0000
2000
0000
0000
0000
0000
0000
0000
0000
0000
0000
0000
0000
0000
0000
0000
0000
0000
0000
0000
0000
0000
0000
0000
0000
0002
0000
0000
0000
0000
0000
0000
0000
0000
0000
0000
0000
0000
0000
0000
0000
0000
0000
0000
0000
0000
0000
0000
3000
,  // measure 27
2000
0000
0000
0000
0000
0000
0000
0000
0000
0000
0000
0000
0000
0000
0000
0000
0000
0000
0000
0000
0000
0003
0000
0000
3010
0000
0000
0000
0000
0000
0000
0000
0000
0000
0000
0000
0000
0000
0000
0000
0000
0000
0000
0000
0000
0000
0000
0000
00M0
0000
0000
0000
0000
0000
0000
0000
0000
0000
0000
0000
0000
0000
0000
0000
0000
0000
0000
0000
0000
0000
0000
0000
0002
0000
0000
0000
0000
0000
0000
0000
0000
0000
0000
0000
0000
0000
0000
0000
0000
0000
0000
0000
0000
0000
0000
0000
0020
0000
0000
0000
0000
0000
0000
0000
0000
0000
0000
0000
0000
0000
0000
0000
0000
0000
0000
0000
0000
0000
0000
0003
0200
0000
0000
0000
0000
0000
0000
0000
0000
0000
0000
0000
0000
0000
0000
0000
0000
0000
0000
0000
0000
0000
0000
0030
0002
0000
0000
0000
0000
0000
0000
0000
0000
0000
0000
0000
0000
0000
0000
0000
0000
0000
0000
0000
0000
0000
0000
0300
2000
0000
0000
0000
0000
0000
0000
0000
0000
0000
0000
0000
0000
0000
0000
0000
0000
0000
0000
0000
0000
0000
0000
0003
,  // measure 28
0020
0000
0000
0000
0000
0000
0000
0000
0000
0000
0000
0000
0000
0000
0000
0000
0000
0000
0000
0000
0000
0000
0000
3000
0031
0000
0000
0000
0000
0000
0000
0000
0000
0000
0000
0000
0000
0000
0000
0000
0000
0000
0000
0000
0000
0000
0000
0000
0000
0000
0000
0000
0000
0000
0000
0000
0000
0000
0000
0000
0000
0000
0000
0000
0000
0000
0000
0000
0000
0000
0000
0000
0101
0000
0000
0000
0000
0000
0000
0000
0000
0000
0000
0000
0000
0000
0000
0000
0000
0000
0000
0000
0000
0000
0000
0000
0000
0000
0000
0000
0000
0000
0000
0000
0000
0000
0000
0000
0000
0000
0000
0000
0000
0000
0000
0000
0000
0000
0000
0000
1010
0000
0000
0000
0000
0000
0000
0000
0000
0000
0000
0000
0000
0000
0000
0000
0000
0000
0000
0000
0000
0000
0000
0000
0001
0000
0000
0000
0000
0000
0000
0000
0000
0000
0000
0000
0000
0000
0000
0000
0000
0000
0000
0000
0000
0000
0000
0000
1000
0000
0000
0000
0000
0000
0000
0000
0000
0000
0000
0000
0000
0000
0000
0000
0000
0000
0000
0000
0000
0000
0000
0000
,  // measure 29
0001
0000
0000
0000
0000
0000
0000
0000
0000
0000
0000
0000
0000
0000
0000
0000
0000
0000
0000
0000
0000
0000
0000
0000
0001
0000
0000
0000
0000
0000
0000
0000
0000
0000
0000
0000
0000
0000
0000
0000
0000
0000
0000
0000
0000
0000
0000
0000
0002
0000
0000
0000
0000
0000
0000
0000
0000
0000
0000
0000
0000
0000
0000
0000
0000
0000
0000
0000
0000
0000
0000
0000
0200
0000
0000
0000
0000
0000
0000
0000
0000
0000
0000
0000
0000
0000
0000
0000
0000
0000
0000
0000
0000
0000
0000
0003
0020
0000
0000
0000
0000
0000
0000
0000
0000
0000
0000
0000
0000
0000
0000
0000
0000
0000
0000
0000
0000
0000
0000
0300
0200
0000
0000
0000
0000
0000
0000
0000
0000
0000
0000
0000
0000
0000
0000
0000
0000
0000
0000
0000
0000
0000
0000
0030
2000
0000
0000
0000
0000
0000
0000
0000
0000
0000
0000
0000
0000
0000
0000
0000
0000
0000
0000
0000
0000
0000
0000
0300
0200
0000
0000
0000
0000
0000
0000
0000
0000
0000
0000
0000
0000
0000
0000
0000
0000
0000
0000
0000
0000
0000
0000
3000
,  // measure 30
0002
0000
0000
0000
0000
0000
0000
0000
0000
0000
0000
0000
0000
0000
0000
0000
0000
0000
0000
0000
0000
0000
0000
0300
0013
0000
0000
0000
0000
0000
0000
0000
0000
0000
0000
0000
0000
0000
0000
0000
0000
0000
0000
0000
0000
0000
0000
0000
0000
0000
0000
0000
0000
0000
0000
0000
0000
0000
0000
0000
0000
0000
0000
0000
0000
0000
0000
0000
0000
0000
0000
0000
1100
0000
0000
0000
0000
0000
0000
0000
0000
0000
0000
0000
0000
0000
0000
0000
0000
0000
0000
0000
0000
0000
0000
0000
0000
0000
0000
0000
0000
0000
0000
0000
0000
0000
0000
0000
0000
0000
0000
0000
0000
0000
0000
0000
0000
0000
0000
0000
0011
0000
0000
0000
0000
0000
0000
0000
0000
0000
0000
0000
0000
0000
0000
0000
0000
0000
0000
0000
0000
0000
0000
0000
2000
0000
0000
0000
0000
0000
0000
0000
0000
0000
0000
0000
0000
0000
0000
0000
0000
0000
0000
0000
0000
0000
0000
0000
0020
0000
0000
0000
0000
0000
0000
0000
0000
0000
0000
0000
0000
0000
0000
0000
0000
0000
0000
0000
0000
0000
0000
3030
,  // measure 31
2000
3001
010M
0100
0100
0010
0100
0100
,  // measure 32
0000
0000
0000
0000
0000
0000
0000
0000
0000
0000
0000
0000
0000
0000
0000
0000
0000
0000
0000
0000
0000
0000
0000
0000
0202
0000
0000
0000
0000
0000
0000
0000
0000
0000
0000
0000
0000
0000
0000
0000
0000
0000
0000
0000
0000
0000
0000
0000
0000
0000
0000
0000
0000
0000
0000
0000
0000
0000
0000
0000
0000
0000
0000
0000
0000
0000
0000
0000
0000
0000
0000
0000
1020
0000
0000
0000
0000
0000
0000
0000
0000
0000
0000
0000
0000
0000
0000
0000
0000
0000
0000
0000
0000
0000
0000
0000
0000
0000
0000
0000
0000
0000
0000
0000
0000
0000
0000
0000
0000
0000
0000
0000
0000
0000
0000
0000
0000
0000
0000
0303
2200
0000
0000
0000
0000
0000
0000
0000
0000
0030
0000
0000
0000
0000
0000
0000
0000
0000
0000
0000
0000
0000
0000
0000
0000
0000
0000
0000
0000
0000
0000
0000
0000
0000
0000
0000
0000
0000
0000
0000
0000
0000
0000
0000
0000
0000
0000
0000
0044
0000
0000
0000
0000
0000
0000
0000
0000
0000
0000
0000
0000
0000
0000
0000
0000
0000
0000
0000
0000
0000
0000
0000
,  // measure 33
0000
0000
0000
0000
0000
0000
0000
0000
3300
0000
0000
0033
0000
0000
0000
0000
1000
0000
0000
0000
0100
0000
0000
0000
1000
0000
0000
0000
0000
0000
0000
0000
1000
0000
0000
0000
0001
0000
0000
0000
0000
0000
0000
0000
0100
0000
0000
0000
0001
0000
0000
0000
0100
0000
0000
0000
0010
0000
0000
0000
0000
0000
0000
0000
,  // measure 34
0100
0001
0000
0001
0010
0100
0010
0000
0001
1000
0000
0010
0100
0010
1000
0000
,  // measure 35
1001
0000
0000
0000
0100
0000
0010
0100
1000
0000
1000
0000
0010
0000
M001
0010
,  // measure 36
0100
0000
00M1
1000
0100
0000
0010
0100
0010
1000
0010
0000
0100
0000
1000
0000
,  // measure 37
0010
0001
M020
0030
0100
0010
0100
0000
1004
0000
0000
1000
0103
0010
0001
0000
,  // measure 38
0041
0000
0000
0001
1030
0001
0100
0000
0140
0000
0000
0100
0031
0010
0100
0000
,  // measure 39
1000
0100
1000
0100
1000
0000
0010
0000
0001
0000
1000
0000
0100
0000
0001
0000
,  // measure 40
1000
0000
0010
0000
0100
0001
0010
0000
0100
1000
0010
0000
0100
0001
0010
0100
,  // measure 41
1000
0010
0100
0001
0010
0100
0010
0000
0010
0000
0010
0100
0010
0000
0010
0000
,  // measure 42
0010
0100
0010
0000
0001
1000
0001
0000
0001
0000
0001
0100
0001
0000
0001
0000
,  // measure 43
0001
0010
0001
0000
1000
0010
1000
0000
1000
0000
1000
0001
1000
0000
1000
0000
,  // measure 44
1000
0010
1000
0000
0002
0000
0100
0000
0020
0000
0103
0000
0002
0000
1030
0000
,  // measure 45
0100
0000
0103
0000
0010
1000
0010
0000
0010
0000
0100
0010
0100
0000
0100
0000
,  // measure 46
0001
0100
0010
0000
1000
0100
0010
0000
0010
0000
0100
1000
0010
0000
0010
0000
,  // measure 47
0100
0010
0100
0000
0011
0000
1010
0000
0101
0000
0011
0000
00MM
0000
1100
0000
,  // measure 48
MM00
0001
M1MM
0000
M1MM
0000
MMM1
0000
,  // measure 49
4000
0000
0000
0000
3001
0000
0100
0001
0100
0001
0100
0000
0020
0000
1030
0001
,  // measure 50
1000
0000
0000
0001
0000
0000
1000
0000
0000
0000
0000
0000
0100
0000
0000
0000
0000
0000
0010
0000
0000
0000
0000
0000
0001
0000
0000
0000
0000
0000
1000
0000
0000
0000
0000
0000
0010
0000
0000
0000
0100
0000
0000
0000
0000
0000
0100
0000
,  // measure 51
0000
0000
0000
0000
0000
0000
1000
0100
0010
0100
0001
0000
0020
0000
0130
1000
,  // measure 52
0100
1000
0100
0000
0001
0000
1000
0000
0010
0000
0001
0000
2000
0000
0000
3001
,  // measure 53
0010
0001
1000
0000
0000
0000
0001
0010
0100
1000
0001
0000
0200
0000
0310
1000
,  // measure 54
0010
1000
0001
0000
0000
0000
1000
0010
0100
0001
1000
0000
0200
0000
0310
0100
,  // measure 55
1000
0100
0010
0000
0001
0000
0100
0000
1000
0000
0100
0000
0001
0000
0010
0000
,  // measure 56
1000
0000
0001
0000
0100
0010
0100
0000
0100
0000
0100
0010
0001
0000
0001
0000
,  // measure 57
1000
0001
1000
0000
0010
0100
0010
0000
0010
0000
0100
0010
MM0M
0010
0000
0010
,  // measure 58
0100
0001
0100
0000
4000
0000
0000
0000
0000
0000
0000
0000
0000
0000
0000
0000
,  // measure 59
3000
0000
0000
0000
0100
0001
0010
0000
0010
0000
0100
0010
MM0M
0010
0000
0100
,  // measure 60
1000
0100
0010
0000
4000
0000
0000
0000
0000
0000
0000
0000
3000
0000
0000
0000
,  // measure 61
0000
0000
0012
0003
0001
0110
0000
1000
,  // measure 62
0011
0000
1010
0000
1000
0110
0000
0001
,  // measure 63
1000
1000
2010
0000
3001
0011
0010
0000
,  // measure 64
0110
0000
2001
3000
1000
0011
0010
0000
,  // measure 65
0110
0000
0000
0100
0000
0000
2000
0000
0000
0000
0000
0000
3001
0000
0000
0110
0000
0000
0000
0000
0000
0100
0010
0100
,  // measure 66
0010
0100
0010
1000
0000
0000
0000
0000
0000
0100
0010
0100
0010
0100
0010
0001
0000
0000
0101
0000
0000
0000
0000
0000
,  // measure 67
0100
0000
0000
0000
0000
0000
0000
0000
0000
0000
0000
0000
0000
0000
0000
0000
0000
0000
0000
0000
0000
0000
0000
0000
0010
0000
0000
0000
0000
0000
0000
0000
0000
0000
0000
0000
1000
0000
0000
0000
0000
0000
0010
0000
0000
0000
0000
0000
1000
0000
0000
0000
0000
0000
0000
0000
0000
0000
0000
0000
0000
0000
0000
0000
0000
0000
0000
0000
0000
0000
0000
0000
0010
0000
0000
0000
0000
0000
0000
0000
0000
0000
0000
0000
0000
0000
0000
0000
0000
0000
0000
0000
0000
0000
0000
0000
0100
0000
0000
0000
0000
0000
0000
0000
0000
0000
0000
0000
0000
0000
0000
0000
0000
0000
0000
0000
0000
0000
0000
0000
0001
0000
0000
0000
0000
0000
0000
0000
0000
0000
0000
0000
0000
0000
0000
0000
0000
0000
0000
0000
0000
0000
0000
0000
0010
0000
0000
0000
0000
0000
0000
0000
0001
0000
0000
0000
0000
0000
0000
0000
0010
0000
0000
0000
0000
0000
0000
0000
0001
0000
0000
0000
0000
0000
0000
0000
0010
0000
0000
0000
0000
0000
0000
0000
0001
0000
0000
0000
0000
0000
0000
0000
,  // measure 68
0010
0100
0000
0110
0000
1001
0010
0100
,  // measure 69
1001
0000
0000
0000
0220
0000
0000
0030
0000
0000
0300
0000
0000
0000
0000
0000
,  // measure 70
0001
1000
0001
0000
0022
0000
0000
0030
0000
0000
0003
0000
0000
0000
0000
0000
,  // measure 71
1000
0000
0000
0000
0010
0000
0000
0000
1000
0000
0000
0000
0000
0000
0000
0000
1010
0000
0000
0000
0000
0000
0000
0000
0000
0000
0000
0000
0001
0000
0000
0000
4000
0000
0000
0000
0000
0000
0000
0000
0000
0000
0000
0000
0000
0000
0000
0000
0011
0000
0000
3000
0000
0000
0000
0000
0000
0000
0000
0000
1000
0000
0000
0000
,  // measure 72
0004
0000
0000
0000
0000
0000
0000
0000
0000
0000
0000
0000
0000
0000
0000
0000
M210
0000
0000
0003
0000
0000
0000
0000
0000
0000
0000
0000
0000
0000
0000
0000
10MM
0000
0000
0000
0000
0000
0000
0000
0000
0000
0000
0000
0000
0000
0000
0000
M0M1
0000
0000
0000
0000
0000
0000
0000
0300
0000
0000
0000
0000
0000
0000
0000
,  // measure 73
MMMM
0000
1011
1000
0100
0M01
1000
0100
,  // measure 74
0M01
0010
0000
0010
0001
0100
1M00
0001
,  // measure 75
0100
0000
0000
0000
0000
0000
0000
0000
0000
0000
0000
0000
0000
0000
0000
0000
0000
0000
0000
0000
0000
0000
0000
0000
1M00
0000
0000
0000
0000
0000
0000
0000
0000
0000
0000
0000
0000
0000
0000
0000
0000
0000
0000
0000
0000
0000
0000
0000
0020
0000
0000
0000
0000
0000
0000
0000
0000
0000
0000
0000
0000
0000
0000
0000
0000
0000
0000
0000
0000
0000
0000
0000
1000
0000
0000
0000
0000
0000
0000
0000
0000
0000
0000
0000
0000
0000
0000
0000
0000
0000
0000
0000
0000
0000
0000
0000
M001
0000
0000
0000
0000
0000
0000
0000
0000
0000
0000
0000
0000
0000
0000
0000
0000
0000
0000
0000
0000
0000
0000
0030
0020
0000
0000
0000
0000
0000
0000
0000
0000
0000
0000
0000
0000
0000
0000
0000
0000
0000
0000
0000
0000
0000
0000
0000
1000
0000
0000
0000
0000
0000
0000
0000
0000
0000
0000
0000
0000
0000
0000
0000
0000
0000
0000
0000
0000
0000
0000
0030
0020
0000
0000
0000
0000
0000
0000
0000
0000
0000
0000
0000
0000
0000
0000
0000
0000
0000
0000
0000
0000
0000
0000
0000
,  // measure 76
0001
103M
0001
0000
0010
1000
0000
0010
,  // measure 77
0100
0100
0100
0000
1100
0000
0010
0000
,  // measure 78
0101
0000
0000
0000
0000
0000
0000
0000
0000
0000
0000
0000
0000
0000
0000
0000
0000
0000
0000
0000
0000
0000
0000
0000
0000
0000
0000
0000
0000
0000
0000
0000
0000
0000
0000
0000
0000
0000
0000
0000
0000
0000
0000
0000
0000
0000
0000
0000
0002
0000
0000
0000
0000
0000
0000
0000
0000
0000
0000
0000
0000
0000
0000
0000
0000
0000
0000
0000
0000
0000
0000
0000
0020
0000
0000
0000
0000
0000
0000
0000
0000
0000
0000
0000
0000
0000
0000
0000
0000
0000
0000
0000
0000
0000
0000
0003
2000
0000
0000
0000
0000
0000
0000
0000
0000
0000
0000
0000
0000
0000
0000
0000
0000
0000
0000
0000
0000
0000
0000
0030
0200
0000
0000
0000
0000
0000
0000
0000
0000
0000
0000
0000
0000
0000
0000
0000
0000
0000
0000
0000
0000
0000
0000
3000
2000
0000
0000
0000
0000
0000
0000
0000
0000
0000
0000
0000
0000
0000
0000
0000
0000
0000
0000
0000
0000
0000
0000
0300
0020
0000
0000
0000
0000
0000
0000
0000
0000
0000
0000
0000
0000
0000
0000
0000
0000
0000
0000
0000
0000
0000
0000
3000
,  // measure 79
0200
0000
0000
0000
0000
0000
0000
0000
0000
0000
0000
0000
0000
0000
0000
0000
0000
0000
0000
0000
0000
0000
0000
0030
2000
0000
0000
0000
0000
0000
0000
0000
0000
0000
0000
0000
0000
0000
0000
0000
0000
0000
0000
0000
0000
0000
0000
0300
3001
0000
0000
0000
0000
0000
0000
0000
0000
0000
0000
0000
0000
0000
0000
0000
0000
0000
0000
0000
0000
0000
0000
0000
0001
0000
0000
0000
0000
0000
0000
0000
0000
0000
0000
0000
0000
0000
0000
0000
0000
0000
0000
0000
0000
0000
0000
0000
0010
0000
0000
0000
0000
0000
0000
0000
0000
0000
0000
0000
0000
0000
0000
0000
0000
0000
0000
0000
0000
0000
0000
0000
0001
0000
0000
0000
0000
0000
0000
0000
0000
0000
0000
0000
0000
0000
0000
0000
0000
0000
0000
0000
0000
0000
0000
0000
0001
0000
0000
0000
0000
0000
0000
0000
0000
0000
0000
0000
0000
0000
0000
0000
0000
0000
0000
0000
0000
0000
0000
0000
1000
0000
0000
0000
0000
0000
0000
0000
0000
0000
0000
0000
0000
0000
0000
0000
0000
0000
0000
0000
0000
0000
0000
0000
,  // measure 80
0010
0010
0100
0100
0000
0000
0010
0100
,  // measure 81
0040
0000
1031
0000
0010
1200
0000
2000
,  // measure 82
0000
0002
0000
0013
0001
0310
3100
1000
,  // measure 83
0001
1000
0000
0010
0100
1000
0000
0001
,  // measure 84
0000
0010
0000
0100
0001
0010
0000
01M0
,  // measure 85
0000
0010
1001
0000
0010
0210
0000
0002
,  // measure 86
0000
0020
0300
0103
0001
1000
0100
1000
,  // measure 87
0001
0130
0010
0010
0000
0010
0010
0000
,  // measure 88
0101
1010
1100
0011
0000
0000
0000
2000
,  // measure 89
3001
0010
0100
1000
0010
0000
0000
0010
0100
0000
00M0
0100
0010
1000
0000
1000
,  // measure 90
0001
0000
0010
0000
00M0
0001
0010
0000
0010
0100
0000
1000
0010
1000
0000
1000
,  // measure 91
0100
0000
0010
0000
0001
0000
000M
1000
0001
0000
M000
0001
0010
0100
0000
0100
,  // measure 92
0001
0000
0100
0000
0M00
1000
0100
0000
1000
0001
0000
0100
0010
0100
0000
0000
,  // measure 93
1010
0000
0010
0000
1000
0000
0000
0100
0000
0000
0010
0000
1000
0000
0010
0000
,  // measure 94
0100
0000
0010
0000
0001
0000
0000
0001
0100
0000
0000
0010
1000
0010
0000
0000
,  // measure 95
0010
0000
0100
0000
1000
0000
0000
0100
0000
0000
0110
0000
0000
0010
1000
0000
,  // measure 96
0001
0000
1000
0000
0000
1000
0001
0000
0000
0010
0100
0000
0000
1000
0010
0000
,  // measure 97
0100
0001
0010
0000
0022
0000
0000
0030
0000
0000
0003
0000
0000
0000
0000
0000
,  // measure 98
0001
1000
0100
0000
2020
0000
0000
0030
0000
0000
3000
0000
0000
0000
0000
0000
,  // measure 99
1000
0001
0010
0000
0102
0003
0100
0010
0000
0100
0001
0000
0011
0000
0010
0100
,  // measure 100
1000
0100
0010
0000
M000
0000
0001
0000
1001
0000
1000
0000
0011
0000
0001
0000
,  // measure 101
1000
0001
1000
0001
1000
0000
0000
0010
0100
0010
1000
0000
0002
0000
0003
1000
,  // measure 102
0100
0010
0001
0010
0000
0010
0000
0100
0000
1000
0001
0000
0100
0010
1000
0001
,  // measure 103
0400
0000
0000
0000
0300
0000
0001
0100
0000
0001
0100
0000
2000
0000
3100
0001
,  // measure 104
1000
0100
0010
0000
0001
1000
0000
1000
0000
0001
0010
0000
0001
0000
1100
0000
,  // measure 105
MM00
0000
1100
0000
MM00
0000
0000
1000
0100
1000
0100
0000
0002
0000
0003
0100
,  // measure 106
0010
0100
1000
0000
0000
0000
0000
1000
0010
0100
0010
0000
0002
0000
0003
0010
,  // measure 107
0100
0010
4000
0000
3000
0000
0010
0100
0000
0100
0001
0000
0020
0000
0030
0001
,  // measure 108
0010
0000
0000
0100
0000
0000
0010
0000
0000
0000
0000
0000
0000
0000
0000
0100
0000
0000
1000
0000
0000
0100
0000
0000
0000
0010
0000
0000
0000
0000
0001
0000
0000
0000
0000
0000
0020
0000
0000
0000
0000
0000
0000
0000
0000
0000
0000
0000
,  // measure 109
0030
0000
0000
0000
1100
0000
0000
0100
1000
0000
0000
0001
1000
0100
0000
0000
,  // measure 110
1101
0000
0000
0000
1001
0000
0000
0100
0001
0000
0000
1000
0001
0100
0000
0000
,  // measure 111
0111
0000
0000
0000
0110
0000
0000
0100
0001
0000
0000
1000
0001
0100
0000
0000
,  // measure 112
1000
0000
0100
0000
0010
0100
0010
1000
0010
0100
0010
1000
0001
0000
0000
0001
,  // measure 113
0010
0000
0000
0000
0000
0000
0000
0000
0000
0000
0000
0000
0001
0000
0000
0000
0000
0000
0000
0000
0000
0000
0000
0000
0100
0000
0000
0000
0000
0000
0000
0000
0000
0000
0000
0000
0000
0000
0000
0000
0000
0000
0000
0000
0000
0000
0000
0000
0010
0000
0000
0000
0000
0000
0000
0000
0000
0000
0000
0000
0000
0000
0000
0000
0000
0000
0000
0000
0000
0000
0000
0000
0100
0000
0000
0000
0000
0000
0000
0000
0000
0000
0000
0000
0000
0000
0000
0000
0000
0000
0000
0000
0000
0000
0000
0000
1000
0000
0000
0000
0000
0000
0000
0000
0000
0000
0000
0000
0000
0000
0000
0000
0000
0000
0000
0000
0000
0000
0000
0000
0100
0000
0000
0000
0000
0000
0000
0000
0000
0000
0000
0000
0000
0000
0000
0000
0000
0000
0000
0000
0000
0000
0000
0000
0002
0000
0000
0000
0000
0000
0000
0000
0000
0000
0000
0000
0000
0000
0000
0000
0000
0000
0000
0000
0000
0000
0000
0000
0000
0000
0000
0000
0000
0000
0000
0000
0000
0000
0000
0003
0001
0000
0000
0000
0000
0000
0000
0000
0000
0000
0000
0000
,  // measure 114
0010
0000
0000
0000
0000
0000
0000
0000
0000
0000
0000
0000
0001
0000
0000
0000
0000
0000
0000
0000
0000
0000
0000
0000
1000
0000
0000
0000
0000
0000
0000
0000
0000
0000
0000
0000
0000
0000
0000
0000
0000
0000
0000
0000
0000
0000
0000
0000
0001
0000
0000
0000
0000
0000
0000
0000
0000
0000
0000
0000
0000
0000
0000
0000
0000
0000
0000
0000
0000
0000
0000
0000
0010
0000
0000
0000
0000
0000
0000
0000
0000
0000
0000
0000
0000
0000
0000
0000
0000
0000
0000
0000
0000
0000
0000
0000
1000
0000
0000
0000
0000
0000
0000
0000
0000
0000
0000
0000
0000
0000
0000
0000
0000
0000
0000
0000
0000
0000
0000
0000
0010
0000
0000
0000
0000
0000
0000
0000
0000
0000
0000
0000
0000
0000
0000
0000
0000
0000
0000
0000
0000
0000
0000
0000
0200
0000
0000
0000
0000
0000
0000
0000
0000
0000
0000
0000
0000
0000
0000
0000
0000
0000
0000
0000
0000
0000
0000
0000
0000
0000
0000
0000
0000
0000
0000
0000
0000
0000
0000
0300
0100
0000
0000
0000
0000
0000
0000
0000
0000
0000
0000
0000
,  // measure 115
1000
0100
0010
0000
0001
0000
0011
0000
1001
0000
0101
0000
0000
0000
0110
0000
,  // measure 116
0MM0
0010
M1MM
0000
M1MM
0000
MMM1
0000
,  // measure 117
0000
0000
0000
0000
1000
0100
0010
0000
0001
0000
0000
1000
0001
1000
0010
0200
,  // measure 118
0000
0000
0300
0010
4000
0000
0010
0000
0000
0000
3001
0000
1000
0100
0010
2000
,  // measure 119
0000
0000
3000
0010
0100
0000
1000
0000
0001
0000
0000
0001
1000
0001
0100
0010
,  // measure 120
0000
0100
0000
0010
1000
0010
0000
0000
0100
0010
0000
0000
0100
0000
0001
0000
,  // measure 121
0001
0000
0001
0000
0010
0000
0000
0100
0010
0000
0000
0001
1000
0001
0100
0010
,  // measure 122
0000
0100
0010
0100
0004
0000
0100
0000
0000
0000
1003
0000
0001
0100
0010
0002
,  // measure 123
0000
0000
0003
0010
0100
0000
0000
0000
1010
0000
0010
0000
0000
0000
0011
0000
,  // measure 124
0000
1010
0011
0001
1100
1000
0101
0100
,  // measure 125
0040
0000
0000
0000
1030
0001
1000
0000
0004
0010
0000
1000
0103
0010
0001
0000
,  // measure 126
4000
0001
0000
0010
3100
0001
0100
0000
0004
0010
0000
0010
0103
1000
0100
0000
,  // measure 127
4000
0010
0000
0010
3100
0000
1000
0000
0100
0000
0001
0000
0100
0000
1000
0000
,  // measure 128
0100
0010
1000
0001
M00M
1100
MM00
0011
,  // measure 129
00M1
0000
0000
0000
1000
0040
1000
0000
0100
0000
0100
0000
1000
0034
1000
0000
,  // measure 130
0010
0000
0010
0000
1000
0043
1000
0000
0100
0000
0100
0000
0001
0030
0001
0000
,  // measure 131
0100
0010
0100
0001
1000
0000
0100
0000
1000
0000
0001
0000
1000
0000
0100
0000
,  // measure 132
0000
0000
0011
0000
0001
0100
0010
0000
1010
0000
1000
0100
0010
0000
0011
0000
,  // measure 133
0001
1000
0001
0000
0010
0000
0001
0000
0010
0000
0001
0000
0010
0000
0100
0000
,  // measure 134
0010
0100
0010
1000
0001
0100
1000
0001
,  // measure 135
0100
1000
0001
1000
0001
0010
0100
0010
,  // measure 136
1000
0000
0001
0000
0010
0100
1000
0100
0010
0001
1000
0001
0100
0010
1000
0010
,  // measure 137
0100
0001
1000
0001
0010
0000
00M0
0000
1001
0000
0001
0000
0100
0000
0010
0000
,  // measure 138
0100
0010
0100
1000
0001
0010
1000
0001
,  // measure 139
0010
0100
0010
0010
0100
0010
0010
0100
,  // measure 140
1000
1000
0001
0001
0100
0100
0100
0010
,  // measure 141
0100
00M0
0M00
0000
1001
0000
0001
0000
0100
0000
1000
0000
0001
0000
0010
0000
,  // measure 142
0100
1000
0000
0100
0000
1000
0100
0001
,  // measure 143
0010
0000
0000
0000
0000
0000
0000
0000
0000
0000
0000
0000
0000
0000
0000
0000
0000
0000
0000
0000
0000
0000
0000
0000
0100
0000
0000
0000
0000
0000
0000
0000
0000
0000
0000
0000
0000
0000
0000
0000
0000
0000
0000
0000
0000
0000
0000
0000
0020
0000
0000
0000
0000
0000
0000
0000
0000
0000
0000
0000
0000
0000
0000
0000
0000
0000
0000
0000
0000
0000
0000
0000
0001
0000
0000
0000
0000
0000
0000
0000
0000
0000
0000
0000
0000
0000
0000
0000
0000
0000
0000
0000
0000
0000
0000
0000
100M
0000
0000
0000
0000
0000
0000
0000
0000
0000
0000
0000
0000
0000
0000
0000
0000
0000
0000
0000
0000
0000
0000
0030
0020
0000
0000
0000
0000
0000
0000
0000
0000
0000
0000
0000
0000
0000
0000
0000
0000
0000
0000
0000
0000
0000
0000
0000
0001
0000
0000
0000
0000
0000
0000
0000
0000
0000
0000
0000
0000
0000
0000
0000
0000
0000
0000
0000
0000
0000
0000
0030
0020
0000
0000
0000
0000
0000
0000
0000
0000
0000
0000
0000
0000
0000
0000
0000
0000
0000
0000
0000
0000
0000
0000
0000
,  // measure 144
1000
M031
0100
0000
0010
1000
0000
0010
,  // measure 145
0100
0100
0100
0000
1001
0000
0010
0000
,  // measure 146
0011
0000
1000
0002
0020
0203
0032
2300
,  // measure 147
0023
0000
0000
0000
0000
0000
0000
0000
0000
0000
0000
0000
0000
0000
0000
0000
0000
0000
0000
0000
0000
0000
0000
3000
2000
0000
0000
0000
0000
0000
0000
0000
0000
0000
0000
0000
0000
0000
0000
0000
0000
0000
0000
0000
0000
0000
0000
0000
3031
0000
0000
0000
0000
0000
0000
0000
0000
0000
0000
0000
0000
0000
0000
0000
0000
0000
0000
0000
0000
0000
0000
0000
0001
0000
0000
0000
0000
0000
0000
0000
0000
0000
0000
0000
0000
0000
0000
0000
0000
0000
0000
0000
0000
0000
0000
0000
0100
0000
0000
0000
0000
0000
0000
0000
0000
0000
0000
0000
0000
0000
0000
0000
0000
0000
0000
0000
0000
0000
0000
0000
0010
0000
0000
0000
0000
0000
0000
0000
0000
0000
0000
0000
0000
0000
0000
0000
0000
0000
0000
0000
0000
0000
0000
0000
0010
0000
0000
0000
0000
0000
0000
0000
0000
0000
0000
0000
0000
0000
0000
0000
0000
0000
0000
0000
0000
0000
0000
0000
0100
0000
0000
0000
0000
0000
0000
0000
0000
0000
0000
0000
0000
0000
0000
0000
0000
0000
0000
0000
0000
0000
0000
0000
,  // measure 148
1000
0001
0100
0100
0000
0000
0010
0100
,  // measure 149
0040
0000
1031
0000
1000
1002
0000
0200
,  // measure 150
0000
1000
0000
0010
1300
0010
0103
0001
,  // measure 151
0100
0010
0000
1000
0100
0001
0000
0100
,  // measure 152
0000
0010
0000
0001
0100
0010
0000
01M0
,  // measure 153
0000
0010
1001
0000
1000
2010
0000
0002
,  // measure 154
0000
0020
0003
3001
1000
0100
1000
0001
,  // measure 155
0130
0001
0010
0010
0000
0010
0010
0000
,  // measure 156
1100
1010
0101
0011
0000
0000
0000
2000
,  // measure 157
0001
0010
3100
1000
0010
0000
0000
0100
0001
0000
0M00
0001
1000
0001
0000
0000
,  // measure 158
0011
0000
0010
0000
00M0
0100
0010
0000
0001
1000
0000
1000
0010
1000
0000
1000
,  // measure 159
0100
0000
0010
0000
0001
0000
00M0
0001
1000
0000
M001
0100
0010
0100
0000
0100
,  // measure 160
0001
0000
0100
0000
0M00
0010
0100
0000
0001
1000
0000
0100
0010
0100
0000
0000
,  // measure 161
0011
0000
0001
0000
0001
0040
0001
0000
0100
0000
0100
0000
0001
4030
0001
0000
,  // measure 162
0010
0000
0001
0000
0010
3400
0010
0000
1000
0000
1000
0000
0010
0000
0010
0300
,  // measure 163
0001
0000
0010
0100
0001
0000
0010
0000
1000
0000
0011
0000
0000
0000
1010
0000
,  // measure 164
00M1
0000
1000
0000
0000
0010
0100
0000
0000
0100
0001
0000
0000
1000
0100
0000
,  // measure 165
0100
0010
0001
0000
0022
0000
0000
0030
0000
0000
0003
0000
0000
0000
0000
0000
,  // measure 166
0001
0010
0100
0000
2020
0000
0000
0030
0000
0000
3000
0000
0000
0000
0000
0000
,  // measure 167
1000
0010
0100
0000
0012
0003
0010
0100
0000
0100
1000
0000
1010
0000
0010
0100
,  // measure 168
0001
0100
0010
0000
0000
0000
1000
0000
1001
0000
0001
0000
1100
0000
0001
0000
,  // measure 169
0100
0010
0100
0010
0002
0000
0000
0000
0000
0000
0000
0000
0000
0000
0000
0000
,  // measure 170
0000
0003
0000
0000
;
