#TITLE:NEW SENSATION -もう、あなたしか見えない-;
#SUBTITLE:;
#ARTIST:SUPER HEROINE 彩香-AYAKA-;
#TITLETRANSLIT:NEW SENSATION -MOU, ANATA SHIKA MIENAI-;
#SUBTITLETRANSLIT:;
#ARTISTTRANSLIT:SUPER HEROINE -AYAKA-;
#GENRE:;
#CREDIT:Telperion;
#BANNER:newsensation-bn.png;
#BACKGROUND:newsensation-bg.png;
#LYRICSPATH:;
#CDTITLE:;
#MUSIC:newsensation.ogg;
#OFFSET:-0.283;
#SAMPLESTART:38.683;
#SAMPLELENGTH:18.000;
#SELECTABLE:YES;
#BPMS:0.000=200.000;
#STOPS:;
#BGCHANGES:;
#KEYSOUNDS:;

//---------------dance-single - Telperion----------------
#NOTES:
     dance-single:
     Telperion:
     Challenge:
     14:
     1.000,1.000,0.010,0.332,1.000:
0000
0000
0000
0000
,
0000
0000
0000
0000
,
0000
0000
0000
0000
,
0000
0000
0000
0000
,
1100
0000
0000
0000
,
0001
0000
0000
0000
,
0100
0000
0010
0000
,
0200
0000
0000
0300
,
0001
0000
1000
0000
0001
0000
1000
0100
1000
0100
0010
0000
0100
0000
1000
0100
,
0010
0000
0001
0000
1000
0000
0001
0100
0001
0100
0001
0000
1000
0000
0001
0100
,
0010
0000
1000
0000
0001
0000
1000
0100
0010
0100
0010
0000
0100
0000
1000
0001
,
0010
0001
0010
0001
1000
0001
1000
0001
0100
0010
0100
0001
1000
0010
0100
0001
,
1000
0000
0001
0000
0100
0000
0010
0100
0001
0100
0001
0000
1000
0000
0010
1000
,
0100
0000
0010
0000
0001
0000
0010
0100
1000
0100
1000
0000
0001
0000
1000
0010
,
0100
0000
0001
0000
0100
0000
0001
0010
0100
0000
1000
0000
0100
0000
1000
0010
,
0100
0000
0001
0010
0100
0000
0001
0100
0010
0000
0001
1000
0010
0000
0100
0010
,
0200
0001
0320
0000
,
1030
0000
0000
0100
0000
0000
0010
0000
0000
0000
0100
0000
1000
0000
0100
0000
,
0001
0100
0001
0100
0001
0100
0010
0010
,
0000
0001
0001
0000
0000
0100
0010
0100
,
0002
1000
0023
0000
,
0130
0000
0000
1000
0000
0000
0010
0000
0000
0000
1000
0000
0100
0000
0010
0000
,
0001
0010
0100
0010
0001
1000
0100
1000
0001
0100
0010
0100
0001
0100
0001
0100
,
0010
1000
0001
0010
0100
1000
0001
0100
0010
0000
0000
0000
0000
0000
0000
0000
,
1000
0000
0001
0000
1000
0000
0001
0100
0010
0100
0010
0100
0001
0100
0001
0100
,
0010
0000
1000
0000
0001
0000
1000
0100
0010
0100
0010
0100
1000
0100
1000
0100
,
0010
0000
0001
0000
1000
0000
0001
1000
0001
0100
0001
0100
0010
0100
0010
0100
,
0001
0000
1000
0000
0001
0000
1000
0001
1000
0100
0010
0001
1000
0100
0010
0001
,
1000
0000
0001
0000
0100
0000
0010
0100
0001
1000
0001
1000
0001
1000
0100
0010
,
0001
0000
0010
0000
0001
0000
0010
0001
1000
0001
1000
0001
1000
0010
0100
0001
,
1000
0010
1000
0010
0100
0001
0100
0001
0010
0001
0010
0100
1000
0100
1000
0100
,
1000
0001
0010
0100
1000
0001
0100
0010
1000
0001
1000
0010
0100
0001
1000
0100
,
0010
0000
0100
0000
0010
0000
0001
1000
0001
0000
0010
0000
0100
0000
1000
0100
,
1000
0000
0001
0000
0100
0000
0001
0100
0001
0000
1000
0000
0100
0000
0010
0100
,
1000
0000
0010
0000
0100
0000
0001
0100
0001
0000
1000
0000
0100
0000
0010
0100
,
0010
0000
0100
0000
1000
0000
0001
0100
0001
0000
1000
0001
1000
0000
0100
1000
,
0100
0000
0010
0000
0001
0000
1000
0001
1000
0000
0020
0030
0200
0300
0001
0000
,
0020
0030
0200
0300
1000
0000
0200
0300
0010
0000
0002
0003
0010
0000
0200
0300
,
1000
0001
1000
0100
1000
0001
1000
0100
0010
0001
0010
0100
1000
0001
0010
0100
,
1000
0000
0000
0001
1000
0001
1000
0000
0000
0001
0100
0001
0100
0000
0000
0001
1000
0001
1000
0000
0000
0000
0000
0000
,
0200
0300
0010
0000
0100
0000
1000
0100
2000
3000
0001
0000
0100
0000
0010
0100
,
0020
0030
1000
0000
0010
0000
0100
0001
0200
0300
0010
0000
0100
0000
0001
1000
,
0200
0300
0010
0000
0001
0000
1000
0001
2000
3000
0100
0000
0010
0000
0100
1000
,
0020
0030
0100
0000
0001
0000
1000
0010
2000
3000
0001
0000
0010
0000
0100
0000
,
2000
3000
0001
0000
1000
0100
0010
0001
0020
0000
0000
0000
0030
0000
0000
0000
,
0001
0000
1000
0000
0001
0100
0010
1000
0020
0000
0000
0000
0030
0000
0000
0000
,
0100
0010
0100
0001
0100
0010
1000
0001
0100
0010
0100
0001
1000
0010
0100
0010
,
4000
0004
0000
0000
0000
0000
0000
0000
0000
0000
0000
0000
0000
0000
0000
0000
0000
0000
0000
0000
0000
0000
0000
0000
3003
0000
0000
0000
0000
0000
0000
0000
,
0010
0000
0001
0000
1000
0000
0100
1000
0001
1000
0001
0000
0010
0000
0100
1000
,
0100
0000
0010
0000
0001
0000
1000
0001
0010
0001
0010
0000
0100
0000
0010
0001
,
1000
0000
0001
0000
0100
0000
0010
0100
0001
0100
0001
0000
1000
0000
0010
0100
,
0010
0000
0100
0000
0001
0000
1000
0010
0100
0010
0100
0000
0001
0000
1000
0001
,
0020
0000
0130
0000
1000
0000
0001
0010
0001
0010
0001
0000
1000
0000
0001
1000
,
0001
0000
0100
0000
0001
0000
1000
0010
1000
0010
1000
0000
0001
0000
1000
0100
,
0010
0001
1000
0001
0010
0100
2000
3001
0010
0100
2000
3010
0100
0010
2000
3100
,
0010
0001
1000
0010
0100
0001
1000
0100
0010
0001
1000
0001
0010
0001
1000
0100
,
0010
0000
0100
0000
1000
0000
0001
1000
0100
1000
0001
0000
0100
0000
0010
0100
,
0010
0000
1000
0000
0010
0000
0100
0001
1000
0001
0100
0000
0010
0000
0100
0001
,
0010
0000
0100
0000
1000
0000
0001
0010
0100
0010
0001
0000
1000
0000
0001
1000
,
0010
0000
0100
0000
0001
0000
0100
0010
1000
0010
1000
0010
0100
0001
0100
0001
,
1000
0000
0100
0000
0010
0000
0001
0010
0100
1000
0100
0000
1000
0000
0001
0000
,
1000
0000
0010
0000
0100
0000
0010
1000
0001
0100
0001
0000
1000
0000
0001
1000
,
0001
0010
0100
1000
0001
0010
0001
1000
0001
0010
0100
1000
0001
1000
0010
1000
,
0001
0100
0010
1000
0001
0010
0100
1000
0010
0000
0000
0000
0000
0000
0000
0000
,
0100
0001
0100
0001
0100
0000
0001
1000
0100
1000
0100
1000
0100
0000
1000
0001
,
0010
0001
0010
0001
0010
0000
0001
1000
0010
0100
0010
0100
0010
0000
0100
0001
,
1000
0001
1000
0001
1000
0000
0001
1000
0100
1000
0001
1000
0001
0000
1000
0100
,
0010
0100
0010
0100
0010
0000
0100
1000
0001
0100
0010
0100
0001
0100
0010
1000
,
0001
0100
0001
0100
0001
0000
0100
0001
1000
0100
1000
0100
1000
0000
0100
1000
,
0001
0010
0001
0010
0001
0000
1000
0001
0100
0010
0100
0010
0100
0000
0010
1000
,
0100
0010
0100
1000
0001
0010
0100
1000
0001
1000
0100
1000
0001
0010
0100
0010
,
0001
1000
0010
0100
0010
1000
0010
0100
0001
0000
0000
0000
0000
0000
0000
0000
,
0020
0001
0230
0000
,
1300
0000
0000
0001
0000
0000
0100
0000
0000
0000
0010
0000
1000
0000
0010
0000
,
0001
0010
0001
0010
0001
0010
0100
0100
,
0000
0001
0001
0000
0000
0100
0010
1000
,
0200
0001
2300
0000
,
3010
0000
0000
0100
0000
0000
0001
0000
0000
0000
1000
0000
0010
0000
0100
0000
,
0001
1000
0001
0010
0100
0010
0001
1000
0010
0100
0010
1000
0001
1000
0100
0010
,
0100
1000
0001
0100
0010
0100
0001
1000
0010
1000
0100
0010
2000
0000
3000
0000
;
