#TITLE:NB Rangers NonStop;
#SUBTITLE:;
#ARTIST:Paul Bazooka remixing M2U and NieN (but not Sugardonut because that part sucked);
#TITLETRANSLIT:;
#SUBTITLETRANSLIT:;
#ARTISTTRANSLIT:;
#GENRE:;
#CREDIT:Telperion;
#BANNER:nbrns-bn.png;
#BACKGROUND:nbrns-bg.png;
#LYRICSPATH:;
#CDTITLE:;
#MUSIC:nbrns.ogg;
#OFFSET:-0.193084;
#SAMPLESTART:67.050003;
#SAMPLELENGTH:13.693999;
#SELECTABLE:YES;
#DISPLAYBPM:140.000000:185.000000;
#BPMS:0.000000=140.000000,260.000000=185.000000;
#STOPS:;
#DELAYS:;
#TIMESIGNATURES:0.000000=4=4
;
#BGCHANGES:;
#KEYSOUNDS:;
#ATTACKS:;

//---------------dance-single - Telperion----------------
#NOTES:
     dance-single:
     Telperion:
     Challenge:
     11:
     0.700,0.837,0.366,0.564,0.512,683.000,63.000,97.000,63.000,8.000,6.000,0.000,0.700,0.837,0.366,0.564,0.512,683.000,63.000,97.000,63.000,8.000,6.000,0.000: // measure 1
0000
0000
0000
0000
,  // measure 2
0000
0000
0000
0000
,  // measure 3
2000
0000
0000
0000
3001
0000
0000
0000
0010
0001
0000
0000
0001
0100
0000
0000
,  // measure 4
0100
0010
0000
0000
0010
1000
0010
0000
0200
0000
0300
0000
0010
0100
0000
0100
,  // measure 5
0002
1000
0003
0000
2000
0100
3000
0000
0200
0010
0300
0000
0020
0001
0030
0001
,  // measure 6
1000
0000
0010
0000
0000
0000
0000
0000
0100
0000
0000
0000
0100
0000
0000
0000
0100
0000
0000
0000
0000
0000
0010
0100
0010
0000
0000
0000
0000
0000
0000
0000
,  // measure 7
1000
0001
0101
1000
0010
0100
1100
0001
,  // measure 8
0010
0000
0000
0000
0100
0000
0000
0000
0101
0000
0000
0000
1000
0000
0000
0000
1000
0000
0000
0000
0000
0000
0001
1000
0001
0000
0000
0000
0000
0000
0000
0000
,  // measure 9
1000
0100
0100
0001
1000
0100
1000
0001
1000
0010
0010
0001
1000
0010
1000
0001
,  // measure 10
0100
0000
0100
0000
0100
0000
0100
0000
0120
0000
0000
0030
0010
0000
0000
0000
,  // measure 11
1000
0100
0001
1000
0010
0001
0100
0000
0000
0010
0100
0001
,  // measure 12
0100
0000
1000
0000
0000
0000
0001
0000
0010
0000
1000
0000
0100
0000
0000
0MM0
0000
0000
0010
0000
0100
0000
0010
0000
,  // measure 13
0001
0010
1000
0001
0100
1000
0010
0001
1000
0100
0001
0010
,  // measure 14
0100
0010
0001
1000
0010
M000
0000
0000
,  // measure 15
0100
0000
1000
0MMM
1000
0000
0010
0000
1000
0MMM
1000
0000
0100
0000
0000
0000
0000
0000
0001
0000
1000
0000
0100
0000
,  // measure 16
0001
MMM0
0001
0000
0000
0000
0010
MM01
0010
0000
0001
0000
0100
0000
0000
0M00
0000
0000
0010
0000
1000
0000
0100
0000
,  // measure 17
0001
MMM0
0001
0000
0010
0000
0001
0000
0100
0000
0010
0000
1000
0MMM
1000
0000
0100
0000
1000
0MMM
1000
0000
0010
0000
,  // measure 18
0100
0000
0001
0010
0001
0000
1000
0010
1000
0000
M001
0010
0001
0000
000M
0000
,  // measure 19
0002
0000
0000
0203
0000
0000
0320
0000
0000
0032
0000
0000
2003
0000
0000
3020
,  // measure 20
0000
0000
0230
0000
0000
2300
0000
0000
3002
0000
0M00
0003
00M0
0000
0000
0000
,  // measure 21
2000
0000
0000
3200
0000
0000
0320
0000
0000
2030
0000
0000
3002
0000
0000
0023
,  // measure 22
0000
0000
0230
0000
0000
0302
0000
0000
1003
0000
M1M1
0000
0010
0000
0000
0000
,  // measure 23
1000
0000
1000
0100
0000
0100
0010
0000
0001
0100
0000
0100
0010
0000
1000
0001
,  // measure 24
0000
0001
0010
0000
0100
1000
0100
0010
0001
1000
0M00
1000
0000
1000
0000
0000
,  // measure 25
0001
0010
0010
1000
0010
0010
0001
0100
0100
1000
0100
0100
0001
0010
0010
0100
,  // measure 26
0004
0000
0000
0000
4003
0000
0000
0000
3200
0000
0300
0000
0010
0100
0010
0100
,  // measure 27
M02M
0000
0000
0000
,  // measure 28
0000
0000
0000
0000
0000
0000
0000
0000
0031
0100
0001
0100
0001
0100
0001
0000
0M00
0000
0000
0000
0000
0000
0000
0000
0000
0000
0000
0000
0000
0000
0000
0000
,  // measure 29
0000
0000
0000
0000
,  // measure 30
0000
0000
0000
0000
0000
0000
0000
0000
0000
0000
0000
0000
0000
1000
0000
0000
0200
0000
0000
0000
0300
0000
0000
0000
0100
0000
0000
0000
0100
0000
0000
0000
,  // measure 31
0000
0000
0000
0000
,  // measure 32
0000
0000
0000
0000
0000
0000
0000
0000
1000
0100
1000
0100
1000
0100
1000
0000
0M00
0000
0000
0000
0000
0000
0000
0000
0000
0000
0000
0000
0000
0000
0000
0000
,  // measure 33
0000
0000
0000
0000
,  // measure 34
0000
0000
0000
0000
0000
0000
0000
0000
0000
0000
0000
0000
0000
0001
0000
0000
0200
0000
0000
0000
0300
0000
0000
0000
0100
0000
0000
0000
0100
0000
0000
0000
,  // measure 35
0100
1010
0100
1010
,  // measure 36
0100
0000
0000
0000
0000
0000
0000
0000
0001
1000
0001
1000
0001
1000
0001
0000
0000
0000
0000
0000
0000
0000
0000
0000
0011
0000
0000
0000
0000
0000
0000
0000
,  // measure 37
1000
1010
0001
0011
,  // measure 38
1000
0100
0010
0001
0100
0010
0100
0001
,  // measure 39
1000
0000
0100
0000
1000
0000
0100
0000
0010
0000
0100
0000
0010
0000
0001
0000
1000
0000
0010
0000
0100
0000
0001
0000
0020
0000
0000
0000
0000
0000
0000
0030
,  // measure 40
2200
0000
0000
0000
,  // measure 41
0001
0000
0001
0000
,  // measure 42
0020
0000
0000
0000
,  // measure 43
0002
0000
3333
0000
,  // measure 44
02M2
0000
0000
00M0
0000
0000
M000
0000
,  // measure 45
20M0
0000
0000
00M0
3020
0000
M300
0000
,  // measure 46
2M30
0M00
0M00
0000
0M00
0M00
3M03
0000
,  // measure 47
1000
0010
0100
0010
0001
0010
2000
3000
,  // measure 48
0011
0000
0001
0010
0001
0000
1000
0100
1000
0100
0010
0000
0001
1000
0001
0000
,  // measure 49
0010
0100
1000
0000
1000
0000
0001
0100
0001
0000
1001
0000
1000
0000
0000
0000
,  // measure 50
0010
0100
0010
0000
0010
0000
0100
1000
0100
0010
0100
0000
0001
0100
0001
0000
,  // measure 51
0010
0100
0010
0000
0110
0000
1000
0001
0010
0000
0110
0000
0001
0000
0000
0000
,  // measure 52
1000
0100
1000
0000
0001
0000
1000
0100
1000
0000
0001
0000
1000
0100
0001
0000
,  // measure 53
0100
1000
0001
0000
0001
0000
1000
0010
1000
0000
1000
0000
0001
0100
1000
0000
,  // measure 54
0110
0000
1000
0100
0010
0000
0100
0000
1000
0001
0100
0000
0010
0100
1000
0000
,  // measure 55
0110
0000
0001
1000
0001
0000
0010
0000
0001
0100
0010
0100
0001
0010
0100
1000
,  // measure 56
0020
0000
0000
0000
0000
0000
0000
0000
0000
0000
0000
0000
0000
0000
0000
0000
0000
0000
0000
0000
0000
0000
0000
0000
0000
0000
0000
0000
0000
0000
0000
0000
0000
0000
0000
0000
0000
0000
0000
0000
0000
0000
0000
0000
0000
0000
0000
0030
0010
0000
0000
0000
0000
0000
0000
0000
0000
0000
0000
0000
0000
0000
0000
0000
0000
0000
0000
0000
0000
0000
0000
0000
0100
0000
0000
0000
0000
0000
0000
0000
0000
0000
0000
0000
0010
0000
0000
0000
0000
0000
0000
0000
0000
0000
0000
0000
0100
0000
0000
0000
0000
0000
0000
0000
0000
0000
0000
0000
0000
0000
0000
0000
0000
0000
0000
0000
0000
0000
0000
0000
0002
0000
0000
0000
0000
0000
0000
0000
0000
0000
0000
0000
0000
0000
0000
0000
0000
0000
0000
0000
0000
0000
0000
0000
1000
0000
0000
0000
0000
0000
0000
0000
0000
0000
0000
0000
0000
0000
0000
0000
0000
0000
0000
0000
0000
0000
0000
0000
0013
0000
0000
0000
0000
0000
0000
0000
0000
0000
0000
0000
0000
0000
0000
0000
0000
0000
0000
0000
0000
0000
0000
0000
,  // measure 57
0120
0000
0000
0000
0000
0000
0000
0000
0000
0000
0000
0000
0000
0000
0000
0000
0000
0000
0000
0000
0000
0000
0000
0000
0000
0000
0000
0000
0000
0000
0000
0000
0000
0000
0000
0000
0000
0000
0000
0000
0000
0000
0000
0000
0000
0000
0000
0030
0010
0000
0000
0000
0000
0000
0000
0000
0000
0000
0000
0000
0000
0000
0000
0000
0000
0000
0000
0000
0000
0000
0000
0000
0100
0000
0000
0000
0000
0000
0000
0000
0000
0000
0000
0000
1000
0000
0000
0000
0000
0000
0000
0000
0000
0000
0000
0000
0100
0000
0000
0000
0000
0000
0000
0000
0000
0000
0000
0000
0000
0000
0000
0000
0000
0000
0000
0000
0000
0000
0000
0000
2000
0000
0000
0000
0000
0000
0000
0000
0000
0000
0000
0000
0000
0000
0000
0000
0000
0000
0000
0000
0000
0000
0000
0000
0001
0000
0000
0000
0000
0000
0000
0000
0000
0000
0000
0000
0000
0000
0000
0000
0000
0000
0000
0000
0000
0000
0000
0000
3010
0000
0000
0000
0000
0000
0000
0000
0000
0000
0000
0000
0000
0000
0000
0000
0000
0000
0000
0000
0000
0000
0000
0000
,  // measure 58
0120
0000
0000
0000
0000
0000
0000
0000
0000
0000
0000
0000
0000
0000
0000
0000
0000
0000
0000
0000
0000
0000
0000
0000
0000
0000
0000
0000
0000
0000
0000
0000
0000
0000
0000
0000
0000
0000
0000
0000
0000
0000
0000
0000
0000
0000
0000
0030
0010
0000
0000
0000
0000
0000
0000
0000
0000
0000
0000
0000
0000
0000
0000
0000
0000
0000
0000
0000
0000
0000
0000
0000
0100
0000
0000
0000
0000
0000
0000
0000
0000
0000
0000
0000
0001
0000
0000
0000
0000
0000
0000
0000
0000
0000
0000
0000
0100
0000
0000
0000
0000
0000
0000
0000
0000
0000
0000
0000
0000
0000
0000
0000
0000
0000
0000
0000
0000
0000
0000
0000
2000
0000
0000
0000
0000
0000
0000
0000
0000
0000
0000
0000
0000
0000
0000
0000
0000
0000
0000
0000
0000
0000
0000
0000
3100
0000
0000
0000
0000
0000
0000
0000
0000
0000
0000
0000
0000
0000
0000
0000
0000
0000
0000
0000
0000
0000
0000
0000
0002
0000
0000
0000
0000
0000
0000
0000
0000
0000
0000
0000
0000
0000
0000
0000
0000
0000
0000
0000
0000
0000
0000
0000
,  // measure 59
0023
0000
0000
0000
0000
0000
0000
0000
0000
0000
0000
0000
0000
0000
0000
0000
0000
0000
0000
0000
0000
0000
0000
0000
0000
0000
0000
0000
0000
0000
0000
0000
0000
0000
0000
0000
0000
0000
0000
0000
0000
0000
0000
0000
0000
0000
0000
0030
0010
0000
0000
0000
0000
0000
0000
0000
0000
0000
0000
0000
0000
0000
0000
0000
0000
0000
0000
0000
0000
0000
0000
0000
0100
0000
0000
0000
0000
0000
0000
0000
0000
0000
0000
0000
1000
0000
0000
0000
0000
0000
0000
0000
0000
0000
0000
0000
0020
0000
0000
0000
0000
0000
0000
0000
0000
0000
0000
0000
0000
0000
0000
0000
0000
0000
0000
0000
0000
0000
0000
0000
0000
0000
0000
0000
0000
0000
0000
0000
0000
0000
0000
0000
0000
0000
0000
0000
0000
0000
0000
0000
0000
0000
0000
0030
0010
0000
0000
0000
0000
0000
0000
0000
0000
0000
0000
0000
0000
0000
0000
0000
0000
0000
0000
0000
0000
0000
0000
0000
0010
0000
0000
0000
0000
0000
0000
0000
0000
0000
0000
0000
0000
0000
0000
0000
0000
0000
0000
0000
0000
0000
0000
0000
,  // measure 60
0020
0000
0000
0000
0000
0000
0000
0000
0000
0000
0000
0000
0000
0000
0000
0000
0000
0000
0000
0000
0000
0000
0000
0000
0100
0000
0000
0000
0000
0000
0000
0000
0000
0000
0000
0000
0000
0000
0000
0000
0000
0000
0000
0000
0000
0000
0000
0030
0010
0000
0000
0000
0000
0000
0000
0000
0000
0000
0000
0000
0000
0000
0000
0000
0000
0000
0000
0000
0000
0000
0000
0000
1000
0000
0000
0000
0000
0000
0000
0000
0000
0000
0000
0000
0001
0000
0000
0000
0000
0000
0000
0000
0000
0000
0000
0000
1000
0000
0000
0000
0000
0000
0000
0000
0000
0000
0000
0000
0000
0000
0000
0000
0000
0000
0000
0000
0000
0000
0000
0000
1200
0000
0000
0000
0000
0000
0000
0000
0000
0000
0000
0000
0000
0000
0000
0000
0000
0000
0000
0000
0000
0000
0000
0000
0010
0000
0000
0000
0000
0000
0000
0000
0000
0000
0000
0000
0000
0000
0000
0000
0000
0000
0000
0000
0000
0000
0000
0000
1300
0000
0000
0000
0000
0000
0000
0000
0000
0000
0000
0000
0000
0000
0000
0000
0000
0000
0000
0000
0000
0000
0000
0000
,  // measure 61
0021
0000
0000
0000
0000
0000
0000
0000
0000
0000
0000
0000
0000
0000
0000
0000
0000
0000
0000
0000
0000
0000
0000
0000
0000
0000
0000
0000
0000
0000
0000
0000
0000
0000
0000
0000
0000
0000
0000
0000
0000
0000
0000
0000
0000
0000
0000
0030
0010
0000
0000
0000
0000
0000
0000
0000
0000
0000
0000
0000
0000
0000
0000
0000
0000
0000
0000
0000
0000
0000
0000
0000
0001
0000
0000
0000
0000
0000
0000
0000
0000
0000
0000
0000
1000
0000
0000
0000
0000
0000
0000
0000
0000
0000
0000
0000
0100
0000
0000
0000
0000
0000
0000
0000
0000
0000
0000
0000
0001
0000
0000
0000
0000
0000
0000
0000
0000
0000
0000
0000
0100
0000
0000
0000
0000
0000
0000
0000
0000
0000
0000
0000
0000
0000
0000
0000
0000
0000
0000
0000
0000
0000
0000
0000
0100
0000
0000
0000
0000
0000
0000
0000
0000
0000
0000
0000
0010
0000
0000
0000
0000
0000
0000
0000
0000
0000
0000
0000
0100
0000
0000
0000
0000
0000
0000
0000
0000
0000
0000
0000
0000
0000
0000
0000
0000
0000
0000
0000
0000
0000
0000
0000
,  // measure 62
2000
0000
3010
0100
0020
0000
1030
0100
1000
0100
0020
0000
0031
0010
0000
0000
,  // measure 63
0002
0000
1003
0010
0002
0000
0013
0100
0002
0000
0003
0000
0002
0000
2000
0000
,  // measure 64
0040
0000
0000
0000
,  // measure 65
0000
0000
0000
0000
,  // measure 66
3M33
0000
0000
0100
,  // measure 67
0M00
0000
0100
0100
0M00
0000
0100
0200
,  // measure 68
0000
0300
0100
0100
0M00
0M00
0100
0100
,  // measure 69
0M00
0000
0100
0M00
0000
0100
0000
0020
,  // measure 70
0000
0030
0020
0030
0000
0000
0001
1000
,  // measure 71
1000
1000
1000
1000
0010
M001
0100
100M
,  // measure 72
0001
0000
0010
0000
0001
0000
1000
0010
0001
0000
0010
0000
0100
0000
0001
0000
,  // measure 73
1000
0000
0001
0010
1000
0000
0010
0000
0100
0000
1000
0000
0001
0000
1000
0010
,  // measure 74
1000
0000
0001
0000
0010
0000
0100
0000
1000
0000
0001
0010
0001
0000
1000
0000
,  // measure 75
0010
0000
0010
0000
2002
0000
3003
0000
0010
0000
0001
0000
1000
0010
1000
0000
,  // measure 76
0001
0000
0200
0000
1000
0000
0301
1000
0001
0000
1000
0000
1000
0000
0200
0000
,  // measure 77
0001
0000
1300
0001
1000
0000
0010
0000
0100
0000
0001
0000
0010
0000
0220
0000
,  // measure 78
0000
0000
0000
0000
0000
0000
0000
0000
0000
0000
0000
0000
0000
0000
0000
0000
0000
0000
0000
0000
0000
0000
0000
0000
0000
0000
0000
0000
0000
0000
0000
0000
0000
0000
0000
0000
0000
0000
0000
0000
0000
0000
0000
0000
0000
0000
0000
0000
0000
0000
0000
0000
0000
0000
0000
0000
0000
0000
0000
0000
0000
0000
0000
0000
0000
0000
0000
0000
0000
0000
0000
0000
0030
0000
0000
0000
0000
0000
0000
0000
0000
0000
0000
0000
0000
0000
0000
0000
0000
0000
0000
0000
0000
0000
0000
0000
0001
0000
0000
0000
0000
0000
0000
0000
0000
0000
0000
0000
0000
0000
0000
0000
0000
0000
0000
0000
0000
0000
0000
0000
1000
0000
0000
0000
0000
0000
0000
0000
0000
0000
0000
0000
0000
0000
0000
0000
0000
0000
0000
0000
0000
0000
0000
0300
0100
0000
0000
0000
0000
0000
0000
0000
0000
0000
0000
0000
0000
0000
0000
0000
0000
0000
0000
0000
0000
0000
0000
0000
1000
0000
0000
0000
0000
0000
0000
0000
0000
0000
0000
0000
0000
0000
0000
0000
0000
0000
0000
0000
0000
0000
0000
0000
,  // measure 79
0020
0000
0000
0000
0000
0000
0000
0000
0000
0000
0000
0000
0000
0000
0000
0000
0000
0000
0000
0000
0000
0000
0000
0000
0001
0000
0000
0000
0000
0000
0000
0000
0000
0000
0000
0000
0000
0000
0000
0000
0000
0000
0000
0000
0000
0000
0000
0000
1000
0000
0000
0000
0000
0000
0000
0000
0000
0000
0000
0000
0000
0000
0000
0000
0000
0000
0000
0000
0000
0000
0000
0030
0010
0000
0000
0000
0000
0000
0000
0000
0000
0000
0000
0000
0000
0000
0000
0000
0000
0000
0000
0000
0000
0000
0000
0000
0100
0000
0000
0000
0000
0000
0000
0000
0000
0000
0000
0000
0000
0000
0000
0000
0000
0000
0000
0000
0000
0000
0000
0000
1000
0000
0000
0000
0000
0000
0000
0000
0000
0000
0000
0000
0000
0000
0000
0000
0000
0000
0000
0000
0000
0000
0000
0000
0100
0000
0000
0000
0000
0000
0000
0000
0000
0000
0000
0000
0000
0000
0000
0000
0000
0000
0000
0000
0000
0000
0000
0000
0001
0000
0000
0000
0000
0000
0000
0000
0000
0000
0000
0000
0000
0000
0000
0000
0000
0000
0000
0000
0000
0000
0000
0000
,  // measure 80
0020
0000
0000
0000
,  // measure 81
0000
0000
0000
0000
,  // measure 82
0230
0000
0000
0000
,  // measure 83
0300
0000
0000
0000
,  // measure 84
MM1M
0010
0010
0010
0010
0010
0010
0010
,  // measure 85
0100
0100
0100
0100
0100
0100
0100
0100
,  // measure 86
0010
0100
0001
1000
0010
0001
1000
0010
,  // measure 87
0100
0010
1000
0001
0010
0001
0100
0001
1000
0100
1000
0010
1000
0001
0010
0000
,  // measure 88
0110
0000
0001
0100
0010
0100
0001
1000
,  // measure 89
0011
0000
1000
0100
0010
1000
0010
0001
,  // measure 90
1010
0000
0001
0100
0010
0010
0100
0001
,  // measure 91
1100
0000
1000
0101
0000
0010
1001
0000
,  // measure 92
0110
0000
0001
0040
1000
0000
0100
0030
,  // measure 93
0101
0000
1010
0040
0001
0000
0100
0030
,  // measure 94
1100
0000
0001
0001
1000
0001
0001
0040
,  // measure 95
0200
0300
0002
0003
2000
3000
0032
1003
,  // measure 96
0110
0000
0012
0003
0012
0003
1000
0012
,  // measure 97
0003
1000
0001
2010
3000
0001
1000
0100
,  // measure 98
0010
0000
0100
1000
0001
0100
0020
0000
,  // measure 99
0000
0000
0000
0000
,  // measure 100
0200
0000
0000
0000
,  // measure 101
0000
0000
0000
0330
,  // measure 102
1001
0000
1001
0000
,  // measure 103
1001
0000
1001
0000
,  // measure 104
1001
1001
1001
1001
,  // measure 105
1001
1001
1001
1001
,  // measure 106
2002
0000
0000
0000
0000
0000
0000
0000
0000
0000
0000
0000
0000
0000
0000
0000
0000
0000
0000
0000
0000
0000
0000
0000
0000
0000
0000
0000
0000
0000
0000
0000
0000
0000
0000
0000
0000
0000
0000
0000
0000
0000
0000
0000
0000
0000
0000
3003
2002
0000
0000
0000
0000
0000
0000
0000
0000
0000
0000
0000
0000
0000
0000
0000
0000
0000
0000
0000
0000
0000
0000
0000
0000
0000
0000
0000
0000
0000
0000
0000
0000
0000
0000
0000
0000
0000
0000
0000
0000
0000
0000
0000
0000
0000
0000
3003
2002
0000
0000
0000
0000
0000
0000
0000
0000
0000
0000
0000
0000
0000
0000
0000
0000
0000
0000
0000
0000
0000
0000
0000
0000
0000
0000
0000
0000
0000
0000
0000
0000
0000
0000
0000
0000
0000
0000
0000
0000
0000
0000
0000
0000
0000
0000
3003
2002
0000
0000
0000
0000
0000
0000
0000
0000
0000
0000
0000
0000
0000
0000
0000
0000
0000
0000
0000
0000
0000
0000
0000
0000
0000
0000
0000
0000
0000
0000
0000
0000
0000
0000
0000
0000
0000
0000
0000
0000
0000
0000
0000
0000
0000
0000
3003
,  // measure 107
2002
0000
0000
0000
0000
0000
0000
0000
0000
0000
0000
0000
0000
0000
0000
0000
0000
0000
0000
0000
0000
0000
0000
0000
0000
0000
0000
0000
0000
0000
0000
0000
0000
0000
0000
0000
0000
0000
0000
0000
0000
0000
0000
0000
0000
0000
0000
3003
2002
0000
0000
0000
0000
0000
0000
0000
0000
0000
0000
0000
0000
0000
0000
0000
0000
0000
0000
0000
0000
0000
0000
0000
0000
0000
0000
0000
0000
0000
0000
0000
0000
0000
0000
0000
0000
0000
0000
0000
0000
0000
0000
0000
0000
0000
0000
3003
2002
0000
0000
0000
0000
0000
0000
0000
0000
0000
0000
0000
0000
0000
0000
0000
0000
0000
0000
0000
0000
0000
0000
0000
0000
0000
0000
0000
0000
0000
0000
0000
0000
0000
0000
0000
0000
0000
0000
0000
0000
0000
0000
0000
0000
0000
0000
3003
2002
0000
0000
0000
0000
0000
0000
0000
0000
0000
0000
0000
0000
0000
0000
0000
0000
0000
0000
0000
0000
0000
0000
0000
0000
0000
0000
0000
0000
0000
0000
0000
0000
0000
0000
0000
0000
0000
0000
0000
0000
0000
0000
0000
0000
0000
0000
3003
,  // measure 108
1001
0010
0001
0100
M000
0110
1000
0100
,  // measure 109
000M
1100
0001
0100
M000
0011
1000
0010
,  // measure 110
010M
0000
0000
0010
0000
0000
1000
0000
,  // measure 111
0001
0000
0000
0001
0000
0000
0001
0000
;
