#TITLE:Moves Like The Strong Jaeger;
#SUBTITLE:Remixed by DJ 80;
#ARTIST:L.E.D.-5;
#TITLETRANSLIT:;
#SUBTITLETRANSLIT:;
#ARTISTTRANSLIT:;
#GENRE:;
#CREDIT:Telperion;
#BANNER:mltsj-bn.png;
#BACKGROUND:mltsj-bg.png;
#LYRICSPATH:;
#CDTITLE:;
#MUSIC:mltsj.ogg;
#OFFSET:-1.600;
#SAMPLESTART:38.762;
#SAMPLELENGTH:24.774;
#SELECTABLE:YES;
#DISPLAYBPM:*;
#BPMS:0.000=155.000
;
#STOPS:
;
#BGCHANGES:;
#KEYSOUNDS:;
#ATTACKS:;

//---------------dance-single - Telperion----------------
#NOTES:
     dance-single:
     :
     Challenge:
     11:
     0.914,1.000,0.442,0.364,0.957,646.000,51.000,42.000,115.000,0.000,0.000,0.914,1.000,0.442,0.364,0.957,646.000,51.000,42.000,115.000,0.000,0.000: // measure 0
0000
0000
0000
0000
,  // measure 1
0000
0000
0000
0000
,  // measure 2
0000
0000
0000
0000
,  // measure 3
0000
0000
0000
0000
,  // measure 4
2MM0
0000
0000
3000
0000
0000
0002
0000
0000
1003
0001
0000
0100
0000
0001
0000
,  // measure 5
2MM0
0000
0000
3000
0000
0000
0002
0000
0000
1003
0001
0000
0010
0000
0010
0001
,  // measure 6
2MM0
0000
0000
3001
0000
0000
0100
0000
0002
0000
0000
0000
0013
0000
0100
0000
,  // measure 7
11M0
000M
0000
00M0
0000
0M00
0000
0000
0000
0000
0000
0000
1001
0000
0100
0000
,  // measure 8
10M1
0000
0001
0010
0000
0100
1000
0100
0010
0001
1000
0000
0010
0000
1000
0000
,  // measure 9
1001
0000
0001
0010
0000
0001
1000
0100
0010
0100
1000
0000
0001
0000
1000
0000
,  // measure 10
1001
0000
1000
0010
0000
0100
0001
0100
0010
1000
0010
0000
0100
0000
0001
0000
,  // measure 11
0010
0100
1000
0001
0000
0100
0010
0100
0001
1000
0000
1000
0100
0000
0110
0000
,  // measure 12
10M1
0000
0001
0100
0000
0010
0100
0001
0010
0001
1000
0000
0010
0000
1000
0000
,  // measure 13
1001
0000
0001
0100
0000
0010
0100
0001
1000
0001
0100
0000
0001
0000
0001
0000
,  // measure 14
1001
0000
1000
0100
0000
0010
0100
1000
0001
0100
0010
0000
1010
0000
0010
0000
,  // measure 15
01M2
1M00
M010
10M0
M100
0M10
M013
0000
,  // measure 16
1100
0000
1000
0001
0000
1000
0100
1000
0010
0100
0010
0000
1000
0000
1000
0000
,  // measure 17
0001
0010
0100
0001
00M0
0001
0100
0010
0001
0100
0010
0000
1000
0010
1000
0010
,  // measure 18
0100
0000
0100
0001
0000
1000
0001
0010
0001
0010
0100
0000
1000
0000
0100
0000
,  // measure 19
1000
0010
0100
1000
00M0
1000
0100
0010
1000
0100
0010
0000
0001
0010
0001
0010
,  // measure 20
0100
1000
0100
1000
0100
1000
0001
1000
0010
0100
0010
0100
0010
0100
0001
1000
,  // measure 21
0100
0010
0100
00M1
1000
0010
0100
1000
0001
0100
0010
0100
10M0
0001
0010
0100
,  // measure 22
0001
0100
0110
1010
0001
0100
0101
0110
,  // measure 23
2020
0000
0000
0000
3030
0000
0001
1000
,  // measure 24
1001
0000
0000
001M
1000
0100
0010
0001
,  // measure 25
1000
0020
0000
0230
0000
0302
0000
0013
,  // measure 26
1001
0000
0000
M010
0001
0100
0010
0100
,  // measure 27
0001
0020
0000
0230
0000
1300
0001
1000
,  // measure 28
102M
0000
0000
0000
0000
0000
0000
0000
0000
0000
0000
0000
0000
0000
0000
0000
0100
0000
0000
0000
0000
0000
0000
0030
0010
0000
0000
0000
0000
0000
0000
0000
0001
0000
0000
0000
0M00
0000
0000
0000
1000
0000
0000
0000
0000
0000
0000
0000
0100
0000
0000
0000
0000
0000
0000
0000
0001
0000
0000
0000
0000
0000
0000
0000
,  // measure 29
M021
0000
0000
0000
0000
0000
0000
0000
0000
0000
0000
0000
0000
0000
0000
0000
0100
0000
0000
0000
0000
0000
0000
0030
0010
0000
0000
0000
0000
0000
0000
0000
1000
0000
0000
0000
0M00
0000
0000
0000
0001
0000
0000
0000
0000
0000
0000
0000
0100
0000
0000
0000
0000
0000
0000
0000
1000
0000
0000
0000
0000
0000
0000
0000
,  // measure 30
MM10
01M0
1M00
M001
01MM
0M10
00M1
100M
,  // measure 31
MM10
0000
1000
0000
0100
0000
0010
0000
00M1
0000
0000
0010
0100
0000
1000
0000
,  // measure 32
0010
0000
0100
0001
0100
0001
0010
0000
0100
0000
0010
0100
0010
0100
1000
0000
,  // measure 33
0001
0000
0010
0001
0010
0001
0100
0000
0010
0000
1000
0100
0010
0100
1000
0000
,  // measure 34
0001
0000
M210
0000
0301
0000
0010
0000
0100
0000
0010
0100
1000
0100
1000
0000
,  // measure 35
0001
0000
0010
0001
0010
0001
1000
0000
0001
0000
0100
0001
0010
0001
0100
0000
,  // measure 36
2010
0000
0001
0000
3100
0000
0100
0000
1000
0000
0001
0000
0001
0100
0001
0000
,  // measure 37
2010
0000
0001
0000
3100
0000
0100
0000
1000
0000
0010
0000
0010
0100
0010
0000
,  // measure 38
1000
0010
0100
0010
1000
0100
0010
0100
1000
0001
0100
0001
0010
0001
0100
0001
,  // measure 39
1000
0000
0001
0000
0100
0000
0010
0000
1000
0000
0000
0010
0100
0000
0001
0000
,  // measure 40
001M
0000
000M
0000
000M
0000
010M
0000
000M
0010
000M
0000
010M
0000
000M
1000
000M
0000
010M
0000
000M
0000
000M
0000
001M
0000
0000
0000
0000
0000
0001
0000
0000
0010
0000
0000
0100
0000
0000
1000
0000
0000
0001
0000
0000
0000
0000
0000
,  // measure 41
010M
0000
000M
0000
000M
0000
001M
0000
000M
0100
000M
0000
001M
0000
000M
1000
000M
0000
001M
0000
000M
0000
000M
0000
010M
0000
0000
0000
0000
0000
0001
0000
0000
0010
0000
0000
0001
0000
0000
1000
0000
0000
0100
0000
0000
1000
0000
0000
,  // measure 42
0001
0000
0000
0000
0000
0000
M210
0000
M000
0000
M000
0000
M301
0000
M000
0000
M000
0000
M010
0000
M000
0000
M000
0000
M100
0000
0000
0000
0000
0000
0010
0000
0000
0100
0000
0000
0010
0000
0000
0001
0000
0000
0010
0000
0000
0000
0000
0000
,  // measure 43
0100
0000
1000
0001
1000
0010
1000
0000
0001
0000
0100
0010
1000
0100
1000
0000
,  // measure 44
MM12
0000
1000
0000
0103
0000
0100
0000
0001
0000
1000
0000
1000
0100
1000
0000
,  // measure 45
MM12
0000
1000
0000
0103
0000
0100
0000
0001
0000
1000
0000
0100
1000
0001
0000
,  // measure 46
MM10
0001
1000
0001
0100
0001
0010
0100
100M
0010
1000
0100
0010
0100
1000
0001
,  // measure 47
M100
0010
0100
0001
M010
0100
0010
0001
10M0
0000
0000
0001
1000
0000
0100
0000
,  // measure 48
10M0
0000
0020
0000
0000
0000
0000
0030
0010
0000
0000
0010
0000
0000
0010
0000
,  // measure 49
0000
0000
0000
0000
0000
0000
0000
0100
,  // measure 50
10M1
0000
0020
0000
0000
0000
0000
0000
0001
0000
0000
0100
0000
0030
0010
0000
,  // measure 51
0000
0000
0000
0000
0000
0000
1000
0000
0001
0000
0010
0000
0100
0000
1000
0100
,  // measure 52
20M0
0000
3000
0001
1000
0010
0100
0102
,  // measure 53
01M3
0000
0102
0000
0000
0000
0103
0000
0010
0000
1000
0000
0001
0000
0010
0100
,  // measure 54
20M0
0000
0001
0000
3001
0000
1000
0100
M010
0000
0001
0000
0001
0000
0010
0100
,  // measure 55
100M
0120
1M30
0001
10M0
0200
0310
0001
,  // measure 56
MM11
0000
0001
0100
0000
0001
1000
0001
0010
0100
1000
0000
0001
0000
1000
0000
,  // measure 57
1010
0000
0010
0100
0000
0010
1000
0010
0100
0001
1000
0000
0100
0000
0110
0000
,  // measure 58
110M
0000
1000
0001
0000
0100
0010
0100
0001
1000
0100
0000
0010
0000
0001
0000
,  // measure 59
0101
0000
0001
0010
0000
0010
0100
0010
0100
1000
0000
1000
0001
0000
1000
0000
,  // measure 60
120M
0000
0000
1300
0001
0000
0001
0100
0010
0000
0100
0000
0001
0000
1000
0000
,  // measure 61
02M1
0000
0000
0301
1000
0000
0100
1000
0010
0000
1000
0000
0100
0000
0010
0000
,  // measure 62
2M01
0000
0000
3001
1000
0000
0210
0000
0310
0000
1002
0000
0003
0000
0012
0000
,  // measure 63
M103
1020
0030
0102
0003
0000
1100
0110
,  // measure 64
0011
0000
0001
1000
0000
0001
0010
0001
1000
0100
0010
0000
0100
0000
1000
0000
,  // measure 65
1010
0000
0010
0100
0000
0010
1000
0010
0100
0001
0100
0000
0001
0000
1000
0000
,  // measure 66
0001
0010
0100
0001
0M00
0100
1000
0010
0100
1000
0M00
0100
0010
1000
0001
0000
,  // measure 67
1000
0010
0100
1000
0M00
0100
0010
1000
0100
0001
0M00
0100
0010
0001
0010
0000
,  // measure 68
0021
0000
0000
0000
0000
0000
0000
0000
0000
0000
0000
0000
0000
0000
0000
0000
0100
0000
0000
0000
0000
0000
0000
0030
0010
0000
0000
0000
0000
0000
0000
0000
1000
0000
0000
0000
0M00
0000
0000
0000
0001
0000
0000
0000
0000
0000
0000
0000
0100
0000
0000
0000
0000
0000
0000
0000
1000
0000
0000
0000
0000
0000
0000
0000
,  // measure 69
1020
0000
0000
0000
0000
0000
0000
0000
0000
0000
0000
0000
0000
0000
0000
0000
0100
0000
0000
0000
0000
0000
0000
0030
0010
0000
0000
0000
0000
0000
0000
0000
0001
0000
0000
0000
0M00
0000
0000
0000
0010
0000
0000
0000
0000
0000
0000
0000
0100
0000
0000
0000
0000
0000
0000
0000
0001
0000
0000
0000
0000
0000
0000
0000
,  // measure 70
1000
0100
0010
1000
00M0
0010
0100
1000
0010
0001
00M0
0010
0100
0010
1000
0000
,  // measure 71
0001
0100
0010
0001
00M0
0010
1000
0100
0010
1000
00M0
0010
0100
0010
0001
0000
,  // measure 72
2200
0000
3300
0000
;
