#TITLE:Mischievous Fox Child's Reckless Run;
#SUBTITLE:;
#ARTIST:Ragnarok Battle Offline;
#TITLETRANSLIT:;
#SUBTITLETRANSLIT:;
#ARTISTTRANSLIT:;
#GENRE:;
#CREDIT:Telperion;
#BANNER:;
#BACKGROUND:;
#LYRICSPATH:;
#CDTITLE:;
#MUSIC:MFCRR.ogg;
#OFFSET:-0.785;
#SAMPLESTART:59.826;
#SAMPLELENGTH:26.885;
#SELECTABLE:YES;
#DISPLAYBPM:162.000;
#BPMS:0.000=162.000;
#STOPS:;
#BGCHANGES:;
#KEYSOUNDS:;

//---------------dance-single - Telperion----------------
#NOTES:
     dance-single:
     Telperion:
     Hard:
     8:
     1.000,1.000,1.000,1.000,1.000:
0000
0000
0000
0000
,
0000
0000
0000
0000
,
0000
0000
0000
0000
,
0000
0000
0000
0000
,
1000
0100
0010
0100
,
1000
0100
0010
0001
,
0100
0010
1000
0010
,
0100
0000
0001
0000
1001
0000
0000
0001
,
2000
0000
3000
1000
0200
0000
0300
0100
,
0020
0000
0000
0000
0030
0000
0010
0100
0010
0000
0001
0000
0100
0000
0010
0000
,
0020
0000
0000
0000
1000
0000
0000
0000
0100
0000
0000
0000
1030
0000
0100
1000
,
0200
0310
1001
0100
,
0110
0000
0000
0000
0010
0000
1000
0000
0100
0000
0000
0000
0000
0000
0100
0010
,
0100
0000
0010
0001
0100
0010
0100
0010
,
2000
0001
0010
0001
,
3020
0000
0000
0000
0001
0000
0000
0000
1030
0000
0000
0001
0000
0000
1000
0000
,
1002
0000
0003
0001
0200
0000
0300
0100
,
0020
0000
0000
0000
0030
0000
0010
0100
0010
0000
1000
0000
0100
0000
0010
0000
,
0020
0000
0000
0000
0001
0000
0000
0000
0100
0000
0000
0000
0031
0000
0100
0001
,
0200
0310
1001
0100
,
0110
0000
0000
0000
0010
0000
0001
0000
0010
0000
0000
0000
0100
0000
1000
0100
,
1000
0000
0001
0100
0001
1000
0100
1000
,
0002
0010
1000
0203
,
0010
1000
0301
0000
,
1001
0002
0103
0200
,
0310
0000
0020
0000
1030
0100
0010
0100
,
1000
0000
1000
0100
0010
0000
0020
0000
,
0031
0000
0002
0000
0103
0000
0001
0100
,
0010
0020
1030
2000
,
3100
0000
0200
0000
0310
0001
0100
1000
,
0100
0000
0100
0010
0100
0000
0200
0000
,
0301
0002
1003
0000
,
2010
0000
3000
1000
0200
0000
0300
0100
,
0020
0000
0000
0000
0030
0000
0100
0010
0100
0000
1000
0000
0100
0000
0010
0000
,
0020
0000
0000
0000
0001
0000
0000
0000
0100
0000
0000
0000
0031
0000
0100
0001
,
0200
0010
0301
0010
,
0011
0000
0000
0000
0001
0000
0100
0000
0010
0000
0000
0000
0010
0000
1000
0010
,
1000
0000
1000
0100
0010
0001
0100
0010
,
2000
0010
0100
3020
,
0100
0000
0000
0000
0001
0000
0000
0000
1030
0000
0000
0001
0000
0000
1000
0000
,
1001
0000
0000
1000
0200
0000
0300
0100
,
0020
0000
0000
0000
0030
0000
0100
1000
0100
0000
0010
0000
0100
0000
1000
0000
,
0020
0000
0000
0000
0100
0000
0000
0000
0001
0000
0000
0000
0130
0000
0001
0100
,
0002
1003
1100
1001
,
0101
0000
0000
0000
0001
0000
0010
0000
0100
0000
0000
0000
1000
0000
0100
1000
,
0100
0000
0010
0001
0100
0010
1000
0100
,
0002
0203
0320
0230
,
2300
0000
3002
0000
0103
0010
1000
0001
,
0010
0000
0010
0100
0010
0000
0020
0000
,
0130
0000
1000
0000
1100
0010
0011
0000
,
0000
0201
0320
2030
,
3200
0320
0032
0023
,
0130
0010
0100
0010
0001
0010
0001
1000
,
0010
0000
1000
0000
0010
0000
1000
0000
0001
0000
0100
0000
0001
0000
0000
0001
,
1000
0000
1200
0000
0000
0310
0001
0010
,
0002
0203
0320
2030
,
3010
1000
0010
0100
0001
0100
0001
0100
,
0001
0010
0001
0010
0100
1000
0100
0000
,
2000
3200
0302
0100
,
0103
0010
0100
1000
0100
0010
0001
0100
,
0020
0000
0100
0000
1030
0100
0010
0001
,
0200
0010
0301
0011
,
1100
0100
1000
0100
1000
0100
1000
0000
,
1001
0001
0100
0001
0100
0001
0010
0000
,
0012
0000
0000
0000
,
2000
0000
3003
0000
,
1001
0100
0010
0001
0100
0010
0100
0000
,
0001
0000
0010
0001
0010
0000
0000
0000
0001
0000
1000
0000
0010
0000
0000
0000
,
1010
0100
0010
1000
0100
0010
0001
0000
,
1000
0000
0100
1000
0100
0000
0000
0000
1000
0000
0100
0000
1000
0000
0000
0000
,
1100
0100
0010
0001
0100
1000
0100
0000
,
0010
0000
0100
0010
0100
0000
0000
0000
0001
0000
0001
0000
0100
0000
0000
0000
,
0101
0100
0010
1000
0100
0010
0001
1000
,
0010
0000
0100
0001
0100
0000
0010
0000
0000
0000
1001
0000
0000
0000
0000
0000
,
2000
0000
3000
1000
0200
0000
0300
0100
,
0020
0000
0000
0000
0030
0000
0010
0100
0010
0000
0001
0000
0100
0000
0010
0000
,
0020
0000
0000
0000
1000
0000
0000
0000
0100
0000
0000
0000
1030
0000
0100
1000
,
0200
0310
1001
0100
,
0110
0000
0000
0000
0010
0000
1000
0000
0100
0000
0000
0000
0000
0000
0100
0010
,
0100
0000
0010
0001
0100
0010
0100
0010
,
2000
0000
0000
0000
,
3000
0000
0000
0000
;
