#TITLE:Like a G6;
#SUBTITLE:(Eyes Remix);
#ARTIST:Far East Movement ft. Cataracts & Dev;
#TITLETRANSLIT:;
#SUBTITLETRANSLIT:;
#ARTISTTRANSLIT:;
#GENRE:;
#CREDIT:Telperion;
#BANNER:;
#BACKGROUND:;
#LYRICSPATH:;
#CDTITLE:;
#MUSIC:g6_eyes.ogg;
#OFFSET:-0.001610;
#SAMPLESTART:47.995998;
#SAMPLELENGTH:13.695999;
#SELECTABLE:YES;
#DISPLAYBPM:140.000000;
#BPMS:0.000000=140.000000,32.000000=210.000000,34.000000=140.000000,36.000000=210.000000,38.000000=140.000000,40.000000=210.000000,42.000000=140.000000,44.000000=210.000000,50.000000=140.000000,52.000000=210.000000,54.000000=140.000000,56.000000=210.000000,58.000000=140.000000,60.000000=210.000000,64.000000=140.000000,92.000000=210.000000,96.000000=105.000000,97.000000=210.000000,98.000000=140.000000,102.000000=105.000000,103.000000=210.000000,104.000000=210.000000,106.000000=105.000000,106.500000=210.000000,107.000000=105.000000,107.500000=210.000000,108.000000=105.000000,108.500000=210.000000,109.000000=105.000000,109.500000=210.000000,110.000000=105.000000,110.500000=210.000000,111.000000=105.000000,111.500000=210.000000,112.000000=105.000000,113.000000=210.000000,114.000000=140.000000,118.000000=105.000000,119.000000=210.000000,120.000000=140,136.000000=105.000000,136.500000=210.000000,137.000000=105.000000,137.500000=210.000000,138.000000=210.000000,139.000000=105.000000,139.500000=210.000000,140.000000=140.000000,142.000000=105.000000,142.500000=210.000000,143.000000=105.000000,143.500000=210.000000,144.000000=140.000000,152.000000=105.000000,152.500000=210.000000,153.000000=105.000000,153.500000=210.000000,154.000000=210.000000,155.000000=105.000000,155.500000=210.000000,156.000000=140.000000,160.000000=210.000000,162.000000=140.000000,164.000000=210.000000,166.000000=140.000000,168.000000=210.000000,170.000000=140.000000,172.000000=210.000000,176.000000=140.000000,180.000000=210.000000,182.000000=140.000000,184.000000=210.000000,186.000000=140.000000,188.000000=210.000000,190.000000=140.000000,192.000000=105.000000,193.000000=210.000000,194.000000=105.000000,195.000000=210.000000,196.000000=105.000000,197.000000=210.000000,198.000000=105.000000,199.000000=210.000000,200.000000=105.000000,200.500000=210.000000,201.000000=105.000000,201.500000=210.000000,202.000000=105.000000,202.500000=210.000000,203.000000=105.000000,203.500000=210.000000,204.000000=105.000000,204.500000=210.000000,205.000000=105.000000,205.500000=210.000000,206.000000=105.000000,206.500000=210.000000,207.000000=105.000000,207.500000=210.000000,208.000000=105.000000,209.000000=210.000000,210.000000=105.000000,211.000000=210.000000,212.000000=105.000000,213.000000=210.000000,214.000000=105.000000,215.000000=210.000000,216.000000=105.000000,216.500000=210.000000,217.000000=105.000000,217.500000=210.000000,218.000000=105.000000,218.500000=210.000000,219.000000=105.000000,219.500000=210.000000,220.000000=105.000000,220.500000=210.000000,221.000000=105.000000,221.500000=210.000000,222.000000=140.000000,232.000000=105.000000,232.500000=210.000000,233.000000=105.000000,233.500000=210.000000,234.000000=210.000000,235.000000=105.000000,235.500000=210.000000,236.000000=140.000000,238.000000=105.000000,238.500000=210.000000,239.000000=105.000000,239.500000=210.000000,240.000000=140.000000,248.000000=105.000000,248.500000=210.000000,249.000000=105.000000,249.500000=210.000000,250.000000=210.000000,251.000000=105.000000,251.500000=210.000000,252.000000=140.000000;
#STOPS:32.000000=0.071429
,32.500000=0.142857
,33.500000=0.071429
,36.000000=0.071429
,36.500000=0.035714
,36.750000=0.071429
,37.250000=0.035714
,37.500000=0.071429
,40.000000=0.071429
,40.500000=0.142857
,41.500000=0.071429
,44.000000=0.071429
,44.500000=0.035714
,44.750000=0.071429
,45.250000=0.035714
,45.500000=0.071429
,46.000000=0.071429
,46.500000=0.071429
,47.000000=0.071429
,47.500000=0.071429
,48.000000=0.071429
,48.500000=0.142857
,49.500000=0.071429
,52.000000=0.071429
,52.500000=0.035714
,52.750000=0.071429
,53.250000=0.035714
,53.500000=0.071429
,56.000000=0.071429
,56.500000=0.142857
,57.500000=0.071429
,60.000000=0.071429
,60.500000=0.035714
,60.750000=0.071429
,61.250000=0.035714
,61.500000=0.071429
,62.000000=0.071429
,62.500000=0.071429
,63.000000=0.071429
,63.500000=0.071429
,92.000000=0.285714
,94.000000=0.285714
,104.000000=0.035714
,104.250000=0.035714
,104.500000=0.035714
,104.750000=0.035714
,105.000000=0.035714
,105.250000=0.035714
,105.500000=0.035714
,105.750000=0.035714
,138.000000=0.035714
,138.250000=0.035714
,138.500000=0.035714
,138.750000=0.035714
,154.000000=0.035714
,154.250000=0.035714
,154.500000=0.035714
,154.750000=0.035714
,160.000000=0.071429
,160.500000=0.142857
,161.500000=0.071429
,164.000000=0.071429
,164.500000=0.035714
,164.750000=0.071429
,165.250000=0.035714
,165.500000=0.071429
,168.000000=0.071429
,168.500000=0.142857
,169.500000=0.071429
,172.000000=0.071429
,172.500000=0.035714
,172.750000=0.071429
,173.250000=0.035714
,173.500000=0.071429
,174.000000=0.071429
,174.500000=0.071429
,175.000000=0.071429
,175.500000=0.071429
,180.000000=0.071429
,180.500000=0.035714
,180.750000=0.071429
,181.250000=0.035714
,181.500000=0.071429
,184.000000=0.071429
,184.500000=0.142857
,185.500000=0.071429
,188.000000=0.071429
,188.500000=0.035714
,188.750000=0.071429
,189.250000=0.035714
,189.500000=0.071429
,234.000000=0.035714
,234.250000=0.035714
,234.500000=0.035714
,234.750000=0.035714
,250.000000=0.035714
,250.250000=0.035714
,250.500000=0.035714
,250.750000=0.035714
;
#DELAYS:;
#TIMESIGNATURES:0.000000=4=4
;
#BGCHANGES:;
#KEYSOUNDS:;
#ATTACKS:;

//---------------pump-single - Telperion----------------
#NOTES:
     pump-single:
     Telperion:
     Challenge:
     9:
     0.458,0.602,0.119,0.500,0.279,304.000,14.000,59.000,32.000,3.000,0.000,0.000,0.458,0.602,0.119,0.500,0.279,304.000,14.000,59.000,32.000,3.000,0.000,0.000:
00000
00000
00000
00000
,
00000
00000
00000
00000
,
00000
00000
00000
00000
,
00000
00000
00000
00000
,
10000
00000
00000
10000
00000
00000
10000
00000
00000
00000
00100
00000
00000
10000
00000
00000
,
01000
00000
00000
10000
00000
00000
00100
00000
00000
00000
10000
00000
00001
00000
00000
00000
,
00010
00000
00000
00010
00000
00000
00010
00000
00000
00000
00001
00000
00000
00100
00000
00000
,
00010
00000
00000
00100
00000
00000
01000
00000
00000
00000
10000
00000
00010
00000
00000
00000
,
01000
01000
00000
00001
00101
00000
00000
00100
,
00001
00000
00010
00100
00000
00100
01000
00000
00010
00000
00000
00000
00000
00000
00000
00000
,
10000
00010
00000
10000
10100
00000
00000
00100
,
10000
00000
01000
00100
00000
00100
00010
00000
00001
00000
00100
00000
10000
00000
00001
00000
,
00010
00010
00000
00001
00101
00000
00000
00100
,
00001
00000
00010
00100
00000
00100
01000
00000
00020
00000
00000
00000
00030
00000
00000
00000
,
01000
01000
00000
00100
10010
00000
00000
00010
,
00100
00000
00001
00100
00000
00100
10000
00000
01000
00000
00100
00000
00010
00000
00001
00000
,
10000
00M00
00M00
00M00
,
0000M
0000M
M0000
000M0
,
0M000
0M000
00M00
00M00
,
000M0
000M0
0000M
00000
,
00M00
00M00
00M00
00M00
,
M0000
M0000
M0000
000M0
,
0M000
0M000
0000M
M0000
,
01010
00000
00100
00000
,
20120
00000
00000
00000
30000
00000
00030
10000
,
00001
00000
00010
00100
00000
01000
00100
00000
20000
00000
00000
00000
00000
00000
00000
00000
,
31000
00000
00000
10000
00000
00000
01000
00000
00000
10000
00000
00000
00100
00000
00000
10000
00000
00000
00100
00000
00000
10000
00000
00000
00002
00000
00000
00000
00003
00000
00000
00000
00000
00000
00000
00000
00002
00000
00000
00000
00003
00000
00000
00000
00000
00000
00000
00000
,
00200
00300
00000
20000
30000
00000
02000
03000
00000
02000
03000
00000
,
02101
00000
00000
00000
00000
00000
03000
00001
,
01000
00000
00010
10000
00000
00100
10000
00000
02000
00000
00000
00000
00000
00000
00000
00000
,
23000
30000
00000
02000
03000
00000
00200
00300
00000
00020
00030
00000
,
00002
00000
00003
00000
00000
00000
00010
00000
00000
00100
00000
00000
00001
00000
00000
00000
00000
00000
00000
00000
00000
00000
00000
00000
,
00010
00000
00001
00000
00010
00100
00000
00100
00000
00000
10000
00000
01000
00100
00000
00100
,
00000
00000
00001
00000
10000
00100
00000
00100
00000
00000
10000
00000
00010
10000
00000
10000
,
00200
00000
00000
00000
00000
00000
00000
00000
00000
00000
00000
00000
00000
00000
00000
00000
00000
00000
00000
00000
00000
00000
00000
00000
00000
00000
00000
00000
00000
00000
00000
00000
00000
00000
00000
00000
00000
00000
00000
00000
00000
00000
00000
00000
00000
00000
00000
00300
00200
00000
00000
00000
00000
00000
00000
00000
00000
00000
00000
00000
00000
00000
00000
00000
00000
00000
00000
00000
00000
00000
00000
00000
00000
00000
00000
00000
00000
00000
00000
00000
00000
00000
00000
00000
00000
00000
00000
00000
00000
00000
00000
00000
00000
00000
00000
00300
10000
00000
00000
00000
00000
00000
00000
00000
00000
00000
00000
00000
00001
00000
00000
00000
00000
00000
00000
00000
00000
00000
00000
00000
10000
00000
00000
00000
00000
00000
00000
00000
00000
00000
00000
00000
00001
00000
00000
00000
00000
00000
00000
00000
00000
00000
00000
00000
00200
00000
00000
00000
00000
00000
00000
00000
00000
00000
00000
00000
00000
00000
00000
00000
00000
00000
00000
00000
00000
00000
00000
00000
00000
00000
00000
00000
00000
00000
00000
00000
00000
00000
00000
00000
00000
00000
00000
00000
00000
00000
00000
00000
00000
00000
00000
00000
,
00301
00000
00000
00000
00000
00000
00000
00000
00000
00000
00000
00000
00000
00000
00000
00000
00000
00000
00000
00000
00000
00000
00000
00000
00010
00000
00000
00000
00000
00000
00000
00000
00000
00000
00000
00000
00000
00000
00000
00000
00000
00000
00000
00000
00000
00000
00000
00000
00100
00000
00000
00000
00000
00000
00000
00000
00000
00000
00000
00000
00000
00000
00000
00000
00000
00000
00000
00000
00000
00000
00000
00000
01000
00000
00000
00000
00000
00000
00000
00000
00000
00000
00000
00000
00000
00000
00000
00000
00000
00000
00000
00000
00000
00000
00000
00000
00020
00000
00000
00000
00000
00000
00000
00000
00000
00000
00000
00000
00000
00000
00000
00000
00000
00000
00000
00000
00000
00000
00000
00000
00000
00000
00000
00000
00000
00000
00000
00000
00000
00000
00000
00000
00000
00000
00000
00000
00000
00000
00000
00000
00000
00000
00000
00030
00020
00000
00000
00000
00000
00000
00000
00000
00000
00000
00000
00000
00000
00000
00000
00000
00000
00000
00000
00000
00000
00000
00000
00000
00000
00000
00000
00000
00000
00000
00000
00000
00000
00000
00000
00000
00000
00000
00000
00000
00000
00000
00000
00000
00000
00000
00000
00000
,
00130
00000
00000
00001
10000
00000
01000
00000
00100
00000
00000
00010
01000
00000
10000
00100
,
00000
00000
00000
00001
00010
00000
00100
00000
01000
00000
00000
00010
00001
00000
00100
00000
,
20000
00000
00000
00000
00000
00000
00000
00000
00000
00000
00000
00000
00000
00000
00000
00000
00000
00000
00000
00000
00000
00000
00000
00000
00000
00000
00000
00000
00000
00000
00000
00000
00000
00000
00000
00000
00000
00000
00000
00000
00000
00000
00000
00000
00000
00000
00000
30000
20000
00000
00000
00000
00000
00000
00000
00000
00000
00000
00000
00000
00000
00000
00000
00000
00000
00000
00000
00000
00000
00000
00000
00000
00000
00000
00000
00000
00000
00000
00000
00000
00000
00000
00000
00000
00000
00000
00000
00000
00000
00000
00000
00000
00000
00000
00000
30000
10000
00000
00000
00000
00000
00000
00000
00000
00000
00000
00000
00000
01000
00000
00000
00000
00000
00000
00000
00000
00000
00000
00000
00000
00100
00000
00000
00000
00000
00000
00000
00000
00000
00000
00000
00000
00010
00000
00000
00000
00000
00000
00000
00000
00000
00000
00000
00000
00002
00000
00000
00000
00000
00000
00000
00000
00000
00000
00000
00000
00000
00000
00000
00000
00000
00000
00000
00000
00000
00000
00000
00000
00000
00000
00000
00000
00000
00000
00000
00000
00000
00000
00000
00000
00000
00000
00000
00000
00000
00000
00000
00000
00000
00000
00000
00000
,
00103
00001
00010
01000
10000
00000
01100
00000
,
01010
00010
00000
10000
10100
00000
00000
10000
,
00010
00000
00001
00100
00000
00100
10000
00000
00001
00000
00000
00000
00000
00000
00000
00000
,
01000
01000
00000
00001
00101
00000
00000
10000
,
01000
00000
10000
00100
00000
00100
00001
00000
00010
00000
01000
00000
10000
00000
00010
00000
,
00001
00010
00100
01000
20000
00000
31000
00100
,
01000
00000
10000
00100
00000
00100
00001
00000
10000
00000
00000
00000
00000
00000
00000
00000
,
00010
01000
00000
01000
01000
00000
00000
10000
,
01000
00000
00010
10000
00000
10000
01000
00000
00100
00000
00000
00000
00000
00000
00000
00000
,
01002
00000
20003
00000
,
32000
00000
03020
00000
,
00032
00003
00000
00020
00030
00000
00200
00300
00000
02000
03000
00000
,
20000
30000
00000
02000
03000
00000
00200
00300
00000
00200
00300
00000
,
20010
00000
30020
00000
,
00032
00000
20003
00000
,
32000
03000
00000
20000
30000
00000
00200
00300
00000
00002
00003
00000
,
00020
00030
00000
00002
00003
00000
00100
00000
00000
00000
00000
00000
,
00010
00000
10000
00000
01000
00100
00000
00100
00010
00000
01000
00000
10000
00100
00000
00100
,
00001
10000
00001
00000
00010
00100
00000
00100
01000
00000
00010
00000
00001
00100
00000
00100
,
20000
00000
00000
00000
00000
00000
00000
00000
00000
00000
00000
00000
00000
00000
00000
00000
00000
00000
00000
00000
00000
00000
00000
00000
00000
00000
00000
00000
00000
00000
00000
00000
00000
00000
00000
00000
00000
00000
00000
00000
00000
00000
00000
00000
00000
00000
00000
30000
20000
00000
00000
00000
00000
00000
00000
00000
00000
00000
00000
00000
00000
00000
00000
00000
00000
00000
00000
00000
00000
00000
00000
00000
00000
00000
00000
00000
00000
00000
00000
00000
00000
00000
00000
00000
00000
00000
00000
00000
00000
00000
00000
00000
00000
00000
00000
30000
10000
00000
00000
00000
00000
00000
00000
00000
00000
00000
00000
00000
01000
00000
00000
00000
00000
00000
00000
00000
00000
00000
00000
00000
00100
00000
00000
00000
00000
00000
00000
00000
00000
00000
00000
00000
00010
00000
00000
00000
00000
00000
00000
00000
00000
00000
00000
00000
00002
00000
00000
00000
00000
00000
00000
00000
00000
00000
00000
00000
00000
00000
00000
00000
00000
00000
00000
00000
00000
00000
00000
00000
00000
00000
00000
00000
00000
00000
00000
00000
00000
00000
00000
00000
00000
00000
00000
00000
00000
00000
00000
00000
00000
00000
00000
00000
,
00013
00000
00000
00000
00000
00000
00000
00000
00000
00000
00000
00000
00001
00000
00000
00000
00000
00000
00000
00000
00000
00000
00000
00000
00010
00000
00000
00000
00000
00000
00000
00000
00000
00000
00000
00000
00000
00000
00000
00000
00000
00000
00000
00000
00000
00000
00000
00000
00100
00000
00000
00000
00000
00000
00000
00000
00000
00000
00000
00000
00001
00000
00000
00000
00000
00000
00000
00000
00000
00000
00000
00000
00100
00000
00000
00000
00000
00000
00000
00000
00000
00000
00000
00000
00000
00000
00000
00000
00000
00000
00000
00000
00000
00000
00000
00000
00020
00000
00000
00000
00000
00000
00000
00000
00000
00000
00000
00000
00000
00000
00000
00000
00000
00000
00000
00000
00000
00000
00000
00000
00000
00000
00000
00000
00000
00000
00000
00000
00000
00000
00000
00000
00000
00000
00000
00000
00000
00000
00000
00000
00000
00000
00000
00030
00020
00000
00000
00000
00000
00000
00000
00000
00000
00000
00000
00000
00000
00000
00000
00000
00000
00000
00000
00000
00000
00000
00000
00000
00000
00000
00000
00000
00000
00000
00000
00000
00000
00000
00000
00000
00000
00000
00000
00000
00000
00000
00000
00000
00000
00000
00000
00000
,
10030
00000
00000
01000
00100
00000
00010
00000
01000
00000
00000
10000
01000
00000
00100
00000
,
00010
00000
00000
00001
00100
00000
00010
00000
01000
00000
00000
10000
01000
00000
00010
00000
,
00002
00000
00000
00000
00000
00000
00000
00000
00000
00000
00000
00000
00000
00000
00000
00000
00000
00000
00000
00000
00000
00000
00000
00000
00000
00000
00000
00000
00000
00000
00000
00000
00000
00000
00000
00000
00000
00000
00000
00000
00000
00000
00000
00000
00000
00000
00000
00003
00002
00000
00000
00000
00000
00000
00000
00000
00000
00000
00000
00000
00000
00000
00000
00000
00000
00000
00000
00000
00000
00000
00000
00000
00000
00000
00000
00000
00000
00000
00000
00000
00000
00000
00000
00000
00000
00000
00000
00000
00000
00000
00000
00000
00000
00000
00000
00003
00001
00000
00000
00000
00000
00000
00000
00000
00000
00000
00000
00000
00010
00000
00000
00000
00000
00000
00000
00000
00000
00000
00000
00000
00100
00000
00000
00000
00000
00000
00000
00000
00000
00000
00000
00000
01000
00000
00000
00000
00000
00000
00000
00000
00000
00000
00000
00000
10000
00000
00000
00000
00000
00000
00000
00000
00000
00000
00000
00000
00000
00000
00000
00000
00000
00000
00000
00000
00000
00000
00000
00000
00000
00000
00000
00000
00000
00000
00000
00000
00000
00000
00000
00000
00000
00000
00000
00000
00000
00000
00000
00000
00000
00000
00000
00000
,
00002
00000
20000
00000
,
32023
00000
03030
00000
,
00000
0M0M0
00000
00000
,
00000
00000
0M0M0
00000
,
00000
00000
00000
0M0M0
;

//---------------dance-single - Telperion----------------
#NOTES:
     dance-single:
     Telperion:
     Challenge:
     9:
     0.466,0.602,0.161,0.508,0.275,306.000,19.000,60.000,34.000,0.000,0.000,0.000,0.466,0.602,0.161,0.508,0.275,306.000,19.000,60.000,34.000,0.000,0.000,0.000: // measure 1
0000
0000
0000
0000
,  // measure 2
0000
0000
0000
0000
,  // measure 3
0000
0000
0000
0000
,  // measure 4
0000
0000
0000
0000
,  // measure 5
1000
0000
0000
1000
0000
0000
1000
0000
0000
0000
0001
0000
0000
0100
0000
0000
,  // measure 6
0010
0000
0000
0010
0000
0000
0010
0000
0000
0000
0100
0000
0001
0000
0000
0000
,  // measure 7
0010
0000
0000
0010
0000
0000
0010
0000
0000
0000
0100
0000
0000
1000
0000
0000
,  // measure 8
0010
0000
0000
1000
0000
0000
0100
0000
0000
0000
0010
0000
0001
0000
0000
0000
,  // measure 9
1000
1000
0000
0010
0110
0000
0000
1000
,  // measure 10
0100
0000
0010
0001
0000
0010
0001
0000
1000
0000
0000
0000
0000
0000
0000
0000
,  // measure 11
0100
0100
0000
0010
1001
0000
0000
0001
,  // measure 12
0100
0000
0010
0100
0000
0010
0100
0000
0001
0000
1000
0000
1000
0000
1000
0000
,  // measure 13
0001
0001
0000
0010
1100
0000
0000
1000
,  // measure 14
0010
0000
1000
0100
0000
1000
0001
0000
0200
0000
0000
0000
0300
0000
0000
0000
,  // measure 15
0010
0010
0000
0100
1001
0000
0000
1000
,  // measure 16
0001
0000
0010
0100
0000
1000
0100
0000
0010
0000
0100
0000
0100
0000
0100
0000
,  // measure 17
M00M
000M
000M
000M
,  // measure 18
M000
M000
M000
00M0
,  // measure 19
0M00
0M00
0M00
0M00
,  // measure 20
000M
000M
000M
0000
,  // measure 21
M000
M000
M000
M000
,  // measure 22
000M
000M
000M
00M0
,  // measure 23
0M00
M000
000M
M000
,  // measure 24
0110
0000
1001
0000
,  // measure 25
0220
0000
0000
0000
0330
0000
0000
1000
,  // measure 26
0010
0000
0100
0001
0000
0100
0010
0000
2000
0000
0000
0000
0000
0000
0000
0000
,  // measure 27
3001
0000
0000
0010
0000
0000
0100
0000
0000
0010
0000
0000
0001
0000
0000
0010
0000
0000
0100
0000
0000
1000
0000
0000
0002
0000
0000
0000
0003
0000
0000
0000
0000
0000
0000
0000
0002
0000
0000
0000
0003
0000
0000
0000
0000
0000
0000
0000
,  // measure 28
0002
0003
0000
2000
3000
0000
0020
0030
0000
0020
0030
0000
,  // measure 29
0200
0000
0000
0000
0310
0000
0000
0100
,  // measure 30
0001
0000
0010
0100
0000
1000
0100
0000
0020
0000
0000
0000
0000
0000
0000
0000
,  // measure 31
1030
0010
0000
0001
0101
0000
0000
0100
,  // measure 32
0010
1000
1000
1000
0002
0000
0000
0000
,  // measure 33
0013
0000
0100
0000
0010
0001
0000
1000
0000
0000
0001
0000
0100
0001
0000
1000
,  // measure 34
0010
1000
0010
0000
1000
0100
0000
0010
0000
0000
0100
0000
1000
0001
0000
0000
,  // measure 35
0200
0000
0000
0000
0000
0000
0000
0300
0200
0000
0000
0000
0000
0000
0000
0300
0001
0000
1000
0000
0001
0000
1000
0000
0200
0000
0000
0000
0000
0000
0000
0300
,  // measure 36
1000
0000
0010
0000
1000
0000
0000
0000
0001
0000
0100
0000
0001
0000
0000
0000
0020
0000
0000
0000
0000
0000
0000
0030
0020
0000
0000
0000
0000
0000
0000
0030
,  // measure 37
0001
0000
0000
1000
0100
0000
0010
0000
1000
0000
0000
0010
0001
0000
1000
0000
,  // measure 38
0001
0000
0000
0100
0010
0000
0100
0000
1000
0000
0000
0100
0010
0000
1000
0000
,  // measure 39
0020
0000
0000
0000
0000
0000
0000
0030
0020
0000
0000
0000
0000
0000
0000
0030
1000
0000
0100
0000
0010
0000
0001
0000
0020
0000
0000
0000
0000
0000
0000
0000
,  // measure 40
0230
0000
0000
0000
0000
0000
0000
0000
0000
0000
0000
0000
0000
0000
0000
0000
0000
0000
0000
0000
0000
0000
0000
0000
0000
0000
0000
0000
0000
0000
0000
0000
0000
0000
0000
0000
0000
0000
0000
0000
0000
0000
0000
0000
0000
0000
0000
0000
2300
0000
0000
0000
0000
0000
0000
0000
0000
0000
0000
0000
0000
0000
0000
0000
0000
0000
0000
0000
0000
0000
0000
0000
0000
0000
0000
0000
0000
0000
0000
0000
0000
0000
0000
0000
0000
0000
0000
0000
0000
0000
0000
0000
0000
0000
0000
0000
3002
0000
0000
0000
0000
0000
0000
0000
0000
0000
0000
0000
0000
0000
0000
0000
0000
0000
0000
0000
0000
0000
0000
0000
0000
0000
0000
0000
0000
0000
0000
0000
0000
0000
0000
0000
0000
0000
0000
0000
0000
0000
0000
0000
0000
0000
0000
0003
0110
0000
0000
0000
0000
0000
0000
0000
0000
0000
0000
0000
0000
0000
0000
0000
0000
0000
0000
0000
0000
0000
0000
0000
0000
0000
0000
0000
0000
0000
0000
0000
0000
0000
0000
0000
0000
0000
0000
0000
0000
0000
0000
0000
0000
0000
0000
0000
,  // measure 41
0001
0001
0000
1000
1010
0000
0000
0100
,  // measure 42
0010
0000
1000
0001
0000
1000
0001
0000
0010
0000
0000
0000
0000
0000
0000
0000
,  // measure 43
0100
0100
0000
0100
1001
0000
0000
1000
,  // measure 44
0010
0000
0100
0001
0000
0100
0001
0000
1000
0000
0100
0000
0100
0000
0100
0000
,  // measure 45
1000
0010
0000
0001
0120
0000
1030
0100
,  // measure 46
0010
0000
0001
1000
0000
0001
1000
0000
1100
0000
0000
0000
0011
0000
0000
0000
,  // measure 47
0001
0001
0000
0100
0110
0000
1000
0100
,  // measure 48
0010
0000
0100
1000
0000
0001
0100
0000
0110
0000
0000
0000
0000
0000
0000
0000
,  // measure 49
0002
0000
0023
0000
,  // measure 50
2030
0000
3200
0000
,  // measure 51
0320
0030
0000
0020
0030
0000
0020
0030
0000
0020
0030
0000
,  // measure 52
0020
0030
0000
0200
0300
0000
0002
0003
0000
0002
0003
0000
,  // measure 53
2000
0000
3020
0000
,  // measure 54
0032
0000
0203
0000
,  // measure 55
0320
0030
0000
0020
0030
0000
0020
0030
0000
0020
0030
0000
,  // measure 56
0020
0030
0000
0200
0300
0000
1000
0000
0000
0000
0000
0000
,  // measure 57
0011
0000
1000
0000
0010
0100
0000
0100
0001
0000
1000
0000
0100
1000
0000
1000
,  // measure 58
0001
0010
0001
0000
1000
0010
0000
0010
0100
0000
0001
0000
0100
0001
0000
0000
,  // measure 59
2000
0000
0000
0000
0000
0000
0000
3000
2000
0000
0000
0000
0000
0000
0000
3000
1000
0000
0001
0000
1000
0000
0001
0000
2000
0000
0000
0000
0000
0000
0000
0000
,  // measure 60
3001
0000
0010
0000
0001
0000
0000
0000
0001
0000
0000
0000
1000
0000
0000
0000
0002
0000
0000
0000
0000
0000
0000
0003
0002
0000
0000
0000
0000
0000
0000
0000
,  // measure 61
0103
0000
0000
0010
1000
0000
0100
0000
0001
0000
0000
0100
0010
0000
0001
0000
,  // measure 62
1000
0000
0000
0010
0100
0000
0001
0000
0100
0000
0000
1000
0100
0000
0010
0000
,  // measure 63
2000
0000
0000
0000
0000
0000
0000
3000
2000
0000
0000
0000
0000
0000
0000
0000
3001
0000
0100
0000
0010
0000
1000
0000
0020
0000
0000
0000
0000
0000
0000
0000
,  // measure 64
0230
0000
0000
0000
0000
0000
0000
0000
0000
0000
0000
0000
0000
0000
0000
0000
0000
0000
0000
0000
0000
0000
0000
0000
0000
0000
0000
0000
0000
0000
0000
0000
0000
0000
0000
0000
0000
0000
0000
0000
0000
0000
0000
0000
0000
0000
0000
0000
0000
0000
0000
0000
0000
0000
0000
0000
0000
0000
0000
0000
0000
0000
0000
0000
0000
0000
0000
0000
0000
0000
0000
0000
0000
0000
0000
0000
0000
0000
0000
0000
0000
0000
0000
0000
0000
0000
0000
0000
0000
0000
0000
0000
0000
0000
0000
0300
2002
0000
0000
0000
0000
0000
0000
0000
0000
0000
0000
0000
0000
0000
0000
0000
0000
0000
0000
0000
0000
0000
0000
0000
0000
0000
0000
0000
0000
0000
0000
0000
0000
0000
0000
0000
0000
0000
0000
0000
0000
0000
0000
0000
0000
0000
0000
0000
0000
0000
0000
0000
0000
0000
0000
0000
0000
0000
0000
0000
0000
0000
0000
0000
0000
0000
0000
0000
0000
0000
0000
0000
0000
0000
0000
0000
0000
0000
0000
0000
0000
0000
0000
0000
0000
0000
0000
0000
0000
0000
0000
0000
0000
0000
0000
3003
,  // measure 65
0220
0000
0330
0000
,  // measure 66
0000
0MM0
0000
0000
,  // measure 67
0000
0000
0MM0
0000
,  // measure 68
0000
0000
0000
0MM0
;
