#TITLE:Let the Track Flow;
#SUBTITLE:;
#ARTIST:Brisk & Ham;
#TITLETRANSLIT:;
#SUBTITLETRANSLIT:;
#ARTISTTRANSLIT:;
#GENRE:;
#CREDIT:Telperion;
#BANNER:lttf-bn.png;
#BACKGROUND:lttf-bg.png;
#LYRICSPATH:;
#CDTITLE:;
#MUSIC:lttf.ogg;
#OFFSET:-0.383;
#SAMPLESTART:55.240;
#SAMPLELENGTH:21.600;
#SELECTABLE:YES;
#BPMS:0.000=175.000,64.000=87.500,72.000=131.250,84.000=175.000,112.000=87.500,114.000=175.000,174.000=87.500,176.000=175.000,236.000=87.500,238.000=175.000,298.000=87.500,300.000=175.000;
#STOPS:;
#BGCHANGES:;
#KEYSOUNDS:;

//---------------dance-single - Telperion----------------
#NOTES:
     dance-single:
     Telperion:
     Challenge:
     13:
     1.000,1.000,1.000,1.000,1.000:
0000
0000
0000
0000
,
0000
0000
0000
0000
,
0000
0000
0000
0000
,
0000
0000
0000
0000
,
0000
0000
0000
0000
,
0000
0000
0000
0000
,
0000
0000
0000
0000
,
0000
0000
0000
0000
,
0020
1000
0000
0100
,
0000
1000
0000
0100
,
0030
1000
0000
0100
,
0000
0000
0010
0000
0000
0000
0001
1000
,
0010
0000
0100
0000
0010
0000
0000
1000
0000
0000
0010
0000
0100
0000
0001
0000
,
0010
0000
0100
0000
0010
0000
0000
0001
0000
0000
1000
0000
0100
0000
0010
0000
,
0001
0000
1000
0000
0010
0000
0000
0100
0000
0000
0001
0000
0100
0000
0010
0000
,
1000
0000
0100
0000
1000
0000
0000
0001
0000
0000
0001
0000
0010
0000
0100
0000
,
20MM
0000
0000
0000
0000
0000
0000
3000
,
1000
0001
0010
0100
0001
0100
0010
0001
,
M100
0010
0100
0001
0100
0010
1000
0100
0010
0001
0010
0100
0010
0001
1000
0010
,
1000
0001
0100
0010
0100
0001
1000
0100
0010
0100
1000
0001
0010
0100
1000
0010
,
0100
0001
1000
0100
0010
0100
1000
0001
1000
0010
0100
0001
0010
0100
1000
0001
,
10M0
0100
0010
0001
1000
0100
0010
0001
1000
0100
0010
0001
0010
0001
0010
0100
,
1000
0010
0100
0001
1000
0010
0100
0001
1000
0010
1000
0010
0100
0001
0100
0001
,
0010
0100
0010
0100
1000
0100
0010
0001
1000
0100
0010
0100
1000
0001
0010
0100
,
1000
0010
0100
0001
1000
0010
1000
0001
0100
0001
1000
0010
0100
0010
1000
0001
,
0010
0100
1000
0001
0010
0100
0010
0001
1000
0010
0100
0001
0100
0010
0100
0001
,
1000
0100
1000
0001
1000
0010
0100
0001
1000
0001
0010
0100
1000
0001
1000
0010
,
0100
0001
0010
0100
1000
0001
0100
0010
0100
0001
0010
0100
1000
0001
0010
0001
,
M200
0000
0000
0000
M300
0000
0000
0010
010M
0000
0100
0000
010M
0000
0000
0000
M01M
0000
0000
0000
0100
0000
0000
0000
0001
0000
0000
0000
0000
0000
0001
0000
,
0010
0000
0100
0000
1000
0000
1000
0000
0010
0000
0100
0000
0001
0000
0000
0001
,
1000
0000
0100
0000
0010
0000
0100
0000
1000
0000
0001
0000
0100
0000
0000
0100
,
0010
0000
1000
0000
0010
0000
0010
0000
0100
0000
0001
0000
0010
0000
0000
0100
,
1000
0100
0010
0100
2000
0000
0000
0000
3100
0000
1000
0000
0001
0000
0000
1000
,
0001
0000
0100
0000
0010
0000
0100
0000
0001
0000
0100
0000
0010
0000
0000
1000
,
0001
0000
0010
0000
0100
0000
0002
0000
0103
0000
1000
0000
0010
0000
0000
0100
,
0010
0000
1000
0000
0100
0000
0010
0000
0001
0000
0010
0000
0001
0000
0000
0001
,
0100
2000
0000
3000
1000
0100
0010
0100
,
0001
0000
1000
0000
0100
0000
0020
0030
1000
0000
0010
0000
0100
0000
0010
0000
,
0001
0000
1000
0000
0010
0000
0002
0003
0010
0000
0100
0000
0010
0000
1000
0000
,
0001
0000
0010
0000
0100
0000
2000
3000
0001
0000
0100
0000
0010
0000
0100
0000
,
0001
0000
2000
0000
0010
0000
3010
0000
0100
0000
0001
0000
0100
0000
0001
0100
,
0010
0000
1000
0000
0010
0000
0100
0001
0010
0000
0100
0000
1000
0000
0100
1000
,
0001
0000
0100
0000
0001
0000
0100
0010
1000
0000
0100
0010
0001
0000
1000
0001
,
0010
0000
0000
0000
0100
0000
1000
0000
0010
0000
0000
0000
0100
0000
0001
0000
M020
0000
0000
0000
M030
0000
0000
0100
001M
0000
0010
0000
001M
0000
0000
0000
,
0100
1000
0010
1000
0100
1000
0001
1000
0010
1000
0010
1000
0010
1000
0010
1000
,
0001
1000
0010
1000
0100
1000
0001
1000
0010
1000
0010
1000
0010
1000
0100
0010
,
0001
0100
0010
0100
0001
0100
0010
0100
0001
0100
0001
0100
0001
0100
0001
0100
,
0010
0100
0001
0100
0010
0100
0001
0100
0010
0100
0001
1000
0100
1000
0001
0010
,
0100
0010
0100
0010
0100
0010
0100
0010
0001
0010
0001
0010
0001
0010
0001
0010
,
0001
1000
0001
1000
0001
1000
0001
1000
0010
1000
0010
1000
0001
0100
0010
1000
,
0100
0010
0100
0010
0100
0010
0100
0010
0001
1000
0001
1000
0001
1000
0001
1000
,
0010
0100
0001
1000
0010
0100
0001
1000
0010
0000
0000
0100
0001
0000
0100
0000
,
0010
1000
0010
1000
0100
1000
0100
0010
0001
0010
0001
0010
0001
1000
0001
1000
,
0010
1000
0010
1000
0010
0100
0010
0100
0001
0010
0001
0010
0001
0010
0001
0010
,
0100
1000
0100
1000
0001
1000
0001
0100
0010
1000
0010
0100
0001
0100
0001
0100
,
0001
0010
0001
0010
0100
0010
0100
0010
0001
0100
0001
0100
0010
1000
0010
0100
,
0001
1000
0100
1000
0001
1000
0001
0010
0100
1000
0100
0010
0001
0010
0001
0010
,
0100
1000
0100
1000
0010
1000
0010
0100
0001
0010
0100
0010
0100
0010
0100
0010
,
0001
1000
0001
0010
0100
1000
0001
1000
0100
1000
0001
0010
0100
1000
0001
1000
,
01M0
0000
1000
0100
1000
0001
1000
0100
1000
0000
0001
0000
0100
0001
0000
0000
M010
0000
0100
0000
1000
0000
0100
0000
0010
0000
0100
0000
1000
0000
0010
0000
,
0100
0001
1000
0010
1000
0001
0100
0010
0100
0001
1000
0001
0100
0001
1000
0100
,
0010
0001
0010
0100
1000
0001
1000
0100
0010
0001
1000
0001
0010
0001
1000
0010
,
0100
0001
0100
0010
1000
0001
0100
0010
1000
0100
1000
0100
0010
0001
0010
0001
,
1000
0010
0000
0100
0001
0000
0010
0100
1000
0001
1000
0010
1000
0001
1000
0010
,
0100
0001
0010
0100
1000
0001
0010
0001
1000
0010
0100
0010
1000
0010
0100
0010
,
1000
0100
0010
0100
1000
0001
0010
0100
1000
0010
1000
0010
0100
0001
0100
0010
,
1000
0001
0100
0001
1000
0100
1000
0001
0010
0000
0100
1000
0010
0000
1000
0100
,
0010
0000
0001
0000
2000
0000
0000
0000
3001
0010
0100
1000
0001
0010
0001
1000
,
0001
0010
0100
0010
0001
1000
0100
0010
0001
1000
0010
1000
0001
0100
0010
0100
,
0001
1000
0010
0100
0001
1000
0010
1000
0001
0010
0100
1000
0001
1000
0100
0010
,
0001
1000
0100
1000
0001
0010
0001
1000
0010
0100
0010
0100
0001
0100
0001
0100
,
0010
1000
0001
0010
0100
1000
0010
0100
0001
0010
0100
1000
0001
0100
0010
0100
,
0001
1000
0100
0010
0001
1000
0010
1000
0100
0010
0001
0100
0001
1000
0010
0100
,
0001
1000
0100
0010
0001
0100
0010
1000
0100
1000
0010
1000
0100
0010
0001
0100
,
0001
0000
0010
0000
0100
0000
0010
0000
0001
0000
0100
0000
0010
0000
0100
0000
00M1
0000
1000
0000
0001
0000
0100
0010
0100
0000
0100
0000
0100
0000
0000
0000
,
1MM1
0000
0000
0000
;
