#TITLE:Lambda Driver;
#SUBTITLE:;
#ARTIST:SPELL BREAK;
#TITLETRANSLIT:;
#SUBTITLETRANSLIT:;
#ARTISTTRANSLIT:;
#GENRE:HARD DANCE;
#CREDIT:Telperion;
#MENUCOLOR:#33CC00;
#BANNER:Ldriver-bn.png;
#BACKGROUND:Ldriver-bg.png;
#LYRICSPATH:;
#CDTITLE:;
#MUSIC:Ldriver.ogg;
#OFFSET:-0.338367;
#SAMPLESTART:11.177000;
#SAMPLELENGTH:21.677000;
#SELECTABLE:YES;
#DISPLAYBPM:155.000000;
#BPMS:0.000000=155.000000;
#STOPS:;
#DELAYS:;
#TIMESIGNATURES:0.000000=4=4
;
#BGCHANGES:;
#KEYSOUNDS:;
#ATTACKS:;

//---------------dance-single - Telperion----------------
#NOTES:
     dance-single:
     Telperion:
     Challenge:
     15:
     1.000,1.000,0.022,0.563,1.000,999.000,3.000,76.000,126.000,0.000,0.000,0.000,1.000,1.000,0.022,0.563,1.000,999.000,3.000,76.000,126.000,0.000,0.000,0.000:
00M0
0000
0000
0000
0000
0000
0000
0000
0000
00M0
0000
00M0
0000
00M0
0000
0000
,
00M0
0000
00M0
0000
0000
00M0
0000
0000
0000
00M0
0000
00M0
0000
00M0
0000
0000
,
MMMM
0000
00M0
0000
00M1
10M0
00M1
1000
,
0M1M
1000
0100
1000
0000
0100
0010
0100
0000
1000
0001
1000
0000
0010
0100
0010
,
0000
1000
0010
1000
0000
0001
0010
0001
0000
1000
0100
1000
0000
0001
0100
0001
,
00M0
1000
0100
1000
0000
0001
0100
0010
0000
0100
0001
0100
0000
0001
1000
0010
,
0000
1000
0100
1000
0000
0001
0010
0100
0000
0010
0001
0010
0000
0001
1000
0100
,
00M0
1000
0001
0100
001M
0100
0001
0100
0000
0001
1000
0100
M010
0100
1000
0100
,
0000
1000
0001
1000
001M
0100
0001
0100
0000
0001
1000
0001
M010
0100
1000
0100
,
0000
1000
0001
0100
001M
0100
0001
0010
0000
0100
1000
0001
M010
0001
0100
0010
,
0000
1000
0100
1000
001M
0100
0001
0010
0000
0001
1000
0100
M010
0001
1000
0010
,
0200
0000
0000
0000
0000
0000
0000
0000
03M1
0000
1000
0000
0010
M00M
0010
0000
0001
0000
1000
0000
0100
M00M
0100
0000
0001
0100
0001
1000
0001
0000
0100
0000
,
0010
0000
0100
0000
0001
1000
0001
0010
0001
1000
0100
1000
0001
0000
0100
0000
0001
0010
0001
1000
0010
1000
0100
1000
0001
0100
0001
1000
0100
1000
0010
1000
,
0002
0000
0000
0000
0003
0000
0000
0000
1000
0000
0001
0000
1000
0100
1000
0001
1000
0100
1000
0100
0010
0000
0100
0000
1000
0000
0001
0000
0010
0000
0100
0000
,
1000
0000
0001
0000
0100
0000
0001
0000
0010
0000
0001
0000
1000
0000
0001
0000
1000
0000
0010
0000
1000
0000
0100
0000
1000
0000
0001
0000
0100
0000
0001
0000
20M0
0000
0000
0000
0000
0000
0000
3000
20M0
0000
0000
0000
0000
0000
0000
0000
0020
0000
0000
0000
0000
0000
0000
0000
0030
0000
0000
0000
0000
0000
0000
0000
,
32MM
0000
0000
0000
0000
0000
0000
0000
13M0
0000
0001
0000
0010
M00M
0010
0000
1000
0000
0001
0000
0100
M00M
0100
0000
1000
0100
1000
0001
1000
0000
0100
0000
,
0010
0000
0001
0000
1000
0001
1000
0010
1000
0001
0010
0001
1000
0000
0100
0000
1000
0100
1000
0001
0100
0001
0010
0001
1000
0010
1000
0001
0010
0001
0100
0001
,
2000
0000
0000
0000
0000
0000
0000
0000
0000
0000
0000
0000
3001
0000
0000
1000
0000
0000
0100
0000
1000
0000
0001
0000
0100
0000
0000
0000
0100
0000
0000
0000
0100
0000
0000
0000
0010
0000
0000
0000
0010
0000
0000
0000
0010
0000
0000
0000
,
1000
0010
0100
0001
0200
0000
0000
0000
0301
0100
0001
0100
0001
1000
0001
1000
0001
0000
1000
0000
0100
0000
1000
0000
0001
0000
0100
0000
0001
0000
1000
0000
,
01MM
1000
0020
0000
0130
0001
1000
0001
0010
0001
0200
0000
0301
0010
0100
1000
,
0001
1000
0020
0000
0130
0001
1000
0010
0100
0001
0010
0100
1000
0100
1000
0001
,
1000
0100
0020
0000
0130
1000
0001
0010
0001
1000
0200
0000
1300
0001
0100
0001
,
1000
0000
0000
0000
0100
0000
0000
0000
0020
0000
0000
0000
0000
0000
0000
0030
0020
0000
0000
0000
0000
0000
0000
0000
0130
0000
0000
0000
1000
0000
0000
0000
0001
0000
0000
0000
0100
0000
0000
0000
0010
0000
0000
0000
1000
0000
0000
0000
0001
0000
0000
0000
0100
0000
0000
0000
0001
0000
0000
0000
1000
0000
0000
0000
,
0200
0000
0000
0000
,
0000
0000
0000
0000
,
0000
0000
0000
0000
,
0300
0000
0000
0000
,
2002
0000
0000
0000
3000
0203
0320
2030
,
0001
0000
0000
0000
0000
3200
0320
0032
,
1000
0000
0000
0000
0000
0203
0320
2030
,
3020
0000
0230
0000
,
0302
0000
0000
0000
0000
2003
3200
0320
,
0001
0000
0000
0000
0000
0230
2300
3002
,
0100
0000
0000
0000
0000
0000
0000
0000
0000
0000
0000
0000
0000
0000
0000
0000
0000
0000
0000
0000
0000
0000
0000
0000
0000
0000
0000
0000
0000
0000
0000
0000
0000
0000
0000
0000
0000
0000
0000
0000
2003
0000
0000
0000
0000
0000
0000
0000
3002
0000
0000
0000
0000
0000
0000
0003
0002
0000
0000
0000
0000
0000
0000
0000
,
0020
0000
0003
0200
0000
0000
0330
0000
,
1000
0001
0020
0000
0031
0100
0010
0100
0001
1000
0200
0000
0310
0100
1000
0010
,
0100
0001
0200
0000
0301
1000
0001
0010
0001
1000
0200
0000
1300
0001
0100
0001
,
1000
0100
0020
0000
0031
1000
0001
0010
0001
0100
0020
0000
1030
0010
0100
0010
,
1000
0001
0200
0000
0301
1000
0001
1000
0100
1000
0002
0000
0103
0001
0100
0010
,
1M0M
0000
0000
0000
0100
0000
0000
0000
0020
0000
0000
0000
0000
0000
0000
0030
0010
0000
0000
0000
0100
0000
0000
0000
1000
0000
0000
0000
0010
0000
0000
0000
0100
0000
0000
0000
0001
0000
0000
0000
0020
0000
0000
0000
0000
0000
0000
0030
0010
0000
0000
0000
0001
0000
0000
0000
0100
0000
0000
0000
0010
0000
0000
0000
,
1M0M
0000
0000
0000
0100
0000
0000
0000
0002
0000
0000
0000
0000
0000
0000
0003
0001
0000
0000
0000
0100
0000
0000
0000
0010
0000
0000
0000
0100
0000
0000
0000
1000
0000
0000
0000
0010
0000
0000
0000
0002
0000
0000
0000
0000
0000
0000
0003
0001
0000
0000
0000
0010
0000
0000
0000
0100
0000
0000
0000
0010
0000
0000
0000
,
1M0M
0000
0000
0000
0001
0000
0000
0000
0020
0000
0000
0000
0000
0000
0000
0030
0010
0000
0000
0000
0001
0000
0000
0000
0100
0000
0000
0000
1000
0000
0000
0000
01MM
0000
0000
0000
0010
0000
0000
0000
2000
0000
0000
0000
0000
0000
0000
3000
1000
0000
0000
0000
0100
0000
0000
0000
0010
0000
0000
0000
0100
0000
0000
0000
,
M0M1
0100
0010
0000
M001
0100
0010
0000
100M
0100
0010
0000
M001
0100
0010
1000
,
02MM
0000
0000
0000
1300
0001
0010
M01M
1000
0001
0100
M10M
1000
0001
0010
M01M
,
1000
0000
0000
0000
0000
0000
0000
0000
0001
0000
0000
0000
0000
0000
0000
0000
0010
0000
0000
0000
0000
0000
0000
0000
0001
0000
0000
0000
0000
0000
0000
0000
0000
0000
0000
0000
1000
0000
0000
0000
0000
0000
0000
0000
0000
0000
0000
0000
0001
0000
0000
0000
0000
0000
0000
0000
0000
0000
0000
0000
0010
0000
0000
0000
0000
0000
0000
0000
0000
0000
0000
0000
0100
0000
0000
0000
0000
0000
0000
0000
0000
0000
0000
0000
1000
0000
0000
0000
0000
0000
0000
0000
0000
0000
0000
0000
0001
0000
0000
0000
0000
0000
0000
0000
0000
0000
0000
0000
0100
0000
0000
0000
0000
0000
0000
0000
0000
0000
0000
0000
M10M
0000
0000
0000
0000
0000
0000
0000
0000
0000
0000
0000
1000
0000
0000
0000
0000
0000
0000
0000
0000
0000
0000
0000
0001
0000
0000
0000
0000
0000
0100
0000
0000
0000
0000
0000
0001
0000
0000
0000
0000
0000
1000
0000
0000
0000
0000
0000
0001
0000
0000
0000
0000
0000
0000
0000
0000
0000
0000
0000
0010
0000
0000
0000
0000
0000
0000
0000
0000
0000
0000
0000
,
0001
0000
0000
0000
0000
0000
1000
0000
0000
0000
0000
0000
0100
0000
0000
0000
0000
0000
1000
0000
0000
0000
0000
0000
0100
0000
0000
0000
0000
0000
0000
0000
0010
0000
0000
0000
0000
0000
0000
0000
0001
0000
0000
0000
0000
0000
0000
0000
1000
0000
0000
0000
0000
0000
0001
0000
0000
0000
0000
0000
0100
0000
0000
0000
0000
0000
0001
0000
0000
0000
0000
0000
0100
0000
0000
0000
0000
0000
0000
0000
0010
0000
0000
0000
0000
0000
0000
0000
1000
0000
0000
0000
0000
0000
0000
0000
0001
0000
0000
0000
0000
0000
1000
0000
0000
0000
0000
0000
0100
0000
0000
0000
0000
0000
1000
0000
0000
0000
0000
0000
0100
0000
0000
0000
0000
0000
0000
0000
0010
0000
0000
0000
0000
0000
0000
0000
0001
0000
0000
0000
0000
0000
0000
0000
1000
0000
0000
0000
0000
0000
0001
0000
0000
0000
0000
0000
1000
0000
0000
0000
0000
0000
0001
0000
0000
0000
0000
0000
0200
0000
0000
0000
0000
0000
0000
0000
0000
0000
0000
0000
0000
0000
0000
0000
0000
0000
0000
0000
0000
0000
0000
0000
,
03M0
00M1
01M0
00M1
00M0
10M0
01M0
10M0
00M0
00M1
01M0
00M1
10M0
0100
1000
0001
,
M010
0100
0020
0000
0130
1000
0001
0010
0001
1000
0200
0000
1300
0001
0010
0001
,
1000
0100
2000
0000
3001
0100
0010
1000
0001
0100
0002
0000
1003
0100
1000
0001
,
0100
0001
0020
0000
0031
0100
0001
0010
0100
1000
0020
0000
1030
0010
0100
0010
,
1000
0100
2000
0000
3001
0100
0001
1000
0100
0010
0002
0000
1003
0001
0010
0100
,
1000
0100
0020
0000
0031
0100
0001
0010
0100
1000
0020
0000
0130
0001
0010
0001
,
0100
0010
2000
0000
3100
1000
0100
0010
0001
0100
0002
0000
1003
0001
0100
0001
,
1000
0100
0020
0000
0031
1000
0100
1000
0001
0100
0020
0000
1030
0001
0010
0001
,
0100
0010
2000
0000
3001
0010
0100
0010
0001
1000
0002
0000
0103
0001
1000
0001
,
10M0
0100
0010
M00M
0010
1000
0001
0010
0001
1000
0100
M00M
0100
0001
1000
0001
,
0010
0100
0010
M00M
0010
1000
0100
0010
0001
0010
0100
M00M
0100
0001
1000
0100
,
0010
0001
0010
M00M
0010
1000
0001
0010
0001
1000
0100
M00M
0100
0001
1000
0100
,
1000
0010
0100
M00M
0100
1000
0001
0100
0010
1000
0010
M00M
0010
0001
0100
0010
,
1000
0100
0010
M00M
0010
1000
0100
0010
0001
1000
0100
M00M
0100
0001
1000
0001
,
0100
0010
0100
M00M
0100
1000
0100
0010
0001
0010
0100
M00M
0100
0001
0100
0010
,
1000
0001
0010
M00M
0010
1000
0001
1000
0010
1000
0100
M00M
0100
0001
1000
0001
,
0010
0100
0010
M00M
0010
0100
0001
0100
0010
1000
0010
0100
0002
0000
0000
1003
,
00M1
0100
0010
1000
0100
0010
0001
0100
0010
1000
0100
0010
0001
0100
0010
1000
,
0001
0010
0100
1000
0010
0100
0001
0010
0100
1000
0010
0100
0001
1000
0001
0010
,
0100
0001
0100
0010
0001
0010
0100
0001
0100
0010
0001
0010
0100
0001
0100
1000
,
0010
0100
0001
1000
0010
0100
0001
1000
0100
1000
0010
1000
0001
0010
0001
0100
,
0010
1000
0100
0010
0001
0100
0010
1000
0100
0010
0001
0100
0010
1000
0100
0010
,
0001
1000
0010
0100
0001
0010
0100
1000
0010
0100
0001
0010
0100
1000
0001
0100
,
0010
0100
1000
0100
0010
1000
0010
0100
1000
0100
0010
1000
0010
0100
1000
0100
,
0001
1000
0100
1000
0010
1000
0001
1000
0010
0100
0001
0100
0010
0100
0001
1000
,
01M0
1000
0010
0100
0001
0010
0100
1000
0010
0100
0001
0010
0100
1000
0010
1000
,
0100
0010
0001
0100
0010
1000
0100
0010
0001
0100
0010
1000
0001
1000
0001
0010
,
M100
0001
0100
0010
0001
1000
0010
0100
1000
0100
0010
1000
0001
0010
0001
1000
,
0010
0100
0001
0100
0010
0100
0001
1000
0100
1000
0001
0010
0100
1000
0001
0100
,
M010
0000
0100
0000
0001
0000
0010
0000
0100
0000
1000
0000
0001
0000
1000
0100
,
001M
0000
0100
0000
1000
0000
0010
0000
0100
0000
0001
0000
0010
0000
0100
0010
,
100M
0000
0010
0000
0100
0000
1000
0000
0010
0000
0100
0000
0001
0000
0010
0000
010M
0000
1000
0000
0001
1000
0001
1000
0100
0000
1000
0000
0001
1000
0001
1000
,
0M00
0000
1010
0000
1000
0001
0100
0010
1000
0001
0010
0001
1000
0100
0010
0001
,
MMMM
0220
0000
0000
,
0000
0000
0000
0000
,
0000
0000
0000
0000
,
0000
0000
0000
0000
,
0330
0000
0000
0000
;

//---------------dance-single - Telperion----------------
#NOTES:
     dance-single:
     Telperion:
     Hard:
     11:
     0.986,1.000,0.118,0.578,1.000,838.000,16.000,78.000,118.000,0.000,0.000,0.000,0.986,1.000,0.118,0.578,1.000,838.000,16.000,78.000,118.000,0.000,0.000,0.000: // measure 1
00M0
0000
0000
0000
0000
0000
0000
0000
0000
00M0
0000
00M0
0000
00M0
0000
0000
,  // measure 2
00M0
0000
00M0
0000
0000
00M0
0000
0000
0000
00M0
0000
00M0
0000
00M0
0000
0000
,  // measure 3
MMMM
0000
00M0
0000
00M0
00M0
00M0
0000
,  // measure 4
1MM1
1000
0001
1000
0010
1000
0001
1000
,  // measure 5
0100
0010
0001
1000
0001
0010
0001
0100
,  // measure 6
02M1
0300
0001
0000
1000
0000
0001
0000
0010
0000
0001
0000
1000
0000
0001
0000
,  // measure 7
0100
0010
1000
0001
1000
0100
0002
0000
,  // measure 8
0103
1000
1010
0010
0100
0001
0011
0010
,  // measure 9
0100
0001
0110
0100
1000
0010
0110
0100
,  // measure 10
0001
1000
0011
0001
0100
0001
1010
1000
,  // measure 11
0010
0001
0110
1000
0100
0001
0110
0100
,  // measure 12
0020
0000
0000
0000
0M31
1000
0010
M01M
0001
1000
0100
M10M
0001
0100
0001
1000
,  // measure 13
0010
0100
0010
M01M
0001
0010
0100
M10M
0001
0100
M10M
1000
0001
0010
M01M
1000
,  // measure 14
0002
0000
0003
0000
1000
0001
1000
0010
M01M
0100
M10M
0010
1000
0100
0010
0001
,  // measure 15
1000
0100
M10M
0001
1000
0010
M01M
0001
10M0
0000
10M2
0000
0023
0000
0031
0000
,  // measure 16
12MM
0000
0000
0000
13M0
0001
0010
M01M
1000
0001
0100
M10M
1000
0010
1000
0001
,  // measure 17
0010
0001
1000
0100
M10M
0001
1000
0100
1000
0010
M01M
0100
M10M
0010
M01M
0100
,  // measure 18
2000
0000
0000
0000
0000
0000
0000
0000
0000
0000
0000
0000
3001
0000
0000
1000
0000
0000
0100
0000
1000
0000
0001
0000
0100
0000
0000
0000
0100
0000
0000
0000
0100
0000
0000
0000
0010
0000
0000
0000
0010
0000
0000
0000
0010
0000
0000
0000
,  // measure 19
1000
0001
0200
0000
0301
0100
0100
1000
0100
0010
0100
1000
0001
0100
0001
1000
,  // measure 20
01MM
0000
0020
0000
0130
1000
0001
1000
0010
0000
0200
0000
0310
1000
0100
1000
,  // measure 21
0001
0000
0020
0000
0031
0100
0001
1000
0001
0100
0010
1000
0100
1000
0001
0000
,  // measure 22
0100
0000
0020
0000
0130
0001
1000
0001
0010
0000
0200
0000
1300
0001
0100
0001
,  // measure 23
1000
0000
0000
0000
0000
0000
0000
0000
0020
0000
0000
0000
0000
0000
0000
0030
0020
0000
0000
0000
0000
0000
0000
0000
0130
0000
0000
0000
0010
0000
0000
0000
1000
0000
0000
0000
0100
0000
0000
0000
0010
0000
0000
0000
0100
0000
0000
0000
1000
0000
0000
0000
0001
0000
0000
0000
0100
0000
0000
0000
0000
0000
0000
0000
,  // measure 24
0220
0000
0000
0000
,  // measure 25
0000
0000
0000
0000
,  // measure 26
0030
0000
0000
0000
,  // measure 27
0300
0000
0000
0000
,  // measure 28
2002
0000
0000
0000
3000
0203
0320
2030
,  // measure 29
0001
0000
0000
0000
0000
3200
0320
0032
,  // measure 30
1000
0000
0000
0000
0000
0203
0320
2030
,  // measure 31
3020
0000
0230
0000
,  // measure 32
0302
0000
0000
0000
0000
2003
3200
0320
,  // measure 33
0001
0000
0000
0000
0000
0230
2300
3002
,  // measure 34
0100
0000
0000
0000
0000
0000
0000
0000
0000
0000
0000
0000
0000
0000
0000
0000
0000
0000
0000
0000
0000
0000
0000
0000
0000
0000
0000
0000
0000
0000
0000
0000
0000
0000
0000
0000
0000
0000
0000
0000
2003
0000
0000
0000
0000
0000
0000
0000
3002
0000
0000
0000
0000
0000
0000
0003
0002
0000
0000
0000
0000
0000
0000
0000
,  // measure 35
0020
0000
0003
0200
0000
0000
0330
0000
,  // measure 36
1000
0000
0020
0000
1030
0100
0010
0000
0001
0000
0200
0000
0310
0100
0001
0000
,  // measure 37
1000
0000
0002
0000
1003
0100
1000
0000
0001
0000
0200
0000
0301
1000
0001
1000
,  // measure 38
0100
0000
0020
0000
0031
1000
0010
0000
0100
0000
0020
0000
1030
0001
0100
0010
,  // measure 39
0100
0000
0002
0000
1003
0001
1000
0000
0010
0000
2000
0000
3100
0010
0100
1000
,  // measure 40
0M1M
0100
0020
0000
0130
0010
0100
0001
1000
0001
0200
0000
0301
0100
0001
1000
,  // measure 41
0M01
0000
0000
0000
0010
0000
0000
0000
0002
0000
0000
0000
0000
0000
0000
0003
0100
0000
0000
0000
0001
0000
0000
0000
0010
0000
0000
0000
0100
0000
0000
0000
1000
0000
0000
0000
0001
0000
0000
0000
2000
0000
0000
0000
0000
0000
0000
0000
3001
0000
0000
0000
1000
0000
0000
0000
0100
0000
0000
0000
0010
0000
0000
0000
,  // measure 42
0M01
1000
0020
0000
0130
0010
0100
0001
10M0
0001
0200
0000
0301
1000
0100
0010
,  // measure 43
0M01
0010
0100
0000
10M0
0001
0100
0000
00M1
1000
0100
0000
10M0
0001
0100
0001
,  // measure 44
MM20
0000
0000
0000
0031
1000
0010
M01M
0001
1000
0100
M10M
0001
1000
0010
M01M
,  // measure 45
0001
0000
1000
0000
0010
0000
1000
0000
0000
0001
0000
0000
1000
0000
0000
0100
0000
0000
0010
0000
0000
0001
0000
0000
1000
0000
0000
0100
0000
0000
M10M
0000
0000
0001
0000
0000
1000
0000
0000
0100
0000
0000
M10M
0000
0000
0001
0000
0000
,  // measure 46
0100
0000
0000
0010
0000
0000
1000
0000
0001
0000
0010
0000
0100
0000
0000
0010
0000
0000
0001
0000
1000
0000
0010
0000
0100
0000
0000
0010
0000
0000
1000
0000
0001
0000
0010
0000
0100
0000
0000
1000
0000
0000
0002
0000
0000
0000
0000
0000
,  // measure 47
00M3
10M0
01M0
10M0
00M0
00M1
01M0
00M1
00M0
10M0
01M0
10M0
00M1
0100
0001
1000
,  // measure 48
001M
0100
0020
0000
0130
0000
0001
1000
0100
0010
0200
0000
1300
0000
0001
1000
,  // measure 49
0001
1000
0200
0000
1300
0000
0001
1000
0001
0100
0002
0000
1003
0100
1000
0001
,  // measure 50
1000
0100
0020
0000
0130
0000
0010
0001
1000
0100
0020
0000
0130
0000
0010
0100
,  // measure 51
1000
0001
2000
0000
3001
0000
0100
0001
0100
0010
2000
0000
3001
0100
0001
1000
,  // measure 52
0100
0010
0002
0000
1003
0000
0001
0010
0100
1000
0002
0000
1003
0000
0001
0100
,  // measure 53
0010
0100
0002
0000
0103
0000
0001
1000
0100
0010
0200
0000
1300
0000
0001
1000
,  // measure 54
0001
0100
0020
0000
0130
0000
0001
1000
0100
1000
0020
0000
0130
0000
0010
1000
,  // measure 55
0100
0010
0002
0000
1003
0000
0001
0100
0001
1000
0002
0000
0103
0001
1000
0001
,  // measure 56
10M0
0100
0010
000M
0100
1000
0100
1000
0001
1000
0100
0000
1000
0001
1000
0001
,  // measure 57
0100
0001
0010
0000
0001
1000
0001
1000
0100
1000
0010
0000
0100
0001
1000
0001
,  // measure 58
1000
0100
0010
0000
0010
0100
1000
0001
1000
0100
0010
0000
0100
1000
0100
1000
,  // measure 59
0001
0100
0001
0000
1000
0100
1000
0001
0100
0001
0010
0000
0001
0010
0001
0100
,  // measure 60
0001
1000
0010
0000
1000
0010
1000
0100
0010
0100
1000
0000
0100
1000
0001
1000
,  // measure 61
0001
0100
0001
0000
1000
0001
0100
0001
1000
0100
1000
0000
0001
1000
0100
1000
,  // measure 62
0001
1000
0010
0000
1000
0001
0010
0001
0100
0001
0010
0000
0010
0100
1000
0001
,  // measure 63
0100
0001
0100
0000
0010
0100
0001
0100
0010
1000
0010
0100
0002
0000
0000
1003
,  // measure 64
00M1
1000
0100
1000
0001
0100
0001
1000
0100
1000
0001
0100
0001
1000
0100
1000
,  // measure 65
0001
0010
0001
1000
0010
1000
0001
0010
0001
1000
0010
1000
0001
0010
0001
1000
,  // measure 66
0010
1000
0001
1000
0100
1000
0001
0100
0001
1000
0100
1000
0001
0100
0001
1000
,  // measure 67
0010
0100
0010
1000
0010
0100
0010
1000
0001
0000
0010
0000
0001
0000
1000
0000
,  // measure 68
0100
1000
0001
0100
0001
1000
0100
1000
0001
0100
0001
1000
0100
1000
0001
0100
,  // measure 69
0001
1000
0010
1000
0001
0010
0001
1000
0010
1000
0001
0010
0001
1000
0010
0100
,  // measure 70
0010
0100
0001
1000
0100
1000
0001
0100
0001
1000
0100
1000
0001
0100
0001
0010
,  // measure 71
0100
1000
0100
0010
0001
1000
0100
0010
0001
0000
1000
0000
0010
0000
1000
0000
,  // measure 72
01MM
1000
0010
0100
0001
0010
0100
1000
0010
0100
0001
0010
0100
0010
0001
0000
,  // measure 73
0100
0010
1000
0100
0010
0001
0100
0010
1000
0100
0010
0001
0010
0100
1000
0000
,  // measure 74
010M
0010
0100
1000
0010
0100
0001
0010
0100
0010
0001
1000
0001
0010
0001
1000
,  // measure 75
0M10
0000
0000
0000
0M10
0000
0000
0000
01M0
0000
0000
0010
M100
0000
0001
1000
,  // measure 76
01M0
0000
1000
0000
0001
0000
0010
0000
0001
0000
0100
0000
0010
0000
1000
0100
,  // measure 77
001M
0000
0100
0000
1000
0000
0001
0000
0100
0000
0001
0000
0010
0000
0100
0010
,  // measure 78
M001
0100
0010
1000
0001
0000
0100
0001
M010
0100
1000
0100
M10M
0001
0100
M10M
,  // measure 79
0000
0000
1001
0000
0000
0000
1000
0001
0010
0100
1000
0010
0100
0001
0010
0100
,  // measure 80
M00M
0MM0
0000
0000
0000
0000
0000
0000
0220
0000
0000
0000
0000
0000
0000
0000
0000
0000
0000
0000
0000
0000
0000
0000
0000
0000
0000
0000
0000
0000
0000
0000
,  // measure 81
0000
0000
0000
0000
,  // measure 82
0000
0000
0000
0000
,  // measure 83
0000
0000
0000
0000
,  // measure 84
0330
0000
0000
0000
;
