#TITLE:Golden Palms;
#SUBTITLE:;
#ARTIST:Dirty Androids;
#TITLETRANSLIT:;
#SUBTITLETRANSLIT:;
#ARTISTTRANSLIT:;
#GENRE:;
#CREDIT:Telperion;
#BANNER:Golden Palms-bn.png;
#BACKGROUND:Golden Palms-bg.png;
#LYRICSPATH:;
#CDTITLE:CD-title-ITG.png;
#MUSIC:Golden Palms.ogg;
#OFFSET:-0.277;
#SAMPLESTART:46.431;
#SAMPLELENGTH:12.000;
#SELECTABLE:YES;
#DISPLAYBPM:130.000;
#BPMS:0.000=97.500,0.250=195.000,0.500=97.500,0.750=195.000,1.000=97.500,1.250=195.000,1.500=97.500,1.750=195.000,2.000=97.500,2.250=195.000,2.500=97.500,2.750=195.000,3.000=97.500,3.250=195.000,3.500=97.500,3.750=195.000,4.000=97.500,4.250=195.000,4.500=97.500,4.750=195.000,5.000=97.500,5.250=195.000,5.500=97.500,5.750=195.000,6.000=97.500,6.250=195.000,6.500=97.500,6.750=195.000,7.000=97.500,7.250=195.000,7.500=97.500,7.750=195.000,8.000=97.500,8.250=195.000,8.500=97.500,8.750=195.000,9.000=97.500,9.250=195.000,9.500=97.500,9.750=195.000,10.000=97.500,10.250=195.000,10.500=97.500,10.750=195.000,11.000=97.500,11.250=195.000,11.500=97.500,11.750=195.000,12.000=97.500,12.250=195.000,12.500=97.500,12.750=195.000,13.000=97.500,13.250=195.000,13.500=97.500,13.750=195.000,14.000=97.500,14.250=195.000,14.500=97.500,14.750=195.000,15.000=97.500,15.250=195.000,15.500=97.500,15.750=195.000,16.000=97.500,16.250=195.000,16.500=97.500,16.750=195.000,17.000=97.500,17.250=195.000,17.500=97.500,17.750=195.000,18.000=97.500,18.250=195.000,18.500=97.500,18.750=195.000,19.000=97.500,19.250=195.000,19.500=97.500,19.750=195.000,20.000=97.500,20.250=195.000,20.500=97.500,20.750=195.000,21.000=97.500,21.250=195.000,21.500=97.500,21.750=195.000,22.000=97.500,22.250=195.000,22.500=97.500,22.750=195.000,23.000=97.500,23.250=195.000,23.500=97.500,23.750=195.000,24.000=97.500,24.250=195.000,24.500=97.500,24.750=195.000,25.000=97.500,25.250=195.000,25.500=97.500,25.750=195.000,26.000=97.500,26.250=195.000,26.500=97.500,26.750=195.000,27.000=97.500,27.250=195.000,27.500=97.500,27.750=195.000,28.000=97.500,28.250=195.000,28.500=97.500,28.750=195.000,29.000=97.500,29.250=195.000,29.500=97.500,29.750=195.000,30.000=130.000,32.000=97.500,32.250=195.000,32.500=97.500,32.750=195.000,33.000=97.500,33.250=195.000,33.500=97.500,33.750=195.000,34.000=97.500,34.250=195.000,34.500=97.500,34.750=195.000,35.000=97.500,35.250=195.000,35.500=97.500,35.750=195.000,36.000=97.500,36.250=195.000,36.500=97.500,36.750=195.000,37.000=97.500,37.250=195.000,37.500=97.500,37.750=195.000,38.000=97.500,38.250=195.000,38.500=97.500,38.750=195.000,39.000=97.500,39.250=195.000,39.500=97.500,39.750=195.000,40.000=97.500,40.250=195.000,40.500=97.500,40.750=195.000,41.000=97.500,41.250=195.000,41.500=97.500,41.750=195.000,42.000=97.500,42.250=195.000,42.500=97.500,42.750=195.000,43.000=97.500,43.250=195.000,43.500=97.500,43.750=195.000,44.000=97.500,44.250=195.000,44.500=97.500,44.750=195.000,45.000=97.500,45.250=195.000,45.500=97.500,45.750=195.000,46.000=97.500,46.250=195.000,46.500=97.500,46.750=195.000,47.000=97.500,47.250=195.000,47.500=97.500,47.750=195.000,48.000=97.500,48.250=195.000,48.500=97.500,48.750=195.000,49.000=97.500,49.250=195.000,49.500=97.500,49.750=195.000,50.000=97.500,50.250=195.000,50.500=97.500,50.750=195.000,51.000=97.500,51.250=195.000,51.500=97.500,51.750=195.000,52.000=97.500,52.250=195.000,52.500=97.500,52.750=195.000,53.000=97.500,53.250=195.000,53.500=97.500,53.750=195.000,54.000=97.500,54.250=195.000,54.500=97.500,54.750=195.000,55.000=97.500,55.250=195.000,55.500=97.500,55.750=195.000,56.000=97.500,56.250=195.000,56.500=97.500,56.750=195.000,57.000=97.500,57.250=195.000,57.500=97.500,57.750=195.000,58.000=97.500,58.250=195.000,58.500=97.500,58.750=195.000,59.000=97.500,59.250=195.000,59.500=97.500,59.750=195.000,60.000=97.500,60.250=195.000,60.500=97.500,60.750=195.000,61.000=97.500,61.250=195.000,61.500=97.500,61.750=195.000,62.000=97.500,62.250=195.000,62.500=97.500,62.750=195.000,63.000=97.500,63.250=195.000,63.500=97.500,63.750=195.000,64.000=97.500,64.250=195.000,64.500=97.500,64.750=195.000,65.000=97.500,65.250=195.000,65.500=97.500,65.750=195.000,66.000=97.500,66.250=195.000,66.500=97.500,66.750=195.000,67.000=97.500,67.250=195.000,67.500=97.500,67.750=195.000,68.000=97.500,68.250=195.000,68.500=97.500,68.750=195.000,69.000=97.500,69.250=195.000,69.500=97.500,69.750=195.000,70.000=97.500,70.250=195.000,70.500=97.500,70.750=195.000,71.000=97.500,71.250=195.000,71.500=97.500,71.750=195.000,72.000=97.500,72.250=195.000,72.500=97.500,72.750=195.000,73.000=97.500,73.250=195.000,73.500=97.500,73.750=195.000,74.000=97.500,74.250=195.000,74.500=97.500,74.750=195.000,75.000=97.500,75.250=195.000,75.500=97.500,75.750=195.000,76.000=97.500,76.250=195.000,76.500=97.500,76.750=195.000,77.000=97.500,77.250=195.000,77.500=97.500,77.750=195.000,78.000=97.500,78.250=195.000,78.500=97.500,78.750=195.000,79.000=97.500,79.250=195.000,79.500=97.500,79.750=195.000,80.000=97.500,80.250=195.000,80.500=97.500,80.750=195.000,81.000=97.500,81.250=195.000,81.500=97.500,81.750=195.000,82.000=97.500,82.250=195.000,82.500=97.500,82.750=195.000,83.000=97.500,83.250=195.000,83.500=97.500,83.750=195.000,84.000=97.500,84.250=195.000,84.500=97.500,84.750=195.000,85.000=97.500,85.250=195.000,85.500=97.500,85.750=195.000,86.000=97.500,86.250=195.000,86.500=97.500,86.750=195.000,87.000=97.500,87.250=195.000,87.500=97.500,87.750=195.000,88.000=97.500,88.250=195.000,88.500=97.500,88.750=195.000,89.000=97.500,89.250=195.000,89.500=97.500,89.750=195.000,90.000=97.500,90.250=195.000,90.500=97.500,90.750=195.000,91.000=97.500,91.250=195.000,91.500=97.500,91.750=195.000,92.000=130.000,96.000=97.500,96.250=195.000,96.500=97.500,96.750=195.000,97.000=97.500,97.250=195.000,97.500=97.500,97.750=195.000,98.000=97.500,98.250=195.000,98.500=97.500,98.750=195.000,99.000=97.500,99.250=195.000,99.500=97.500,99.750=195.000,100.000=97.500,100.250=195.000,100.500=97.500,100.750=195.000,101.000=97.500,101.250=195.000,101.500=97.500,101.750=195.000,102.000=97.500,102.250=195.000,102.500=97.500,102.750=195.000,103.000=97.500,103.250=195.000,103.500=97.500,103.750=195.000,104.000=97.500,104.250=195.000,104.500=97.500,104.750=195.000,105.000=97.500,105.250=195.000,105.500=97.500,105.750=195.000,106.000=97.500,106.250=195.000,106.500=97.500,106.750=195.000,107.000=97.500,107.250=195.000,107.500=97.500,107.750=195.000,108.000=97.500,108.250=195.000,108.500=97.500,108.750=195.000,109.000=97.500,109.250=195.000,109.500=97.500,109.750=195.000,110.000=97.500,110.250=195.000,110.500=97.500,110.750=195.000,111.000=97.500,111.250=195.000,111.500=97.500,111.750=195.000,112.000=97.500,112.250=195.000,112.500=97.500,112.750=195.000,113.000=97.500,113.250=195.000,113.500=97.500,113.750=195.000,114.000=97.500,114.250=195.000,114.500=97.500,114.750=195.000,115.000=97.500,115.250=195.000,115.500=97.500,115.750=195.000,116.000=97.500,116.250=195.000,116.500=97.500,116.750=195.000,117.000=97.500,117.250=195.000,117.500=97.500,117.750=195.000,118.000=97.500,118.250=195.000,118.500=97.500,118.750=195.000,119.000=97.500,119.250=195.000,119.500=97.500,119.750=195.000,120.000=97.500,120.250=195.000,120.500=97.500,120.750=195.000,121.000=97.500,121.250=195.000,121.500=97.500,121.750=195.000,122.000=97.500,122.250=195.000,122.500=97.500,122.750=195.000,123.000=97.500,123.250=195.000,123.500=97.500,123.750=195.000,124.000=97.500,124.250=195.000,124.500=97.500,124.750=195.000,125.000=97.500,125.250=195.000,125.500=97.500,125.750=195.000,126.000=97.500,126.250=195.000,126.500=97.500,126.750=195.000,127.000=97.500,127.250=195.000,127.500=97.500,127.750=195.000,128.000=130.000,160.000=97.500,160.250=195.000,160.500=97.500,160.750=195.000,161.000=97.500,161.250=195.000,161.500=97.500,161.750=195.000,162.000=97.500,162.250=195.000,162.500=97.500,162.750=195.000,163.000=97.500,163.250=195.000,163.500=97.500,163.750=195.000,164.000=97.500,164.250=195.000,164.500=97.500,164.750=195.000,165.000=97.500,165.250=195.000,165.500=97.500,165.750=195.000,166.000=97.500,166.250=195.000,166.500=97.500,166.750=195.000,167.000=97.500,167.250=195.000,167.500=97.500,167.750=195.000,168.000=97.500,168.250=195.000,168.500=97.500,168.750=195.000,169.000=97.500,169.250=195.000,169.500=97.500,169.750=195.000,170.000=97.500,170.250=195.000,170.500=97.500,170.750=195.000,171.000=97.500,171.250=195.000,171.500=97.500,171.750=195.000,172.000=97.500,172.250=195.000,172.500=97.500,172.750=195.000,173.000=97.500,173.250=195.000,173.500=97.500,173.750=195.000,174.000=97.500,174.250=195.000,174.500=97.500,174.750=195.000,175.000=97.500,175.250=195.000,175.500=97.500,175.750=195.000,176.000=97.500,176.250=195.000,176.500=97.500,176.750=195.000,177.000=97.500,177.250=195.000,177.500=97.500,177.750=195.000,178.000=97.500,178.250=195.000,178.500=97.500,178.750=195.000,179.000=97.500,179.250=195.000,179.500=97.500,179.750=195.000,180.000=97.500,180.250=195.000,180.500=97.500,180.750=195.000,181.000=97.500,181.250=195.000,181.500=97.500,181.750=195.000,182.000=97.500,182.250=195.000,182.500=97.500,182.750=195.000,183.000=97.500,183.250=195.000,183.500=97.500,183.750=195.000,184.000=97.500,184.250=195.000,184.500=97.500,184.750=195.000,185.000=97.500,185.250=195.000,185.500=97.500,185.750=195.000,186.000=97.500,186.250=195.000,186.500=97.500,186.750=195.000,187.000=97.500,187.250=195.000,187.500=97.500,187.750=195.000,188.000=97.500,188.250=195.000,188.500=97.500,188.750=195.000,189.000=97.500,189.250=195.000,189.500=97.500,189.750=195.000,190.000=97.500,190.250=195.000,190.500=97.500,190.750=195.000,191.000=260.000,192.000=97.500,192.250=195.000,192.500=97.500,192.750=195.000,193.000=97.500,193.250=195.000,193.500=97.500,193.750=195.000,194.000=97.500,194.250=195.000,194.500=97.500,194.750=195.000,195.000=97.500,195.250=195.000,195.500=97.500,195.750=195.000,196.000=97.500,196.250=195.000,196.500=97.500,196.750=195.000,197.000=97.500,197.250=195.000,197.500=97.500,197.750=195.000,198.000=97.500,198.250=195.000,198.500=97.500,198.750=195.000,199.000=97.500,199.250=195.000,199.500=97.500,199.750=195.000,200.000=97.500,200.250=195.000,200.500=97.500,200.750=195.000,201.000=97.500,201.250=195.000,201.500=97.500,201.750=195.000,202.000=97.500,202.250=195.000,202.500=97.500,202.750=195.000,203.000=97.500,203.250=195.000,203.500=97.500,203.750=195.000,204.000=97.500,204.250=195.000,204.500=97.500,204.750=195.000,205.000=97.500,205.250=195.000,205.500=97.500,205.750=195.000,206.000=97.500,206.250=195.000,206.500=97.500,206.750=195.000,207.000=97.500,207.250=195.000,207.500=97.500,207.750=195.000,208.000=97.500,208.250=195.000,208.500=97.500,208.750=195.000,209.000=97.500,209.250=195.000,209.500=97.500,209.750=195.000,210.000=97.500,210.250=195.000,210.500=97.500,210.750=195.000,211.000=97.500,211.250=195.000,211.500=97.500,211.750=195.000,212.000=97.500,212.250=195.000,212.500=97.500,212.750=195.000,213.000=97.500,213.250=195.000,213.500=97.500,213.750=195.000,214.000=97.500,214.250=195.000,214.500=97.500,214.750=195.000,215.000=97.500,215.250=195.000,215.500=97.500,215.750=195.000,216.000=97.500,216.250=195.000,216.500=97.500,216.750=195.000,217.000=97.500,217.250=195.000,217.500=97.500,217.750=195.000,218.000=97.500,218.250=195.000,218.500=97.500,218.750=195.000,219.000=97.500,219.250=195.000,219.500=97.500,219.750=195.000,220.000=97.500,220.250=195.000,220.500=97.500,220.750=195.000,221.000=97.500,221.250=195.000,221.500=97.500,221.750=195.000,222.000=97.500,222.250=195.000,222.500=97.500,222.750=195.000,223.000=97.500,223.250=195.000,223.500=97.500,223.750=195.000,224.000=97.500,224.250=195.000,224.500=97.500,224.750=195.000,225.000=97.500,225.250=195.000,225.500=97.500,225.750=195.000,226.000=97.500,226.250=195.000,226.500=97.500,226.750=195.000,227.000=97.500,227.250=195.000,227.500=97.500,227.750=195.000,228.000=97.500,228.250=195.000,228.500=97.500,228.750=195.000,229.000=97.500,229.250=195.000,229.500=97.500,229.750=195.000,230.000=97.500,230.250=195.000,230.500=97.500,230.750=195.000,231.000=97.500,231.250=195.000,231.500=97.500,231.750=195.000,232.000=97.500,232.250=195.000,232.500=97.500,232.750=195.000,233.000=97.500,233.250=195.000,233.500=97.500,233.750=195.000,234.000=97.500,234.250=195.000,234.500=97.500,234.750=195.000,235.000=97.500,235.250=195.000,235.500=97.500,235.750=195.000,236.000=97.500,236.250=195.000,236.500=97.500,236.750=195.000,237.000=97.500,237.250=195.000,237.500=97.500,237.750=195.000,238.000=97.500,238.250=195.000,238.500=97.500,238.750=195.000,239.000=97.500,239.250=195.000,239.500=97.500,239.750=195.000,240.000=97.500,240.250=195.000,240.500=97.500,240.750=195.000,241.000=97.500,241.250=195.000,241.500=97.500,241.750=195.000,242.000=97.500,242.250=195.000,242.500=97.500,242.750=195.000,243.000=97.500,243.250=195.000,243.500=97.500,243.750=195.000,244.000=97.500,244.250=195.000,244.500=97.500,244.750=195.000,245.000=97.500,245.250=195.000,245.500=97.500,245.750=195.000,246.000=97.500,246.250=195.000,246.500=97.500,246.750=195.000,247.000=97.500,247.250=195.000,247.500=97.500,247.750=195.000,248.000=97.500,248.250=195.000,248.500=97.500,248.750=195.000,249.000=97.500,249.250=195.000,249.500=97.500,249.750=195.000,250.000=97.500,250.250=195.000,250.500=97.500,250.750=195.000,251.000=97.500,251.250=195.000,251.500=97.500,251.750=195.000,252.000=97.500,252.250=195.000,252.500=97.500,252.750=195.000,253.000=97.500,253.250=195.000,253.500=97.500,253.750=195.000,254.000=97.500,254.250=195.000,254.500=97.500,254.750=195.000,255.000=97.500,255.250=195.000,255.500=97.500,255.750=195.000,256.000=130.000;
#STOPS:191.063=0.115
,191.563=0.115
;
#BGCHANGES:;
#KEYSOUNDS:;

//---------------dance-single - Telperion----------------
#NOTES:
     dance-single:
     Telperion:
     Challenge:
     10:
     0.747,0.757,0.253,0.524,0.397:
1000
0000
0001
1000
0100
0020
0030
0000
,
0100
1000
0001
0100
0000
0100
0100
0000
,
0001
0100
0010
1000
0000
0020
0030
0000
,
0100
1000
0100
0001
1000
0100
0100
1000
,
1001
0001
0100
0010
1000
0200
0300
0000
,
1000
0100
0001
0100
0000
0010
0010
0000
,
0001
0100
1000
0100
0010
0200
0300
0000
,
0001
0100
1000
0100
0010
1000
0200
0000
,
1300
0000
0001
0000
0100
0000
0010
0000
0100
0000
0001
0000
0100
0100
0010
0010
,
1000
0001
1000
0100
0010
0001
0022
0030
,
1003
0000
0000
0000
0001
0000
0000
0000
0100
0000
0000
0000
0010
0100
0010
0000
0100
0000
0000
0000
0010
0000
0000
0000
2000
0000
0000
0000
0000
0000
0000
0000
,
3100
0000
0010
0010
0001
0000
1000
1000
0001
0000
0010
0000
0200
0000
0000
0000
,
0310
0000
0100
0000
1000
0000
0001
0000
0100
0000
0010
0000
1000
0010
1000
0100
,
1000
0000
0100
0000
0010
0000
0001
0000
0001
1000
0001
0000
2000
0000
0000
0000
,
3100
0000
0000
0000
0010
0000
0000
0000
0101
0000
0000
0000
0001
0100
0001
0000
0100
0000
0000
0000
0010
0000
0000
0000
0020
0000
0000
0000
0000
0000
0000
0000
,
1030
0000
0000
0000
1000
0000
0000
0000
1000
0001
1000
0000
0001
0000
1000
0000
0100
0000
0010
0000
0000
0100
0000
0000
0020
0000
0000
0000
0032
0000
0000
0000
,
0103
0000
0001
0000
0001
0000
1000
1000
0M0M
0010
0000
0000
0002
0000
0023
0000
,
1030
0100
0010
0001
0100
0010
0002
0000
,
0013
0000
1000
0000
0011
0000
0000
0010
0000
0100
0000
0100
0001
0000
0100
0000
,
1000
0001
0100
1000
0100
0001
0001
1000
,
2001
0000
0001
0000
3010
0000
0000
0100
0000
0010
0000
0010
1000
0000
0100
0000
,
0010
0000
0000
0000
0000
0000
0000
0000
0100
0000
0000
0000
0000
0000
0000
0000
0001
0000
0000
0000
0000
0000
0000
0000
0100
0000
0000
0000
0000
0000
0000
0000
0010
0000
0000
0000
0000
0000
0000
0000
0001
0000
0000
0000
0000
0000
0000
0000
0220
0000
0000
0000
0000
0000
0000
0000
0000
0000
0000
0000
0000
0000
0000
0330
,
1001
0000
0001
0000
0011
0000
0010
0100
0000
0001
0000
0100
1000
0000
0001
0000
,
0010
0001
1000
0010
0010
1000
0001
0010
0001
1000
1000
0001
1000
0100
0001
0000
,
0100
0000
1000
0001
0100
0000
0001
1000
0100
0000
0002
0000
0103
0000
0020
0000
,
0031
0100
1000
0100
0001
0100
2100
0000
,
3001
0000
0100
0001
1000
0000
0100
1000
0000
1000
0001
0000
0020
0000
2030
0000
,
3001
0000
1000
0000
0010
0000
0001
0000
1000
0000
0100
0100
1000
1000
0001
0000
,
0010
0000
0100
0000
0110
0000
0001
0100
M0M0
0000
0020
0000
0130
0000
2000
0000
,
3200
0000
0000
0000
0000
0000
0000
0000
0302
0000
0000
0000
0000
0000
0000
0000
0013
0000
0000
0000
0000
0000
0000
0000
0100
0000
0000
0000
0000
0000
0000
0000
0001
0000
0000
0000
0000
0000
0000
0000
0100
0000
0000
0000
0000
0000
0000
0000
0022
0000
0000
0000
0000
0000
0000
0000
0000
0000
0000
0000
0000
0000
0000
0033
,
1100
0000
1000
0000
1001
0000
0001
0100
0000
0100
1000
0000
0100
0010
0100
0000
,
0002
0000
2003
0000
3100
0000
1000
0010
1000
0001
0010
0001
1000
0010
1000
0000
,
1000
0000
1100
0001
0100
0010
1000
0010
,
0100
0000
0100
0002
0010
1000
0013
0000
,
0011
0001
0100
0010
0100
1000
0100
0001
,
0010
0000
0001
0020
0001
1000
0031
0000
,
0010
0001
0100
0010
1000
0001
0100
2000
,
0000
0000
0000
0000
0000
0000
0000
0000
0000
0000
0000
0000
0000
0000
0000
3000
1000
0000
0000
0000
0000
0000
0000
0000
0020
0000
0000
0000
0000
0000
0000
0000
0000
0000
0000
0000
0000
0000
0000
0000
0000
0000
0000
0000
0000
0000
0000
0030
0010
0000
0000
0000
0000
0000
0000
0000
0002
0000
0000
0000
0000
0000
0000
0000
,
0000
0000
0000
0000
0000
0000
0000
0000
0000
0000
0000
0000
0000
0000
0000
0003
0001
0000
0000
0000
0000
0000
0000
0000
0200
0000
0000
0000
0000
0000
0000
0000
0000
0000
0000
0000
0000
0000
0000
0000
0000
0000
0000
0000
0000
0000
0000
0300
0100
0000
0000
0000
0000
0000
0000
0000
2000
0000
0000
0000
0000
0000
0000
0000
,
0000
3100
0001
1000
0100
0010
0110
0000
,
1000
0000
0100
0010
0001
0000
0010
0000
0100
0000
1000
0000
0001
0000
0200
0000
,
0010
0000
1300
0100
0001
0010
0020
0000
,
0031
1000
0010
0001
0010
1000
0100
0020
,
0000
0130
0001
0010
1000
0100
0010
0010
,
0001
0000
0100
0001
1000
0000
0010
0000
0100
0000
0001
0000
0100
0000
2000
0000
,
0000
3100
0001
0020
0000
0130
0100
0002
,
0000
0000
0000
0000
0000
0000
0000
0000
0000
0000
0000
0000
0000
0000
0000
0003
0001
0000
0000
0000
0000
0000
0000
0000
0020
0000
0000
0000
0000
0000
0000
0000
0000
0000
0000
0000
0000
0000
0000
0000
0000
0000
0000
0000
0000
0000
0000
0030
0010
0000
0000
0000
0000
0000
0000
0000
2000
0000
0000
0000
0000
0000
0000
0000
,
0000
0000
0000
0000
3100
0010
0100
0010
,
0001
1000
0001
0000
1000
0000
0100
0000
1000
0001
1000
0000
0001
0000
0100
0000
0001
1000
0001
0000
1000
0000
0100
0000
0010
0000
0000
0000
0010
0000
0000
0000
,
0001
0000
1000
0100
0010
0000
0100
1000
0010
0000
0100
1000
0200
0000
0000
0000
,
0310
0100
0010
0000
0100
0000
0001
0000
0100
0010
0100
0000
0010
0000
1000
0000
0010
0100
0010
0000
0100
0000
0001
0000
1000
0000
0000
0000
1000
0000
0000
0000
,
0100
0000
0100
0010
0000
0010
0001
0100
1000
0000
0100
0000
1001
0000
0000
0000
,
M111
0000
0000
0000
111M
0000
0000
0000
0202
0000
1303
0000
0001
0001
1000
1000
,
0200
0310
0200
0301
0200
1300
0101
0000
,
111M
0000
0000
0000
M111
0000
0000
0000
2200
0000
3301
0000
1000
0001
0010
0010
,
0100
0000
0100
0000
1000
0000
0001
0000
0100
0000
0001
0000
0100
0000
0001
0000
1000
0000
0000
0000
0100
0010
0000
0000
0200
0000
0000
0000
0000
0000
0000
0000
,
1300
0000
0001
0100
0001
0000
0020
0000
0000
0000
0130
0000
0001
0000
0001
0000
,
0100
1000
1000
0001
0001
0100
1100
0000
,
0001
0000
1000
0100
1000
0000
0020
0000
0000
0000
0130
1000
0100
0000
0001
0000
,
0010
0100
1000
0001
0010
0100
1000
0000
,
1001
0000
0001
0000
0100
0000
0100
0010
0000
0010
0100
0000
1000
0000
0001
0000
,
0010
0000
0000
0000
0100
0000
0000
0000
0010
0000
0000
0000
0000
0000
0000
0000
0001
0000
0000
0000
0000
0000
0000
0000
1000
0000
0000
0000
0000
0000
0000
0000
0200
0000
0000
0000
0000
0000
0000
0000
0000
0000
0000
0000
0000
0000
0000
0000
0302
0000
0000
0000
0000
0000
0000
0000
0000
0000
0000
0000
0000
0000
0000
0003
,
1001
0000
0000
0000
1000
0000
0100
0000
0010
0000
0000
0000
0100
1000
0100
0000
1000
0000
0000
0000
0001
0000
0000
0000
0100
0000
0000
0000
0001
0000
0000
0000
,
0010
0000
0110
0000
1000
0000
0101
0001
1000
0000
0100
0000
2002
0000
0000
0000
,
3003
0000
0000
0000
;
