#TITLE:Gangnam Style;
#SUBTITLE:;
#ARTIST:PSY;
#TITLETRANSLIT:;
#SUBTITLETRANSLIT:;
#ARTISTTRANSLIT:;
#GENRE:;
#CREDIT:Telperion's skeleton;
#BANNER:;
#BACKGROUND:;
#LYRICSPATH:;
#CDTITLE:;
#MUSIC:gangnam.ogg;
#OFFSET:-0.269;
#SAMPLESTART:67.551;
#SAMPLELENGTH:14.545;
#SELECTABLE:YES;
#DISPLAYBPM:132.000;
#BPMS:0.000=132.000
;
#STOPS:
;
#BGCHANGES:1.938=Gangnam Style.avi=1.000=1=0=0=StretchNoLoop==CrossFade==,
99999=-nosongbg-=1.000=0=0=0 // don't automatically add -songbackground-
;
#KEYSOUNDS:;
#ATTACKS:;

//---------------dance-double - ----------------
#NOTES:
     dance-double:
     :
     Challenge:
     9:
     0.543,0.754,0.299,0.349,0.192,441.000,42.000,49.000,0.000,1.000,8.000,0.543,0.754,0.299,0.349,0.192,441.000,42.000,49.000,0.000,1.000,8.000:
00000000
00000000
00000000
00000000
,
00000000
00000000
00000000
00000000
,
00000000
00000000
00000000
00000000
,
00000000
00000000
00000000
00000000
,
00000000
00000000
00000000
00000000
,
00022000
00000000
00000000
00000000
,
00000000
00000000
00003000
00000000
,
00030000
00000000
00000000
00000000
,
00000100
00000000
00000000
00010000
00000000
00000000
00000100
00000000
00000010
00000000
00000000
00000010
00000100
00000000
00001000
00000000
,
00000001
00000100
00001000
00020000
00000000
01030000
10000000
00010000
,
10000000
00100000
00010000
00100000
10000000
00010000
00000000
00100000
,
00010000
00000000
10000000
00000000
01000000
00000000
00010000
00000000
00001000
00000000
00000100
00000001
00001000
00000000
00000100
00000000
,
00000001
00000100
00001000
00000001
00000100
00000010
00000000
00001000
,
00000100
00000000
00200000
00000000
00000000
00000000
01300000
00000000
00010000
00000000
00000000
01000000
10000000
00000000
00010000
00000000
,
10100000
00100000
00010000
00001000
00000110
00001000
00000001
00000010
,
00000110
00000000
00000110
00000000
00001001
00001000
00000010
00010000
,
00001000
00000000
00000000
01000000
00000000
00000000
00001000
00000000
00100000
00000000
00000000
00100000
01000000
00000000
10000000
00000000
,
00010000
10000000
00100000
00010000
00001000
00000010
00000001
00000100
,
00001000
00000100
00000001
00000010
00001000
00010000
01000000
10000000
,
00010000
10000000
00100000
00010000
00001000
00000100
00001000
00010000
,
01000000
00010000
00001000
00000010
00000001
00000100
00001000
00010000
,
01000000
10000000
00100000
00010000
00001000
00000010
00001000
00010000
,
00000010
00000001
00000010
00001000
00000001
00001000
00000100
00010000
,
01000000
10000000
00200000
00000000
00300100
00000001
00000010
00001000
,
00000020
00000000
00000000
00000100
00000030
00000000
00000010
00000000
00000001
00000000
00000000
00001000
00000100
00000000
00010000
00000000
,
00002000
00000000
01000000
00000000
00013000
00000100
00001000
00010000
,
00200000
00000000
00001000
00000000
00310000
00000000
10000000
01000000
,
00010000
00000000
00000000
00001000
00000000
00000000
00011000
00000000
00000000
00000000
00000010
00001000
00000001
00000000
00000100
00000000
,
00001000
00000000
00000000
00010000
00000000
00000000
00011000
00000000
00001000
00000000
00100000
00000000
01000000
00000000
10000000
00000000
,
00010000
00000000
00000000
10000000
01000000
00000000
00010000
00000000
00001000
00000100
00000000
00000000
00000001
00000000
00000000
00000000
,
00000010
00000000
00000000
00000001
00000100
00000000
00001000
00000000
00010000
01000000
00000000
00000000
10000000
00000000
01000000
00000000
,
00100000
00000000
00000000
00100000
00010000
00000000
10000000
00000000
01000000
00010000
00001000
00000000
00000100
00000000
00000001
00000000
,
00001000
00000000
00000000
00000010
00001000
00000000
00000001
00000000
00000100
00001000
00010000
00000000
01000000
00000000
10000000
00000000
,
00100000
00010000
00001000
01000000
00001000
00010000
00100000
00010000
,
00001000
00000010
00001000
00010000
00000100
00010000
00001000
00000010
,
00000001
00000100
00000001
00000100
00001000
00000100
00001000
00000100
00001000
00010000
00001000
00010000
01000000
00010000
01000000
10000000
,
00020000
00000000
00000000
00030000
00000000
00000000
00000000
00000000
,
00000000
00000000
10000000
00010000
01000000
00001000
00040000
00030000
,
00011000
00000000
00000000
00001000
00000100
00000000
00000000
00000100
00000001
00001000
00000001
00000000
00000010
00000000
00001000
00000000
,
00010000
00000000
00000000
00100000
01000000
00000000
00100000
00000000
10000000
00000000
00100000
00000000
00040000
00000000
00030000
00000000
,
00012000
00003000
00000000
00010000
01000000
00000000
00200000
01300000
10000000
00010000
20000000
30000000
00100000
00000000
00020000
00030000
,
00001000
00000000
00000000
00000010
00000001
00000000
00001000
00000000
00000100
00000000
00010000
00000000
00004000
00000000
00003000
00000000
,
00011000
00000000
00000000
00010000
01000000
00000000
00000000
01000000
10000000
00010000
10000000
00000000
00100000
00000000
00010000
00000000
,
00001000
00000000
00000000
00001000
00000010
00000000
00000001
00000000
00000010
00000000
00000100
00000000
00040000
00000000
00030000
00000000
,
00021000
00030000
00000000
00001000
00000100
00000000
00000002
00000103
00000010
00000100
00000002
00000003
00001000
00000000
00000020
00000030
,
00000100
00000000
00000000
00000100
00000010
00000000
00001000
00000000
00000100
00000000
00000000
00010000
00004000
00000000
00013000
00000000
,
00200010
00000001
00000010
00001000
,
00010000
00000000
01300000
10000000
20010000
00000000
30010000
00000000
,
01100000
00000000
10000000
01010000
00000000
00011000
00000000
00001010
,
00000000
00000000
00000001
00001000
00000100
00010000
00004000
00003000
,
00100020
10000000
00100000
00010000
,
00001000
00000000
00000130
00000001
00001002
00000000
00001003
00000000
,
00000110
00000000
00000000
00000001
00000010
00000000
00000200
00000300
00001000
00000100
00020000
00030000
00001000
00000000
00200000
00300000
,
10000000
00000000
00000000
10000000
00000000
00000000
10000000
00000000
00100000
00000000
00000000
00100000
01000000
00000000
00100000
00000000
,
00010000
10000000
00002000
00000000
00003000
00001000
00100000
00000010
,
00001000
00000001
00020000
00000000
00030000
00000000
00000100
00001000
,
00000100
01000000
00010000
01000000
00000100
00000000
00011000
00000000
,
01000100
00000100
00020000
00000000
00030000
00000000
00000000
00000000
,
00000010
00010000
00000001
00000000
00001000
00000010
00010000
00001000
,
00100000
00001000
10000000
00000000
00001000
00010000
00000100
00001000
,
00000100
01000000
00010000
01000000
00000010
00001000
00000010
00100000
,
00010000
00100000
11000000
00000000
00101000
00001000
00020020
00000000
,
00030030
00000000
00000001
00001000
00000100
00010000
00004000
00003000
,
02000200
00000000
03000300
02000200
00000000
03000300
02000200
03000300
00022000
00000000
00033000
00022000
00000000
00033000
00022000
00033000
,
00100020
10000000
01000000
00010000
,
00001000
00000000
00000130
00000001
00001002
00000000
00001003
00000000
,
00000110
00000000
00000001
00001100
00000000
00011000
00000000
00110000
,
00000000
00000000
10000000
01000000
00010000
00001000
00040000
00030000
,
00200010
00000001
00000100
00001000
,
00010000
00000000
01300000
10000000
20010000
00000000
30010000
00000000
,
01100000
00000000
10000000
00100000
01000000
00000000
00020000
00030000
10000000
01000000
00020000
00030000
00001000
00000000
00000200
00000300
,
00000001
00000000
00000000
00000001
00000000
00000000
00000001
00000000
00001000
00000000
00000000
00001000
00000100
00000000
00001000
00000000
,
00020000
00030000
00000000
00000000
00000000
00000000
00000000
00000000
,
01110000
00000000
00000000
00000000
;

//---------------dance-double - Telperion----------------
#NOTES:
     dance-double:
     :
     Hard:
     7:
     0.409,0.416,0.078,0.157,0.178,369.000,11.000,22.000,0.000,0.000,0.000,0.409,0.416,0.078,0.157,0.178,369.000,11.000,22.000,0.000,0.000,0.000:
00000000
00000000
00000000
00000000
,
00000000
00000000
00000000
00000000
,
00000000
00000000
00000000
00000000
,
00000000
00000000
00000000
00000000
,
00000000
00000000
00000000
00000000
,
00000000
00000000
00000000
00000000
,
00000000
00000000
00000000
00000000
,
00000000
00000000
00000000
00000000
,
00000000
00000000
00000000
00000000
,
00011000
00010000
01000000
10000000
,
00010000
00000000
10000000
00010000
01000000
00000000
00010000
00000000
,
10000000
00100000
00010000
00001000
,
00000010
00000000
00000001
00001000
00000010
00000000
00001000
00000001
,
00000010
00002000
00000000
00003000
00010000
00000000
01000000
00000000
,
10000000
00000000
00010000
10000000
00100000
00000000
01000000
00010000
,
00100000
00000000
00100000
00000000
00100000
01000000
10000000
01000000
,
00010000
00000000
00000000
00010000
00000000
00000000
00010000
00000000
00001000
00000000
00000000
00001000
00010000
00000000
00001000
00000000
,
00000100
00000001
00000100
00000010
00000100
00001000
00000100
00000001
,
00001000
00000100
00010000
00001000
00100000
00010000
10000000
00000000
,
01000000
00010000
01000000
00100000
01000000
10000000
00010000
10000000
,
00100000
00010000
00001000
00000100
00000010
00001000
00000001
00000000
,
00000010
00001000
00000010
00000100
00000010
00000001
00001000
00000001
,
00000100
00001000
00010000
01000000
00100000
01000000
00010000
00001000
,
00100000
02000000
10000000
00000000
03010000
01000000
10000000
01000000
,
00010000
00000000
00000000
00010000
00000000
00000000
00010000
00000000
00001000
00000000
00000000
00001000
00010000
00000000
00001000
00000000
,
00000200
00001000
00000010
00001000
,
00000302
00000000
00000010
00000000
00001000
00000000
00000103
00000001
,
00000010
00000000
00001000
00000000
00010000
01000000
10000000
00000000
,
00100000
00000000
00010000
00000000
00001000
00000100
00001000
00010000
,
02000000
00010000
00100000
00010000
,
23000000
00000000
00100000
00000000
00010000
00000000
31000000
00100000
,
00010000
00000000
10000000
00000000
00100000
00010000
00001000
00000010
,
00000001
00000000
00001000
00000000
00000001
00000000
00000100
00000001
,
00000010
00000100
00001000
00000010
00010000
00001000
01000000
00010000
,
00100000
01000000
10000000
01000000
00010000
01000000
10000000
00010000
,
10000000
00100000
00010000
00001000
00000100
00000001
00000010
00001000
,
00020000
00000000
00030000
00000000
,
00000000
00000000
00000000
00000000
,
00011000
00000000
00000000
00010000
00000100
00000000
00000000
00000100
00001000
00000000
00000000
00001000
00000001
00000000
00000000
00000001
,
00000100
00000000
00000000
00000100
00000010
00000000
00000000
00000010
00001000
00000000
00000100
00000000
00010000
00000000
00000000
00000000
,
00011000
00000000
00000000
00001000
00100000
00000000
00000000
00100000
01000000
00000000
00000000
01000000
10000000
00000000
00000000
10000000
,
00010000
00000000
00000000
00010000
01000000
00000000
00100000
00000000
01000000
00000000
00001000
00000000
00010000
00000000
00000000
00000000
,
00011000
00000000
00000000
00001000
00010000
00000000
00000000
00010000
01000000
00000000
00000000
01000000
10000000
00000000
00000000
10000000
,
00100000
00000000
00000000
00100000
01000000
00000000
00000000
01000000
00010000
00000000
01000000
00000000
00001000
00000000
00000000
00000000
,
00011000
00000000
00000000
00010000
00000100
00000000
00000000
00000100
00000010
00000000
00000000
00000010
00000001
00000000
00000000
00000001
,
00000100
00000000
00000000
00000100
00001000
00000000
00000100
00000000
00000010
00000000
00010000
00000000
00000010
00000000
00000000
00000000
,
00012000
00100000
01000000
00100000
,
00013000
00000000
01000000
20000000
00100000
00000000
31000000
00000000
,
10000000
00000000
00000000
10000000
01000000
00000000
00000000
01000000
00010000
00000000
00000000
00010000
00001000
00000000
00000000
00001000
,
00000100
00000000
00000000
00000100
00000010
00000000
00001000
00000000
00000010
00000000
00010000
00000000
00001000
00000000
00000000
00000000
,
00021000
00000010
00000100
00000010
,
00031000
00000000
00000100
00000002
00000010
00000000
00000103
00000000
,
00000001
00000000
00000000
00000001
00000100
00000000
00000000
00000100
00001000
00000000
00000000
00001000
00010000
00000000
00000000
00010000
,
01000000
00000000
00000000
10000000
00000000
00000000
01000000
00000000
00010000
00000000
00000000
00010000
00001000
00000000
00010000
00000000
,
00002000
00000100
00003000
00000100
,
00000002
00000000
00000010
00000000
00000003
00000000
00000010
00000100
,
00001000
00000000
00010000
01000000
00100000
00000000
01000000
00000000
,
00010000
00001000
00000100
00000000
00010000
00000000
00001000
00000000
,
00200000
00000000
01000000
00000000
00300000
00100000
01000000
00000000
,
20000000
00000000
00100000
00000000
30000000
00000000
00100000
01000000
,
00010000
00000000
00001000
00000100
00000010
00000000
00000001
00000000
,
00000010
00001000
00010000
00100000
10000000
00100000
00010000
00000000
,
00011000
00000000
00000000
00000000
,
00021000
00000000
00000000
00000100
00000000
00000000
00000100
00000000
00032000
00000000
00000000
01000000
00000000
00000000
01000000
00000000
,
00023000
00000100
00000010
00000100
,
00031000
00000000
00000100
00000002
00000010
00000000
00000103
00000000
,
00000001
00000000
00000000
00000001
00000100
00000000
00000000
00001000
00010000
00000000
00000000
00010000
01000000
00000000
00000000
10000000
,
00010000
00000000
00000000
00010000
01000000
00000000
00100000
00000000
01000000
00000000
00001000
00000000
00010000
00000000
00000000
00000000
,
00012000
01000000
00100000
01000000
,
00013000
00000000
01000000
20000000
00100000
00000000
31000000
00000000
,
10000000
00000000
00000000
01000000
00010000
00000000
00000000
00010000
00001000
00000000
00000000
00000100
00000001
00000000
00000000
00000001
,
00000010
00000000
00000000
00000001
00000000
00000000
00000010
00000000
00001000
00000000
00000000
00001000
00010000
00000000
00001000
00000000
,
02000000
03000000
00000000
00000000
00000000
00000000
00000000
00000000
,
00011000
00000000
00000000
00000000
;

//---------------dance-double - Telperion----------------
#NOTES:
     dance-double:
     :
     Easy:
     10:
     0.402,0.524,0.299,0.328,0.228,303.000,42.000,46.000,205.000,28.000,2.000,0.402,0.524,0.299,0.328,0.228,303.000,42.000,46.000,205.000,28.000,2.000: // measure 0
00000000
00000000
00000000
00000000
,  // measure 1
00000000
00000000
00000000
00000000
,  // measure 2
00000000
00000000
00000000
00000000
,  // measure 3
00000000
00000000
00000000
00000000
,  // measure 4
00000000
00000000
00000000
00000000
00000000
00000000
00000000
00000000
00000000
00000000
00000000
00000000
0000M000
00000000
000M0000
00M00000
,  // measure 5
0MMMMMMM
00M00000
000M0000
00000000
0000M000
00000000
00000000
00000000
00000000
00000000
00000000
00000000
00000000
00000000
00000000
00000000
,  // measure 6
00000000
00000000
00000000
00000000
,  // measure 7
00000000
00000000
00000000
00000000
,  // measure 8
00000000
00000000
00000000
00000000
,  // measure 9
10000000
01000000
00010000
00001000
,  // measure 10
00010000
00001000
00010000
00002000
,  // measure 11
01000000
00010000
00100000
00023000
00000010
00001000
00000002
00000003
,  // measure 12
00000100
00000100
00001000
00031000
,  // measure 13
01000000
00000000
00000000
01000000
00000100
00000000
00000000
00000100
01000000
00000000
00000000
00000000
01000000
00000000
00000000
00000100
,  // measure 14
01000000
00000000
00000000
01000000
00000100
00000000
00000000
00000100
01000000
00000000
00000000
00000000
01000000
00000000
00000000
00000000
,  // measure 15
00000100
00010000
00001000
00200000
,  // measure 16
00000010
00300020
00100000
00100030
,  // measure 17
00001000
0000M100
00010000
010M0000
00001000
0000M100
00010000
010M0000
,  // measure 18
00000010
000010M0
00100000
00M10000
00000010
000010M0
00100000
00M10000
,  // measure 19
00001000
0000M100
00010000
010M0000
00001000
0000M100
00010000
010M0000
,  // measure 20
00000010
000010M0
00100000
00M10000
00000100
00001M00
01000000
0M010000
,  // measure 21
00001000
00001M00
00010000
00M10000
00001000
00001M00
00010000
00M10000
,  // measure 22
00022000
00000000
00000M00
00000000
00000000
00000000
00M00000
00000000
00000000
00000000
00000M00
00000000
00033000
00000000
00M00000
00000M00
,  // measure 23
00011000
00000000
010MM100
00000000
00010000
00000100
00001100
00000100
,  // measure 24
0001M10M
00010000
00010000
00000000
00000110
00001000
00000110
00000000
,  // measure 25
00020200
00000000
00000000
0000000M
,  // measure 26
00000002
00000000
00000000
00000000
,  // measure 27
00030303
00000000
00000000
000M0M0M
00000000
00000000
00000000
00000000
,  // measure 28
00000101
00000000
00000000
00000000
00000000
00000000
00000M0M
00000000
00000110
00000000
00000000
00000000
00000000
00000000
00000000
00000010
,  // measure 29
00010000
00000000
00000000
00010000
00001000
00000000
00000000
00001000
00100000
00000000
00000000
00100000
01000000
00000000
00000000
00000000
,  // measure 30
00022000
00000000
00000000
00000000
00033000
00000000
00002000
00020000
,  // measure 31
00000000
00000000
00000000
00000010
00030000
00010000
00010000
00010000
,  // measure 32
00020000
00000000
00000000
00100000
00000000
00033000
00001000
01000000
,  // measure 33
00000100
00010000
00001000
01000000
00000100
00010000
00001000
00010000
,  // measure 34
00000200
02000000
00001000
00010000
,  // measure 35
00400000
00000040
00000000
00000000
00000000
00000000
00000000
00000000
00000000
00000000
00000000
00000000
00000000
00000000
00000000
00000000
,  // measure 36
03300330
00000000
00000000
00000000
,  // measure 37
00000000
00000000
M0000000
0M000000
0000000M
00000M00
000MM000
00000000
,  // measure 38
00100000
00000000
00000000
00100000
00000010
00000000
00000000
00000010
00010000
00000000
00000000
00010000
00001000
00000000
00000000
00001000
,  // measure 39
01000000
00000000
00000000
01000000
00000100
00000000
00000000
00000100
0001000M
00000000
0000000M
00010000
0000100M
00000000
00000000
00001000
,  // measure 40
M1000000
00000000
00000000
01000000
00000100
00000000
000M0000
00000100
10000000
00000000
0000M000
10000000
00000001
00000000
00000M00
00000001
,  // measure 41
00100000
00000000
00000000
00100000
0M000010
00000000
0M000000
00000010
M0010000
00000000
M0000000
00010000
M0001000
00000000
00000000
00000000
,  // measure 42
00M11M00
00000000
00000000
00010000
00000100
00000000
00000000
00000100
01000000
00000000
00000000
01000000
00001000
00000000
00000000
00001000
,  // measure 43
00010000
00000000
00000000
00010000
00000010
00000000
00000000
00000010
M0100000
00000000
M0000000
00100000
M0001000
00000000
00000000
00001000
,  // measure 44
0100000M
00000000
00000000
01000000
00000100
00000000
0000M000
00000100
10000000
00000000
000M0000
00000000
00000001
00000000
M0000000
00000000
,  // measure 45
00200020
00000000
0M000000
000M0000
0000M000
00000M00
0030003M
00000000
,  // measure 46
000M0100
010M0000
000M0010
001M0000
000M0100
010M0000
000M0010
000M1000
,  // measure 47
000M0001
00010000
0000010M
001000M0
00001M00
10000000
0002M000
02000000
,  // measure 48
10000000
00000000
00000000
10000000
00000000
10000000
00000000
00100000
,  // measure 49
03030000
01000100
00011000
01000100
,  // measure 50
M001100M
00000000
M000000M
00010000
M000100M
00000000
M000000M
00001000
M010000M
00000000
M000000M
00100000
M000010M
00000000
M000000M
00000100
,  // measure 51
M001000M
00000000
00000000
00010000
00M00010
00000000
000M0000
00000010
0200M000
00000000
00000000
00000000
0000020M
00000000
00000000
00000000
,  // measure 52
00011000
00000000
00000000
00101000
00000000
00010010
00000000
03000300
,  // measure 53
M0020200
00000000
00000000
M0000000
00000000
00000000
M0000000
00000000
0M030300
00000000
00000000
0M000000
00000000
00000000
0M000000
00000000
,  // measure 54
00M01201
00000000
00M00320
00001000
00M00000
00001000
00M00000
00001000
,  // measure 55
00M00130
00000000
00M00110
00000110
00M00110
00000000
00M01110
00000000
,  // measure 56
00M01011
00000000
00M01002
00000010
00M01000
00000103
00M00110
00000000
,  // measure 57
00M00120
00001000
00M00130
00000000
00M00000
00000000
00M00000
00000000
,  // measure 58
01M00100
00011000
01001000
00110000
,  // measure 59
00100000
00001000
00100000
00001000
00200000
00000000
00021000
00030000
,  // measure 60
02310000
23100000
30120000
02130000
,  // measure 61
03020000
02030000
00200000
00000020
,  // measure 62
M000100M
00000000
00000000
00000000
,  // measure 63
033M0M30
00000000
00000000
000M0M00
00000000
00000000
000M0M00
00000000
M000000M
00000000
00000000
M000000M
00000000
00000000
M000000M
00000000
,  // measure 64
00M10000
00000000
00M00000
00010000
00M01000
00000000
00M00000
00001000
01M00000
00000000
00M00000
01000000
00M00010
00000000
00M00000
00000010
,  // measure 65
00M10000
00000000
00000000
00010000
0000100M
00000000
000000M0
00001000
00100M00
00000000
00000000
00100000
0000M100
00000000
00000000
00000100
,  // measure 66
00M10000
00000000
00000000
00010000
00001000
00000000
00M00000
00001000
01000000
00000000
00M00000
01000000
00000100
00000000
00M00000
00000100
,  // measure 67
00010000
00000000
00000000
00010000
0M001000
00000000
0M000000
00001000
M0100000
00000000
M0000000
00000000
M0000010
00000000
00000000
00000000
,  // measure 68
0010M002
0000M000
0010M000
0000M000
0010M000
0000M000
0010M000
0000M000
,  // measure 69
0020M000
00000000
000M0000
00000M00
0000M000
00000000
0000M000
00000000
,  // measure 70
00000010
00000000
00000000
00000010
00000000
00000010
00000000
00300003
,  // measure 71
M0022000
00000000
00000000
M0000000
00000000
00000000
M0000000
00000000
0000000M
00000000
00000000
0000000M
00000000
00000000
0000000M
00000000
,  // measure 72
MMM30MMM
000M0000
00000000
00003000
,  // measure 73
MM2MM22M
00000000
00300330
00000000
;
