#TITLE:Comprachicos;
#SUBTITLE:;
#ARTIST:Pendulum;
#TITLETRANSLIT:;
#SUBTITLETRANSLIT:;
#ARTISTTRANSLIT:;
#GENRE:Drum 'n' Bass;
#CREDIT:Telperion;
#BANNER:Comprachicos-bn.png;
#BACKGROUND:Comprachicos-bg.png;
#LYRICSPATH:;
#CDTITLE:CD-title-ITG.png;
#MUSIC:Comprachicos.ogg;
#OFFSET:-0.537;
#SAMPLESTART:55.709;
#SAMPLELENGTH:26.897;
#SELECTABLE:YES;
#DISPLAYBPM:87.000:174.000;
#BPMS:0.000=87.000,80.000=174.000,172.000=87.000,206.000=174.000;
#STOPS:;
#BGCHANGES:;
#KEYSOUNDS:;

//---------------dance-single - Telperion----------------
#NOTES:
     dance-single:
     Telperion:
     Challenge:
     11:
     0.734,0.783,0.296,0.243,0.768:
0000
0000
0000
0000
,
0000
0000
0000
0000
,
0000
0000
0000
0000
,
0000
0000
0000
0000
,
0001
0100
0100
0100
0001
0000
1000
0000
1000
0000
0100
0000
0200
0000
0010
0000
,
1300
0100
0100
0100
0020
0000
0000
0000
0030
0000
0000
0010
0002
0000
0000
0000
,
1003
0100
0100
0100
1000
0000
0001
0000
0001
0000
0100
0000
0200
0000
1000
0000
,
0310
1000
1000
1000
0002
0000
0000
0000
0000
0000
1000
0000
0023
0000
0100
0000
,
0031
0100
0001
0100
0010
0000
0010
0000
1000
0100
1000
0100
0010
0000
0010
0000
,
0001
0100
0010
0100
0010
0010
0001
0100
0010
0010
0100
1000
0010
0010
0010
0000
,
2000
0000
0000
0000
0000
0000
0000
0000
3100
0000
0000
0000
0000
0000
0000
0000
0002
0000
0000
0000
0000
0000
0000
0000
0103
0000
0000
0000
0000
0000
0000
0000
0010
0000
0000
0000
0001
0000
0000
0000
0100
0000
0000
0000
0000
0000
0000
0000
0020
0000
0000
0000
0000
0000
0000
0000
0200
0000
0000
0000
0000
0000
0000
0300
,
1030
0100
0010
0100
0010
0010
0100
0001
0010
0010
1000
0100
0020
0000
0000
0000
,
0031
0000
0001
0000
0100
1000
0100
0000
0010
0100
0010
0100
0001
0010
1000
0000
,
0010
0000
0100
0000
0010
0010
1000
0001
0010
0010
1000
0100
0010
0010
0010
0000
,
0001
0000
1000
0000
1001
0000
0100
0000
0010
0100
0010
0000
0210
0000
2300
0000
,
3001
0000
0100
0000
0010
0010
0001
1000
0010
0010
0001
0100
0010
0010
0010
0010
,
2200
0000
0000
0000
0000
0000
0000
0000
030M
0000
0000
30M0
0000
0000
0M00
0000
,
M000
0000
0000
00M0
0000
0000
000M
0000
0M00
0000
0000
00M0
0000
0000
000M
0000
,
0M00
0000
0000
M000
0000
0000
000M
0000
M000
0000
0M00
000M
0000
00M0
0M00
0000
,
M000
0000
0000
0000
0000
0000
0000
0000
00M0
0000
0000
0000
0M00
0000
0000
0000
M00M
0000
0000
0000
0000
0000
0000
0000
0000
0000
0000
0000
0000
0000
0000
0000
1000
0000
0000
0000
0100
0000
0000
0000
0010
0000
0000
0000
0001
0000
0000
0000
2000
0000
0000
0000
0001
0000
0000
0000
0002
0000
0000
0000
0000
0000
0000
3003
,
1001
0000
0001
0000
0100
0000
0100
0001
0100
0001
0100
0000
0010
0000
0010
1000
,
0001
0000
0001
0000
0100
0000
0100
0001
0100
0001
0100
0000
0010
0000
0010
1000
,
0100
0000
0100
0000
0010
0000
0001
0010
0100
1000
0100
0000
0100
0000
1000
0001
,
0400
1000
0000
1301
,
0001
0000
1000
0000
0100
0000
0100
1000
0100
1000
0001
0000
0100
0001
0010
0100
,
1000
0000
1000
0000
0100
0000
0100
1000
0100
1000
0001
0000
0100
0001
0100
0010
,
1000
0000
0001
0000
0041
0000
0000
0001
0030
0000
1040
0000
0000
0000
0030
0000
,
0001
0010
1000
0001
0100
0010
1000
0010
,
0001
0000
0001
0000
0100
0000
0100
0001
1000
0010
1000
0000
0100
1000
0100
0010
,
0001
0000
0001
0000
0100
0000
0100
0001
1000
0001
1000
0000
0100
0010
0001
0010
,
0001
0001
0001
1001
0100
0010
0201
0000
,
0340
0001
0000
1031
,
1000
0000
1000
0000
1000
0001
0100
0001
1000
0010
0100
0000
0100
0000
0001
0100
,
0001
0000
0001
0000
0001
0010
0001
1000
0100
0010
0001
0000
0100
0000
0001
0100
,
0001
0000
1000
0000
1040
0000
0000
1000
0030
0000
0041
0000
0000
0000
0000
0000
,
0030
0000
2101
0000
3001
0001
0100
1000
,
0100
0001
0101
0001
0010
1100
0100
0001
,
0M0M
0000
0112
0000
1003
1100
0001
0100
,
0010
0000
0010
0000
0110
0000
1000
0000
0100
0000
0100
0000
0010
0100
0010
0100
,
00M0
0M00
0000
0000
1102
0000
0000
0000
1003
0100
1000
0100
1000
0000
1000
0001
,
0100
0010
0100
0010
0100
0000
0100
0001
1000
0100
1000
0001
0100
0001
1000
0100
,
M00M
0000
0000
0000
2011
0000
0000
0000
3001
0010
0001
0010
0001
1000
0100
0010
,
0001
0100
0010
1000
0010
0000
0010
0000
0100
0000
0100
0000
0100
0000
0200
0000
,
M00M
0000
0310
0100
0001
0100
0010
0100
1000
0100
0001
0010
0100
0100
0100
0200
,
0000
0000
0310
0100
0001
0100
0010
0100
1000
0100
0010
0001
1000
1000
1000
2000
,
0000
0000
3010
0010
0100
0100
0001
0010
0100
0001
0100
1000
0010
0010
0010
0020
,
0000
0000
0031
0002
1003
1000
1000
1000
0100
1001
0000
1001
0100
0010
0010
2002
,
0000
0000
0000
0000
0000
0000
0000
3003
1001
0000
0000
0000
0000
0000
0000
0000
0100
0000
0000
0000
1000
0000
0000
0000
0100
0000
0000
0000
0000
0000
0000
0000
0010
0000
0000
0000
0100
0000
0000
0000
1000
0000
0000
0000
0000
0000
0000
0000
0010
0000
0000
0000
1000
0000
0000
0000
0001
0000
0000
0000
0100
0000
0000
0000
,
0101
0000
1010
0000
0010
0010
0010
0000
0100
0001
0010
0100
1000
0000
0100
1000
,
1100
0000
0011
0000
0001
0010
0100
0010
0001
1000
0100
0001
0100
0010
1000
0010
,
0002
0000
0000
0000
0000
0000
0000
0000
0000
0000
0000
0000
0000
0000
0000
0000
0000
0000
0000
0000
0000
0000
0000
0000
0203
0000
0000
0000
0000
0000
0000
0000
0000
0000
0000
0000
0000
0000
0000
0000
0000
0000
0000
0000
0000
0000
0000
0000
0310
0000
0000
0000
0000
0000
0000
0000
0000
0000
0000
0000
0100
0000
0000
0000
0000
0000
0000
0000
0000
0000
0000
0000
0001
0000
0000
0000
0000
0000
0000
0000
0000
0000
0000
0000
0100
0000
0000
0000
0000
0000
0000
0000
0000
0000
0000
0000
0001
0000
0000
0000
0000
0000
0000
0000
0000
0000
0000
0000
1200
0000
0000
0000
0000
0000
0000
0000
0000
0000
0000
0000
0000
0000
0000
0000
0000
0000
0000
0000
0000
0000
0000
0300
1100
0000
0000
0000
0000
0000
0000
0000
0000
0000
0000
0000
0001
0000
0000
0000
0000
0000
0000
0000
0000
0000
0000
0000
0010
0000
0000
0000
0000
0000
0000
0000
0000
0000
0000
0000
0011
0000
0000
0000
0000
0000
0000
0000
0000
0000
0000
0000
1004
0000
0000
0000
0000
0000
0000
0000
0000
0000
0000
0000
,
M000
00M0
0M00
00M0
M000
0M00
00M3
000M
MM01
0000
1000
0000
0100
0000
0100
1000
,
0001
1000
0001
0000
1000
0100
0010
0001
0100
0000
0100
0000
0001
0000
0001
1000
,
0001
1000
0100
0000
0100
0010
0001
1000
0001
0000
0001
0000
0410
0000
0000
0001
,
0300
0104
0000
0003
0010
0100
M001
0010
,
100M
0000
0100
0000
0010
0000
0000
0000
1001
0000
1000
0000
0001
0000
0001
0010
,
0100
0010
0100
0000
0100
1000
0010
0100
0001
0000
0001
0000
0010
0000
0010
0001
,
0010
0001
0010
0000
0100
1000
0010
0100
0001
0000
0001
0000
1000
0010
1000
0010
,
0100
0001
1000
0001
0010
0001
0010
0000
1004
0000
0000
0000
0010
0000
0000
0000
,
0000
0000
0000
0000
0103
0000
0000
0000
1010
0000
0010
0000
1000
0000
1000
0100
,
1000
0100
0010
0000
0001
0100
0010
1000
0001
0000
0001
0000
1000
0000
0010
0100
,
0010
0100
0001
0000
0001
0010
0100
1000
0004
0000
0000
0000
0003
0000
4100
0000
,
0000
3010
0011
0000
0001
0010
1000
0001
,
0100
0000
1000
0000
0001
0000
0100
0000
0010
0000
0010
0000
1000
0010
1000
0010
,
0100
0000
0001
0010
0001
0010
0100
0000
0010
0000
0010
0000
0001
0100
0010
1000
,
0010
0000
1000
0100
0010
0001
0010
0000
0001
0000
1000
0000
1000
0000
0001
0010
,
0001
0010
0100
1000
0001
0010
0100
1000
0010
0000
0000
0000
0000
0000
0000
0000
;
