#TITLE:Arabian Rave Night;
#SUBTITLE:;
#ARTIST:dj MAX STEROID;
#TITLETRANSLIT:;
#SUBTITLETRANSLIT:;
#ARTISTTRANSLIT:;
#GENRE:;
#CREDIT:Telperion;
#BANNER:Arabian Rave Night-bn.png;
#BACKGROUND:Arabian Rave Night-bg.png;
#LYRICSPATH:;
#CDTITLE:;
#MUSIC:Arabian Rave Night.mp3;
#OFFSET:1.265;
#SAMPLESTART:40.068;
#SAMPLELENGTH:12.000;
#SELECTABLE:YES;
#BPMS:0.000=180.000;
#STOPS:;
#BGCHANGES:3.792=Arabian Rave Night.avi=1.000=0=0=1=Centered====,
99999=-nosongbg-=1.000=0=0=0 // don't automatically add -songbackground-
;
#KEYSOUNDS:;

//---------------dance-double - Tel-Nomad----------------
#NOTES:
     dance-double:
     Tel-Nomad:
     Hard:
     11:
     0.886,0.813,0.153,0.207,0.360:
00000000
00000000
00000000
00000000
,
00000000
00000000
00000000
00000000
,
00000000
00000000
00000000
00000000
,
00000000
00000000
00000000
00000000
,
00000000
00000000
00000000
00000000
,
00000000
00000000
00000000
00000000
,
00000000
00000000
00000000
10000000
,
00000000
00110000
11000000
00000000
,
00100000
00000000
00000000
00000000
00010000
00000000
00001000
00010000
00001000
00000000
00000000
00000000
00000100
00000000
00000000
00000000
,
00000010
00000000
00001000
00000010
00001000
00000000
00000010
00000000
00000100
00000000
00000001
00000000
00000010
00000000
00001000
00000000
,
00010000
00001000
00000100
00000100
00000000
00000010
00000010
00001000
,
00000100
00001000
00000001
00000001
00000000
00000010
00000100
00010000
,
00001000
00000100
00000100
00001000
00010000
00010000
00001000
00010000
,
01000000
00000000
01000000
00000000
00010000
00000000
01000000
00000000
10000000
01000000
10000000
01000000
20000000
00000000
00000000
00000000
,
30001000
00000100
00000010
00000010
00000000
00001000
00001000
00000100
,
00000010
00000001
00000100
00000100
00000010
00001000
00000010
00010000
,
00001000
00000000
00000000
00001000
00010000
00000000
00000000
00010000
00001000
00000000
00100000
00000000
00010000
00000000
01000000
00000000
,
00010000
00100000
01000000
10000000
00100000
00001000
00000010
00000002
,
00000010
00000000
00000010
00000000
00000013
00000010
00001000
00000100
,
00000001
00000100
00001000
00001000
00000000
00000001
00000001
00000010
,
00001000
00000010
00000100
00000100
00001000
00001000
00010000
00100000
,
01000000
00000000
00100000
00000000
01000000
00000000
10000000
00000000
00100000
01000000
00100000
01000000
00010000
01000000
00010000
01000000
,
00100000
00000000
10000000
10100000
00000000
10000000
01000000
00100000
,
00110000
00000000
01000000
00101000
00000000
00010000
01000000
00100000
,
00110000
00000000
10000000
01000000
01010000
00000000
10000000
00100000
,
00110000
00000000
00000000
10100000
00000000
00000000
01010000
00000000
00000000
11000000
00000000
00000000
00110000
00000000
10000000
00000000
,
10000000
01000000
00010000
00001000
00000100
00000010
00010000
00000100
,
00000001
00000100
00000010
00000001
00000100
00001000
00010000
01000000
,
00100000
00010000
00002000
00000000
01000000
00000000
00000100
00000000
,
00003010
00000000
00000010
00000001
00000010
00000000
00000100
00000001
,
00000001
00000100
00001000
00010000
01000000
00100000
00010000
10000000
,
01000000
00100000
00010000
00001000
00000010
00000100
00000001
00001000
,
00000001
00000010
00000100
00010000
00001000
00010000
00000100
00000010
,
00000002
00000000
00000100
00000000
00000103
00000000
00000100
00000001
,
00000001
00000010
00001000
00010000
00100000
10000000
01000000
00100000
,
00010000
10000000
01000000
00010000
00001000
00000100
00000001
00000010
,
00000100
00001000
00000001
00000010
00001000
00010000
00100000
10000000
,
01000000
00100000
10000000
10000000
00000000
00010000
00010000
01000000
,
10000000
00100000
00010000
00001000
00000100
00000001
00000010
00000100
,
00010000
00001000
00000100
00000001
00000010
00001000
00010000
01000000
,
10000000
00100000
00010000
00001000
00000100
00000001
00000010
00001000
,
00011000
00000000
00000000
00000000
00000000
00000000
00000000
00000000
00001000
00010000
00001000
00010000
00000010
00001000
00000010
00001000
,
00000100
00000000
00000010
00000000
00000001
00000010
00000001
00000000
00000000
00000000
00001000
00000000
00000100
00000000
00001000
00000100
,
00000000
00000000
00010000
00000000
00001000
00010000
00000000
00000100
00000000
00001000
00000100
00000000
00000001
00000000
00000100
00001000
,
00000000
00000000
00000010
00000000
00000100
00001000
00000100
00000000
00000000
00000000
00000010
00000000
00001000
00000000
00010000
00001000
,
00000000
00000000
00010000
00000000
00100000
00010000
00000000
01000000
00000000
00100000
01000000
00000000
00010000
00000000
00100000
01000000
,
00000000
00000000
10000000
00000000
00010000
10000000
00010000
00000000
00000000
00000000
00100000
00000000
01000000
00000000
00100000
01000000
,
00000000
00000000
00100000
00000000
00010000
10000000
00000000
01000000
00000000
00010000
00001000
00000000
00010000
00000000
00001000
00000100
,
00000000
00000000
00001000
00000000
00000100
00000010
00000100
00000000
00000000
00000000
00000001
00000000
00001000
00000000
00000001
00001000
,
00000001
00000010
00001000
00010000
00100000
20000000
00010000
00000000
00000000
30000000
00000000
00000000
,
00020000
00030000
00020000
10030000
00020000
01000000
00000000
01030000
,
00200000
00000000
00310000
00000000
00002000
00000000
00013000
00000000
00000000
00000000
00001000
00000000
00010000
00000000
00000100
00001000
,
00000100
00000000
00010000
00000000
00002000
00000000
00003100
00000000
00001000
00000000
00010000
01000000
00010000
00000000
10000000
00000000
,
00100000
00000000
00010000
00000000
01000000
00000000
00010000
01000000
00010000
00000000
01000000
00000000
00100000
00000000
00010000
00000000
,
20000000
31000000
20000000
31000000
00200000
01000000
00000000
01300000
,
00010000
00000000
00100000
00010000
00100000
00000000
00010000
00000000
10000000
00000000
01000000
00000000
00100000
00000000
01000000
00100000
,
00020000
10000000
00000000
20030000
30100000
00010000
00001000
00000010
,
00002000
10000000
00000000
10003000
00010000
00100000
00010000
01000000
,
10000000
00000000
00000000
00000000
00000000
00000000
00000000
00000000
00000000
00000000
00000000
01000000
00010000
00000000
00001000
00000000
,
00000010
00000000
00000001
00000000
00000000
00000000
00000000
00000000
00000000
00000000
00000000
00010000
00001000
00000000
00000010
00000000
,
00010000
00000000
00001000
00000000
00001000
00000000
00010000
01000000
00010000
00000000
00001000
00000000
00000100
00000000
00000001
00000000
,
00000010
00000000
00000001
00000000
00000001
00000000
00000010
00000100
00001000
00000000
00000001
00000000
00000100
00001000
00000100
00000000
,
00000001
00000000
00000010
00000000
00001000
00000000
00010000
00000000
01000000
00000000
10000000
00000000
00100000
10000000
00100000
10000000
,
01000000
00100000
01000000
00100000
00010000
00000000
10000000
00000000
01000000
00000000
00100000
00000000
00100000
00000000
00010000
00000000
,
00010000
10000000
01000000
00010000
00001000
00000100
00000001
00000010
,
00000100
00000000
00010000
00000000
00001000
00000000
00000100
00000000
00000010
00001000
00000010
00001000
00000100
00000010
00000100
00000010
,
00000001
00000010
00001000
00010000
00000001
00001000
00000001
00000001
,
00000010
00001000
00010000
00100000
00010000
00010000
00100000
00010000
,
00001000
10000000
00010000
01000000
00001000
00010000
00000010
00001000
,
00000001
00000000
00000010
00000000
00000100
00000000
00000010
00000000
00000001
00000010
00000001
00000100
00000010
00000100
00000001
00000010
,
00000002
00001000
00000000
00001003
00000010
00000100
00000010
00000100
,
00000001
00000000
00000010
00000000
00000100
00000000
00010000
00000000
00000100
00001000
00000100
00000000
00010000
00001000
00010000
00000000
,
00002000
00103000
00000000
00100000
10000000
00100000
00010000
10000000
,
00100000
00000000
00001000
00000000
00000010
00000000
00000001
00000000
00000010
00000100
00000010
00000100
00001000
00000100
00001000
00000100
,
00000002
00000100
00000000
00000103
00000010
00000100
00001000
00000100
,
00000002
00000000
00000010
00000000
00000023
00000000
00000000
00000000
00000100
00000000
00000130
00000000
00001000
00000000
00000100
00001000
,
00000100
00001000
00000010
00000100
00001000
00010000
00000000
01000000
,
01000000
10000000
10000000
00100000
00100000
01000000
01000000
00010000
,
10000000
01000000
00010000
00001000
00000100
00000001
00000010
00001000
,
00010000
00001000
00000100
00000010
00001000
00010000
01000000
00100000
,
00010000
00001000
00010000
00100000
10000000
00100000
00010000
00001000
,
00000100
00000000
00000010
00000000
00000001
00000000
00001000
00000000
00000100
00000000
00000000
00000001
00000010
00000000
00001000
00000000
,
00010000
01000000
00100000
00010000
00001000
00000010
00000100
00001000
,
00000001
00000010
00001000
00010000
01000000
10000000
00010000
00100000
,
01000000
00000000
00000000
00000000
00010000
00100000
01000000
10000000
01000000
00000000
00000000
00000000
00100000
00001000
00010000
00000100
,
00001000
00000000
00000000
00000000
00000001
00000010
00000100
00001000
00000001
00000000
00000100
00000000
00000110
00000000
00000001
00000000
,
00000011
00000000
00000000
00000000
00000000
00000000
00000000
00000000
00000000
00000000
00000000
00000010
00001000
00000000
00010000
00000000
,
00100000
00000000
10000000
00000000
00000000
00000000
00000000
00000000
00000000
00000000
00000000
01000000
00010000
00000000
00001000
00000000
,
00000100
00000001
00000010
00000100
00001000
00010000
00100000
01000000
,
10000000
00000000
00000000
00000000
01100000
00000000
00000000
00000000
10010000
00000000
00000000
00000000
00100000
01000000
00010000
00001000
,
00000200
00000300
00000000
00000000
;

//---------------dance-double - Tel-Dervish----------------
#NOTES:
     dance-double:
     Tel-Dervish:
     Challenge:
     11:
     0.827,0.934,0.180,0.153,0.288:
00000000
00000000
00000000
00000000
,
00000000
00000000
00000000
00000000
,
00000000
00000000
00000000
00000000
,
00000000
00000000
00000000
00000000
,
00000000
00000000
00000000
00000000
,
00000000
00000000
00000000
00000000
,
00000000
00000000
00000000
10000000
,
00000000
00110000
11000000
00000000
,
00100000
00000000
00000000
00000000
00010000
00000000
00001000
00010000
00001000
00000000
00000000
00000000
00010000
00000000
00000000
00000000
,
00001000
00000010
00000100
00001000
00000010
00000001
00001000
00000100
,
00000010
00001000
00000010
00000010
00000000
00010000
00010000
00001000
,
00000100
00000001
00000010
00000010
00000000
00000001
00000100
00001000
,
00010000
00000010
00010000
00001000
01000000
00001000
00010000
00001000
,
00100000
00001000
00010000
00001000
01000000
00100000
00010000
01000000
,
00100000
00010000
10000000
10000000
00000000
00010000
00100000
10000000
,
00010000
01000000
10000000
00100000
02000000
10000000
13000000
01000000
,
00010000
00100000
10000000
00010000
01000000
00100000
00001000
00010000
,
00100000
01000000
00010000
00100000
10000000
01000000
00010000
00100000
,
01000000
00010000
00001000
00001000
00000000
00100000
00100000
00010000
,
00001000
00000100
00001000
00010000
00000000
00000010
00000100
00001000
,
00000001
00000100
00000010
00010000
00000100
00001000
00000010
00000100
,
00001000
00010000
00001000
00000100
00000001
00000010
00001000
00000100
,
00000010
00000000
00001000
00001010
00000000
00000100
00000010
00000001
,
00000100
00000000
00001000
00001100
00000000
00000100
00000001
00000010
,
00001010
00000000
00000001
00000100
00001100
00000000
00000001
00000010
,
00001010
00000000
00000000
00000011
00000000
00000000
00001100
00000000
00000000
00000101
00000000
00000000
00001010
00000000
00000001
00000000
,
00001000
00000010
00000100
00001000
00000001
00000100
00000010
00000001
,
00000100
00001000
00000010
00000100
00010000
00001000
01000000
00100000
,
00001000
01000000
00100000
00010000
10000000
00100000
01000000
10000000
,
00100000
00100000
00100000
00100000
,
00010000
00000000
00100000
00010000
00100000
00000000
10000000
00000000
01000000
00000000
00100000
00000000
10000000
00000000
00010000
00000000
,
00100000
01000000
00001000
00010000
00000100
00001000
00010000
00000100
,
00000010
00001000
00000100
00000001
00000010
00000100
00000001
00001000
,
00000100
00000100
00000100
00000100
,
00000001
00000010
00010000
00000100
00000010
00010000
01000000
00001000
,
00100000
01000000
00010000
00100000
10000000
01000000
00001000
00001000
,
00100000
01000000
00010000
00100000
01000000
00001000
00100000
00010000
,
00000100
00000010
00002000
00000001
00003000
00000002
00001000
00000003
,
00001000
00000100
00000010
00000001
00000100
00001000
00000010
00000100
,
00010000
00100000
00001000
01000000
00100000
00010000
01000000
10000000
,
00010000
00001000
00010000
10000000
00100000
00001000
01000000
10000000
,
00010000
00000000
00000000
00000000
00000000
00000000
00000000
00000000
10000000
01000000
10000000
01000000
00100000
10000000
00100000
10000000
,
01000000
00000000
00000000
00000000
00100000
00010000
00100000
00000000
00000000
00000000
01000000
00000000
10000000
00000000
00010000
10000000
,
00000000
00000000
01000000
00000000
00100000
00010000
00000000
01000000
00000000
00100000
00010000
00000000
00001000
00000000
00010000
00100000
,
00000000
00000000
00010000
00000000
00001000
00010000
00001000
00000000
00000000
00000000
00010000
00000000
00000100
00000000
00001000
00010000
,
00000000
00000000
00001000
00000000
00000100
00000010
00000000
00000100
00000000
00001000
00000100
00000000
00000001
00000000
00000100
00000001
,
00000000
00000000
00000100
00000000
00001000
00000100
00001000
00000000
00000000
00000000
00000010
00000000
00000100
00000000
00001000
00000100
,
00001000
00000000
00000100
00000000
00000001
00000010
00000000
00001000
00000000
00000010
00000001
00000000
00000100
00000000
00000010
00000100
,
00000010
00000000
00000001
00000000
00000010
00000001
00000010
00000000
00000100
00000000
00000001
00000000
00000010
00000000
00000100
00000000
,
00010000
00000010
00000100
00010000
00000010
00001000
00020000
00000000
00000000
00030000
00000000
00000000
,
00001000
00001000
00020200
00030000
,
00001300
00000220
00000330
00000110
,
00001000
00001001
00000021
00000100
,
00000130
00001010
00000100
00000011
,
00001000
00002000
00003001
00000100
,
00000200
00001300
00020000
00031000
,
00001000
00000010
00000000
00000001
00000010
00001000
00000010
00000001
,
00000100
00001000
00000000
00010000
01000000
10000000
01000000
00010000
,
01000000
00000000
00000000
00000000
00000000
00000000
00000000
00000000
00000000
00000000
00000000
10000000
00100000
00000000
00010000
00000000
,
01000000
00000000
00100000
00000000
00000000
00000000
00000000
00000000
00000000
00000000
00000000
00010000
01000000
00000000
00100000
00000000
,
00010000
00000000
00001000
00000000
00001000
00000000
00010000
00001000
00010000
00000000
00001000
00000000
00000100
00000000
00001000
00000000
,
00010000
00001000
00010000
00000000
01000000
00010000
01000000
00000000
10000000
00100000
01000000
00010000
00100000
01000000
10000000
00100000
,
01000000
00000000
10000000
00000000
01000000
00000000
00010000
00000000
01000000
00000000
00100000
00000000
00010000
00001000
00010000
00001000
,
00010000
00100000
00010000
00100000
00010000
00000000
00001000
00000000
00100000
00000000
01000000
00000000
10000000
00000000
01000000
00000000
,
00010000
00000000
01000000
10000000
00000000
01000000
10000000
00010000
,
00100000
00000000
00000000
00000000
00100000
00000000
00000000
00000000
01000000
00100000
01000000
00100000
00010000
01000000
00010000
01000000
,
00100000
00010000
00001000
00010000
00000100
00001000
00010000
01000000
,
00100000
00010000
00100000
10000000
01000000
10000000
00100000
00020000
,
00000000
00000000
00230000
00000000
10300000
00110000
00000000
10000000
,
10100000
00000000
00000000
00000000
01000000
00000000
00000000
00000000
00100000
00010000
01000000
00100000
01000000
00010000
00100000
00010000
,
01000000
10000000
01000000
00010000
01000000
00100000
01000000
10000000
,
02000000
00010000
10000000
03010000
,
20000000
00000000
30010000
00100000
01000000
00000000
01000000
00000000
,
00010000
00000000
00001000
00000000
00000100
00000000
00010000
00000000
00001000
00000000
00000100
00001000
00000100
00001000
00000100
00001000
,
00000100
00000000
00000100
00000010
00000001
00000100
00000010
00000100
,
00000000
00010000
00010000
00000100
00000001
00000010
00000010
00000001
,
00000100
00000010
00001000
00000100
00010000
00001000
00000100
00000100
,
00000010
00001000
00001000
00000100
00000100
00010000
00010000
00001000
,
00001000
00000100
00000010
00001000
00000100
00000001
00000010
00010000
,
00000100
00000010
00001000
00010000
00000100
00001000
00010000
01000000
,
00001000
00100000
00010000
00001000
00100000
01000000
00010000
00100000
,
01000000
00000000
00010000
00000000
10000000
00000000
01000000
00000000
00100000
00000000
00000000
10000000
01000000
00000000
00100000
00000000
,
00010000
01000000
10000000
00100000
00010000
01000000
00100000
00001000
,
00000100
00010000
00000010
00000100
00001000
00000010
00000001
00001000
,
00000100
00000000
00000000
00000000
00000010
00000100
00000010
00000001
00000010
00000000
00000000
00000000
00000100
00001000
00000010
00000100
,
00000010
00001000
00000010
00000100
00000010
00000001
00000100
00000010
,
00000001
00000000
00000000
00000000
00000000
00000000
00000000
00000000
00000000
00000000
00000000
00000001
00000100
00000000
00001000
00000000
,
00010000
00000000
01000000
00000000
00000000
00000000
00000000
00000000
00000000
00000000
00000000
00010000
00001000
00000000
00010000
00000000
,
00100000
10000000
01000000
00010000
00100000
10000000
01000000
00010000
,
00100000
00000000
10000000
00000000
01000000
00000000
00010000
00000000
00001000
00000000
00000100
00000000
00000001
00000010
00000100
00010000
,
00002000
00003000
00000000
00000000
;
