#TITLE:Almagest (IIDX ver.);
#SUBTITLE:;
#ARTIST:Galdeira;
#TITLETRANSLIT:;
#SUBTITLETRANSLIT:;
#ARTISTTRANSLIT:;
#GENRE:;
#CREDIT:Telperion;
#BANNER:Almagest-bn.png;
#BACKGROUND:Almagest-bg.png;
#LYRICSPATH:;
#CDTITLE:;
#MUSIC:Almagest.mp3;
#OFFSET:-3.190;
#SAMPLESTART:26.110;
#SAMPLELENGTH:13.482;
#SELECTABLE:YES;
#BPMS:0.000=178.000;
#STOPS:38.375=0.084
,38.625=0.084
;
#BGCHANGES:;
#KEYSOUNDS:;

//---------------dance-single - ----------------
#NOTES:
     dance-single:
     :
     Challenge:
     13:
     1.000,0.000,0.448,0.528,0.952:
0000
0000
0000
0000
,
0000
0000
0000
0000
,
0000
0000
0000
0000
,
0000
0000
0000
0000
,
1000
0001
0100
0010
1000
0001
0100
0010
,
1000
0100
0010
0001
1000
0100
0010
0001
,
1000
0001
0010
0001
1000
0001
0010
0001
1000
0100
0010
0100
1000
0100
0010
0100
,
1000
0100
0010
0001
0100
0010
1000
0100
1000
0001
0100
0010
0100
0001
1000
0010
,
0100
1000
0100
0001
1000
0100
0001
0100
0010
1000
0010
0001
0100
1000
0100
0001
,
1000
0100
0010
0001
0010
0100
1000
0001
1000
0101
1100
0202
0000
0000
0303
0000
,
2000
0101
0011
3101
,
0002
1100
1010
1103
,
0020
1100
0101
1130
,
0200
0000
1010
0000
0311
0000
0101
1000
,
0010
0010
0001
0010
1000
1000
0010
1000
,
0100
0100
0001
0100
1000
1000
0100
0010
,
0001
0100
0010
1000
0100
0100
0100
1001
,
0110
0000
0000
0000
1010
0000
0010
0001
0010
0000
0000
0000
0101
0000
1100
0000
,
0010
0001
0100
0100
1000
1000
0010
0001
,
0010
0100
1000
1000
0010
0010
0001
1000
,
0001
0100
1000
0100
0001
0001
1200
M000
,
0310
0000
0MM0
0000
1001
0000
1000
0100
1000
0100
1000
0100
0010
0001
2000
0000
,
0010
0200
0310
0002
3010
0103
0010
2000
,
0010
0002
0013
0200
0310
3001
0010
0200
,
0010
0001
1300
0200
1000
0001
0310
2002
,
0000
0000
3003
0000
0000
0000
1000
0001
0010
0001
0010
0100
1000
0010
0200
0000
,
0000
0000
2000
0000
0000
3300
MM00
0011
,
0011
0001
1000
1000
0100
0001
1000
0010
,
0010
0000
M000
0010
0001
0100
1000
0000
0100
0010
0200
0000
0300
0000
1010
0000
,
1010
0000
0001
0000
1000
0000
1000
0100
1000
0000
0001
0000
0100
0000
2200
0000
,
3300
0000
0001
0010
0001
00M0
1000
0100
0010
0001
0100
0000
1000
0000
1100
0000
,
1100
0000
0010
0000
0010
0000
0010
0000
1000
0000
0100
0000
1000
0000
0010
0001
,
0010
0000
0000
0001
0000
0000
0010
0000
0000
0000
0000
0000
00M0
0000
0000
0000
0000
0000
2000
0000
0000
0000
0000
0000
3010
0000
0000
0001
0000
0000
0010
0000
0000
0000
0000
0000
1000
0000
0100
0000
0010
0000
0001
0000
0000
0000
0000
0000
,
0M00
0000
0100
0000
0100
0000
1000
0100
0010
0100
1000
0000
0010
0100
0020
0000
,
0000
2000
0000
0002
0000
3133
MM0M
1010
,
0011
0000
1000
0001
0010
0100
1000
0100
0010
0100
1000
0100
0010
0001
0100
0010
,
1000
0010
0100
1000
0100
0010
1000
0100
0010
0001
0100
0010
0100
0001
0011
0000
,
1010
0000
0001
0010
0001
0100
0010
1000
0100
0010
0001
0010
0001
0100
1000
0100
,
0010
1000
0010
0100
0010
1000
0001
0010
0001
0010
0001
1000
0100
1000
1100
0000
,
0101
0000
1000
0100
0010
0001
1000
0100
1000
0010
0100
0001
1000
0100
0010
0100
,
0010
0001
0010
0100
1000
0001
0010
0100
1000
0100
1000
0001
0010
0001
2002
0000
,
3003
0000
0000
0000
0000
0000
0100
0000
0000
0010
0000
0000
0100
0000
0000
1000
0000
0000
0001
0000
0000
0010
0000
0000
0100
0000
0000
0010
0000
0000
0001
0000
0000
1000
0000
0000
0001
0000
0000
1000
0000
0000
0001
0000
0000
0000
0010
0000
,
0000
0000
0001
0000
0000
0000
1000
0000
0000
0000
0100
0000
0000
0000
1000
0000
0000
0000
0100
0000
0000
0010
0000
0000
0001
0000
0000
0100
0000
0000
0010
0000
0000
1000
0000
0000
0100
0000
0000
0010
0000
0000
0002
0000
0000
0000
0000
0000
,
1000
1000
1000
2000
0000
3003
M00M
0220
,
0000
0000
0000
0000
0000
0330
0000
1000
,
0010
0001
0010
0010
1000
0010
0100
1000
,
0100
0001
0100
0100
0010
1000
0100
0001
,
0100
1000
0001
0001
0100
1000
0100
0002
,
0010
0103
1000
0002
0010
0103
1000
0001
,
0010
0001
1000
1000
0001
0100
1000
0001
,
0010
1000
0010
0010
1000
0100
0010
1000
,
0010
0001
1000
1000
0100
0001
0100
0010
,
0101
0000
0000
0000
1100
0000
0001
0010
0100
0001
0100
0010
0001
0100
0020
0000
,
0000
0000
1030
0100
0010
0100
1000
0100
0010
0100
0001
0100
0010
0100
0010
0001
,
0100
0001
1000
0001
0100
0001
0010
0001
0100
0001
1000
0100
1000
0010
0200
0000
,
0000
0000
0301
0100
0010
1000
0001
0100
0010
0100
0001
1000
0100
0000
0M00
0000
,
1010
0000
M0M0
0000
0011
0000
100M
0100
0010
0001
0010
0100
1000
0001
0020
0000
,
0000
0000
0031
0100
0001
1000
0001
0010
0100
1000
0001
0010
0100
1000
0100
0000
,
0100
0010
0100
0000
0100
0010
0001
0000
0001
0010
0001
0000
0001
0010
0001
0000
,
0100
0010
1000
0001
0100
0020
1030
0202
,
0000
0000
0000
0000
0000
0000
1000
0010
1000
0010
1303
0001
0100
1000
0001
0000
,
0001
0010
0001
1000
0100
0010
0100
1000
0001
0100
0001
1000
0010
0100
0001
0010
,
0000
0100
0020
0000
0031
0100
0010
1000
0010
0100
2000
0000
0000
0000
0002
0000
,
0000
0000
3113
0000
0MM0
0000
1000
0001
0010
0100
1000
0001
0010
0100
1000
0100
,
0000
0001
0200
0000
0310
1000
0100
0010
0001
0010
0100
0001
0100
0010
0001
1000
,
0010
0100
0001
1000
0010
0100
0001
0010
0001
1000
0001
0100
0010
1000
0100
0010
,
0001
0010
0100
1000
0001
1000
0100
0001
0100
1000
0001
0100
1000
0100
0002
0000
,
1003
0200
1300
0020
0130
2000
3100
0002
,
1003
0200
0301
2000
3010
0002
0200
1313
,
0000
MMMM
0000
0000
0000
0000
0000
MMMM
;

//---------------dance-single - ----------------
#NOTES:
     dance-single:
     :
     Hard:
     10:
     0.807,0.000,0.389,0.389,0.304:
0000
0000
0000
0000
,
0000
0000
0000
0000
,
0000
0000
0000
0000
,
0000
0000
0000
0000
,
1000
0001
0100
0010
1000
0001
0100
0010
,
1000
0100
0010
0001
0010
0100
1000
0100
,
0010
0000
0001
0000
1000
0010
1000
0000
0001
0010
0001
0000
1000
0010
1000
0000
,
0001
0010
0001
0010
0001
0010
0001
0010
0002
0000
0000
0000
0000
0000
0000
0000
,
1003
0000
0001
1000
0001
0000
1000
0000
1000
0000
0010
1000
0010
0000
0100
0000
,
0100
0000
0001
0100
0001
0000
1000
0000
1000
0001
1000
0002
0000
0000
0003
0000
,
2000
0100
0010
0100
,
3020
0001
1000
0001
,
0230
1000
0010
1000
,
0302
0010
0100
1000
,
2003
3002
0203
2300
,
3200
0302
0023
2030
,
3020
0000
0032
0000
2003
0000
3100
0100
,
0001
0000
0000
0000
0100
0000
1000
0100
1000
0100
1000
0000
0001
0000
0101
0000
,
0101
0001
1000
0100
0010
1000
0010
0011
,
0011
0010
0100
1000
0010
0100
1000
1100
,
1100
1000
0100
0001
0100
0010
1010
0000
,
0011
0000
0000
0000
1010
0000
0010
0001
0010
0001
0010
0000
0001
1000
0001
0000
,
1000
0100
0010
0001
1000
0100
1000
0M01
,
0010
0100
1000
0001
0010
0100
0010
M001
,
0100
1000
0100
M001
0010
1000
0010
M002
,
0000
0000
0000
0000
0000
0000
1003
0100
1000
0100
1000
0100
1000
0100
2000
0000
,
0000
0000
0002
0000
0000
3013
0000
11M0
,
1100
0000
0001
0000
0M01
0000
1000
0000
0010
1000
0010
0000
1000
0000
0100
0000
,
0100
0000
0000
0010
0001
0010
0001
0000
0100
0001
0200
0000
0300
0000
0101
0000
,
0101
0000
1000
0000
1M00
0000
0001
0000
0100
0001
0100
0000
0001
0000
2000
0000
,
0000
0000
0200
0000
0000
0000
0010
0001
0010
0001
3310
0000
0000
0000
1010
0000
,
0011
0000
1000
0000
0001
0000
0001
0000
0010
0001
M010
0000
0001
0000
1000
0010
,
1000
0010
1000
0000
0001
0000
0010
0000
0001
0100
0001
0000
1000
0000
0200
0000
,
000M
0000
1300
0000
0100
0000
0010
0001
0100
0001
0010
0000
0100
1000
0200
0000
,
0000
0001
0000
1000
0000
1301
0000
2002
,
3003
1000
0100
0010
0001
0100
1000
0100
,
0010
1000
0100
0001
0100
0010
0001
0100
,
1000
0001
0010
1000
0100
0010
1000
0010
,
0001
0100
0010
0001
0010
1000
0010
0001
,
1000
0100
0001
0010
0001
1000
0100
0001
,
0100
1000
0010
0100
0001
0010
0100
1000
,
0001
0000
0000
1000
0000
0000
0001
0000
0000
0100
0000
0000
0010
0000
0000
0100
0000
0000
0010
0000
0000
1000
0000
0100
,
0000
0000
1000
0000
0000
0000
0100
0000
0000
0000
1000
0000
0000
0000
0100
0000
0000
0000
0010
0000
0000
0001
0000
0000
0010
0000
0000
0001
0000
0000
0010
0000
0000
0001
0000
0000
0010
0000
0000
0001
0000
0000
2000
0000
0000
0000
0000
0000
,
0000
3100
0000
0002
0000
0200
0000
1010
,
0000
0000
0000
0000
0000
0303
0000
1100
,
0010
0001
0100
0010
1000
0100
0010
0101
,
0010
1000
0100
0010
0001
0100
0010
1100
,
0010
1000
0100
0010
0001
0100
0010
0101
,
1000
0100
1000
0011
1000
0010
1000
0101
,
0010
0001
0100
1000
0100
0001
0010
0100
,
0001
0100
1000
0010
1000
0100
0010
0001
,
0100
1000
0100
0010
1000
0100
1000
0001
,
0020
0000
0000
0000
0031
0000
1000
0010
1000
0010
1000
0010
1000
0010
1000
0000
,
0100
0001
0100
1000
0001
0010
1000
0010
,
0100
1000
0100
0001
1000
0010
0001
1000
,
0010
0001
0010
0100
0001
0010
1100
0000
,
0101
0000
0000
0000
1100
0000
0001
1000
0001
1000
0001
1000
0001
1000
0001
0000
,
2000
0000
0110
0000
0101
0000
3011
0200
,
0011
0000
1001
0000
0011
0000
1300
0002
,
0010
0000
1100
0000
1010
0000
0000
2000
,
0000
0000
3003
0000
0000
0000
1000
0010
1000
0001
0010
0001
1000
0010
1000
0000
,
0100
0000
0010
0000
0001
0000
1000
0000
0100
0000
0010
0000
0001
0000
1000
0100
,
0000
0010
0100
0000
1000
0200
2000
0000
0000
0000
0311
0000
0000
0000
3111
0000
,
0000
0000
1100
0000
0000
0000
0001
0000
0100
0000
0010
0000
1000
0000
0001
0100
,
0000
0010
0100
0000
0001
0200
0002
0000
0000
0000
0000
0000
0000
0000
1313
0000
,
0000
0100
0010
0001
1000
0100
0010
1000
,
0010
0001
0100
0010
1000
0001
0100
0010
,
0001
0010
0100
0001
0010
0100
1000
0010
,
1000
0100
0001
0010
1000
0100
0001
M010
,
0000
000M
0000
0000
0000
0000
0000
0000
;

//---------------dance-double - ----------------
#NOTES:
     dance-double:
     :
     Challenge:
     13:
     1.000,0.000,0.548,0.588,0.877:
00000000
00000000
00000000
00000000
,
00000000
00000000
00000000
00000000
,
00000000
00000000
00000000
00000000
,
00000000
00000000
00000000
00000000
,
10000000
00100000
01000000
00010000
00100000
00001000
00010000
00000010
,
00001000
00000001
00000100
00000010
00001000
00000100
00010000
00001000
,
00100000
00010000
10000000
01000000
00100000
00010000
10000000
01000000
00100000
00001000
01000000
00100000
10000000
01000000
00100000
00010000
,
00100000
01000000
10000000
00100000
01000000
00100000
10000000
01000000
00100000
01000000
10000000
00100000
01000000
00100000
10000000
01000000
,
00100000
10000000
00010000
01000000
00001000
00100000
00000100
00010000
00000010
00001000
00000001
00000100
00000010
00001000
00000100
00000010
,
00000001
00000010
00000100
00001000
00000001
00000010
00000100
00001000
00000100
00010000
00010100
00022000
00000000
00000000
00033000
00000000
,
02020000
10100000
03232000
22303000
,
33220000
02332000
03203020
00322030
,
00100000
00033020
00002230
00023302
,
00030203
00010000
00000010
00100300
,
00011000
00110000
11000000
00011000
,
01001000
00010010
00001100
00000011
,
00001010
00000000
00000101
00000000
00001100
00000000
00010010
00011000
,
01000100
00000000
00000000
00000000
00011000
00000000
00010000
00100000
10000000
01000000
00010000
00000000
00001000
00010000
01000000
00000000
,
00100000
00010000
01000000
00100000
00010000
00001000
00000100
00000010
,
00001000
00000100
00000010
00000001
00000100
00001000
00010000
01000000
,
10000000
00100000
00010000
00100000
10000000
01000000
10100000
00000000
,
00011000
00000000
00000000
00000000
11000000
00000000
00100000
00001000
00010000
00001000
00100000
00001000
00010000
00000010
00010000
00000000
,
00001000
00000010
00001000
00010000
00000010
00001000
00010000
01000000
,
00100000
00010000
00001000
00010000
00100000
10000000
01000000
00100000
,
00001000
10000000
00100000
00010000
00000010
00100000
00001000
00000020
,
00000000
00000000
00000000
00000000
00000000
00000000
00000031
00001000
00000100
00010000
00001000
00100000
00010000
10000000
02000000
00000000
,
00000000
00000000
00200000
00000000
03300110
00000000
00000000
00000110
,
00000110
00000000
01000000
00000000
00100000
00000000
00010000
00100000
00010000
00000000
10000000
01000000
00010000
00000000
00001000
00000000
,
02000000
00000000
03000000
00100000
01000000
00010000
00100000
00000000
00001000
00010000
00001000
00000000
01000000
00000000
00011000
00000000
,
00011000
00000000
00010000
00000000
01000000
00000000
10000000
01000000
10000000
00000000
00010000
01000000
00010000
00000000
20000000
00000000
,
00000000
00000000
02000000
00000000
00000000
00000000
00100000
00001000
00100000
00001000
00100000
00000000
33010000
00100000
00010000
00000000
,
00110000
00000000
10000000
00000000
01000000
00000000
00010000
00000000
00001000
00000000
00000100
00000000
00000001
00000000
00001000
00000010
,
00001000
00000001
00001000
00000000
00000100
00000000
00010000
00000010
00010000
00001000
00010000
00000000
00000100
00000000
00010000
00000000
,
00000000
00000000
01000100
00000000
00000000
00000000
00001000
00010000
00100000
00010000
00001000
00010000
01000000
00010000
00002000
00000000
,
00000000
02000000
00000000
00200000
00000000
13303000
M0M0M000
01010000
,
01010000
00000000
10000000
00100000
01000000
10000000
01000000
00100000
10000000
01000000
00100000
00010000
01000000
00010000
00100000
01000000
,
10000000
00010000
00100000
00010000
10000000
01000000
10000000
01000000
00100000
00001000
00010000
00000100
00000010
00000001
00001000
00000000
,
00001001
00000000
00000001
00000010
00000100
00000010
00000001
00000100
00000010
00000001
00000010
00000100
00000001
00000100
00000001
00001000
,
00000100
00000010
00000001
00001000
00000100
00001000
00000001
00000010
00000100
00010000
00001000
00100000
01000000
10000000
00010000
00000000
,
10010000
00000000
00010000
00100000
01000000
10000000
00010000
00100000
01000000
10000000
00010000
00100000
00001000
01000000
00010000
00100000
,
00001000
00010000
00000010
00010000
00000100
00001000
00000010
00010000
00000100
00001000
00000001
00000010
00000100
00001000
00000002
00000000
,
00000023
00000000
00000000
00002030
00000000
00000000
00023000
00000000
00000000
00230000
00000000
00000000
20300000
00000000
00000000
32000000
00000000
00000000
03020000
00000000
00000000
00031000
00000000
00000100
,
00000000
00000000
00000001
00000000
00000000
00000000
00000100
00000000
00000000
00000000
00001000
00000000
00000000
00000000
00010000
00000000
00000000
00000000
01000000
00000000
00000000
00100000
00000000
00000000
01000000
00000000
00000000
10000000
00000000
00000000
00100000
00000000
00000000
01000000
00000000
00000000
00010000
00000000
00000000
00100000
00000000
00000000
02000000
00000000
00000000
00000000
00000000
00000000
,
00100000
00100000
00100000
00200000
00000000
03322000
00000000
00033220
,
00000000
00000000
00000000
00000000
00000000
000MM330
00000000
00000100
,
00000001
00000010
00000100
0000MM01
00000100
00001000
00000001
00000200
,
00001300
00010000
01000000
MM010000
00001000
01000000
00100000
20000000
,
31000000
00100000
00001000
00M1M000
00000010
00000100
00000001
00000020
,
00000031
00000100
00001000
00000200
00000310
00001000
00000100
02000000
,
03010000
10000000
01000000
0MM10000
01000000
10000000
00100000
00020000
,
00130000
00010000
00001000
0000MM10
00001000
00000010
00000100
00002000
,
00003010
00000100
00001000
0001MM00
01000000
00100000
00010000
10000000
,
00110000
00000000
00000000
00000000
00001010
00000000
00020000
00000000
00032000
00000000
00103000
00010000
10000000
00010000
10000000
01000000
,
00100000
01000000
10000000
00010000
00100000
01000000
00100000
00001000
00100000
00010000
00100000
00000010
00001000
00000100
00001000
00000010
,
00001000
00000100
00001000
00000001
00000010
00000100
00000010
00000001
00000010
00000100
00000010
00000100
00001000
00000100
00000010
00000001
,
00000100
00000010
00000100
00000001
00001000
00000010
00001000
00000100
00000001
00000100
00001000
00000000
00010010
00000000
00000000
00000000
,
01001000
00000000
00000000
00000000
10100000
00000000
10000000
01000000
00100000
00001000
00010000
00001000
00100000
01000000
10000000
00100000
,
10000000
00010000
01000000
00010000
10000000
01000000
00100000
01000000
10000000
01000000
00010000
01000000
10000000
01000000
00100000
00010000
,
01000000
00001000
00010000
00000100
00001000
00000100
00010000
00000010
00001000
00000010
00010000
00000010
00001000
00000010
00000100
00000000
,
00000001
00000100
00001000
00010000
01000000
10000000
00100000
00220000
,
00000000
00000000
00330000
00000000
00000000
00000000
10000000
01000000
00100000
00001000
00010000
00001000
00100000
01000000
10000000
00000000
,
01000000
00000000
00001000
00000000
01000000
00000000
10000000
00000000
01000000
00000000
00001000
00000000
01000000
00000000
00100000
00010000
,
00000000
00001000
00010000
00000000
00000100
00000000
00001000
00000000
00000010
00000000
00000102
00000000
00000000
00000000
00001210
00000000
,
00000000
00000000
00001313
00000000
00000000
00000000
00000001
00000000
00000100
00000000
00010000
00000000
00000100
00000000
00000001
00000010
,
00000000
00001000
00000100
00000000
00010000
00000000
00001000
00000000
10000000
00000000
00010000
00000000
01000000
00000000
20000000
00000000
,
00000000
00000000
30000000
00000000
00000000
00000000
00010000
00001000
00000000
00000000
01001000
00000000
00000000
00000000
00010000
00000100
,
00000010
00000001
00001000
00000000
00000000
00000000
00001000
00000010
00000100
00000001
00000010
00000100
00001000
00000010
00000M00
00000000
,
00000000
00000000
01010000
00000000
00000000
00000000
00000000
00000000
00000000
00000000
00001100
00000000
00000000
00000000
00001000
00000100
,
00010000
00001000
01000000
00010000
00100000
01000000
M0010000
01000000
00100000
00001000
00010000
00000100
00000010
00000001
000010M0
00000000
,
00000M00
0000M000
000M0000
00M00000
0M000000
M0000000
00000000
00000000
;

//---------------dance-single - Blank----------------
#NOTES:
     dance-single:
     Blank:
     Medium:
     8:
     0.623,0.000,0.299,0.528,0.075:
0000
0000
0000
0000
,
0000
0000
0000
0000
,
0000
0000
0000
0000
,
0000
0000
0000
0000
,
1000
0001
0100
0010
1000
0001
0100
0010
,
1000
0100
0010
0001
1000
0100
0010
0001
,
1000
0001
1000
0001
0100
0010
0100
0010
,
2000
0000
3001
0110
,
0001
0010
1000
0010
0001
1000
0010
0001
,
0010
0000
1000
0000
0200
0000
0001
0000
1300
0001
1000
0001
0000
0000
0000
0000
,
2000
0001
0100
3001
,
0020
1000
0001
1030
,
0002
1000
0010
1003
,
0200
0001
1000
0301
,
2000
3010
0002
0103
,
0002
0013
2000
3100
,
2000
0000
3002
0000
0023
0000
0031
1000
,
0001
0000
0000
0000
0100
0000
0010
1000
0010
0000
0100
0000
0001
0000
0010
0000
,
0020
0000
0100
0000
0001
0000
0130
2000
,
0010
0000
0100
0000
0001
0000
3010
0100
,
0002
0010
1000
0103
,
1100
0000
0101
0000
0100
1000
0100
0001
,
0002
0000
1000
0000
1000
0000
1003
0100
,
2000
0000
0001
0000
0001
0000
3001
0010
,
0002
0000
1003
0010
2000
3000
0001
0020
,
0000
0000
0000
0200
0000
0330
0000
2000
,
0000
0000
0002
0000
0000
3013
00M0
1001
,
1001
0000
0000
0010
0000
0100
0000
0010
,
1010
0000
0000
1000
0100
0001
0000
1010
,
1010
0000
0000
0000
0000
0000
1000
0100
1000
0000
0100
0000
1000
0000
0020
0000
,
0000
0032
0000
0203
0000
1300
0000
0011
,
0011
0000
0000
0000
0000
0000
1000
0000
1000
0000
0001
0000
1000
0000
0001
1000
,
0001
1000
0000
1100
0000
0101
0000
0022
,
0000
0000
0033
0000
0000
0000
1000
0010
1000
0000
0010
0000
0000
0000
2200
0000
,
0000
0000
0000
0000
0000
3301
0000
1100
,
1100
0000
0000
0010
0001
0100
0001
0010
,
0100
0000
0000
1000
0100
0010
0000
1010
,
1010
0000
1000
0001
0010
0001
0100
2000
,
0000
3200
0000
0302
0000
0103
0000
0101
,
0101
0000
0000
0001
0010
0100
1000
0010
,
0100
0010
1000
0100
0010
0001
0010
0021
,
0000
0000
0000
0031
0000
0000
0000
0000
0000
1200
0000
0000
0000
0000
0000
1300
0000
0000
0000
0000
0000
1000
0000
0100
,
0000
0010
0000
0001
0000
0010
0000
0100
0000
1000
0000
0000
0001
0000
0000
0010
0000
0000
0100
0000
0000
0001
0000
0000
,
0100
0100
0100
2000
0000
3001
0000
0220
,
0000
0000
0000
0000
0000
0330
0000
1000
,
0100
1000
0010
0100
0001
0010
0001
0000
,
0100
0001
0010
0100
1000
0010
0100
0000
,
0001
0010
0001
0100
0010
1000
0100
0000
,
1000
0001
1000
0000
0001
1000
0001
1000
,
0000
0001
0000
0100
0000
1000
0000
0100
,
0000
0010
0000
1000
0000
0100
0000
0001
,
0000
0100
0000
1000
0000
0010
0000
0100
,
0110
0000
0001
1001
0000
1010
0000
0100
,
0001
0100
0000
0010
1000
0100
1000
0010
,
0100
1000
0000
0100
0001
0010
0100
1000
,
0100
1000
0000
0010
1000
0100
0010
0000
,
1001
0000
0100
0010
0001
0100
0001
0010
,
0100
1000
0100
0010
0001
0010
0001
1000
,
0100
0010
0001
0100
0010
0100
0010
1000
,
0010
0100
1000
0100
0001
0100
1000
0200
,
0000
0000
0000
0000
0000
0000
0301
0000
1000
0001
1000
0000
0001
0000
2000
0000
,
0000
0000
0000
0000
0000
0000
3002
0000
0000
0000
0000
0000
0000
0000
1003
0100
,
0000
1000
0100
0000
1000
0000
0010
0000
0000
0000
0101
0000
0000
0000
1100
0000
,
0000
0000
0002
0000
0000
0000
0000
0000
0000
0000
2003
0000
0000
0000
3001
0100
,
0000
0001
0100
0000
0001
0000
0020
0000
0000
0000
0030
0000
0000
0000
2200
0000
,
0000
0300
0000
3001
0010
0001
0100
0002
,
0000
0000
0000
1003
0010
0100
0010
2000
,
0000
3001
0000
0002
0000
0013
0000
0020
,
0000
1030
0000
0002
0000
2000
0000
3013
,
0000
0000
0000
0000
0000
0000
0000
00M0
,
0000
0000
0000
0000
0000
0000
0000
M00M
;

//---------------dance-single - Blank----------------
#NOTES:
     dance-single:
     Blank:
     Easy:
     5:
     0.410,0.000,0.139,0.468,0.000:
0000
0000
0000
0000
,
0000
0000
0000
0000
,
0000
0000
0000
0000
,
0000
0000
0000
0000
,
1000
0000
0001
0000
,
1000
0000
0001
0000
,
0100
0010
0100
0010
,
1000
0100
0010
0001
,
2000
0001
3020
1000
,
0230
0001
0320
0030
,
1000
0001
0100
0001
,
1000
0010
0100
0010
,
1000
0100
0010
0100
,
1000
0001
0100
0001
,
1000
0010
0100
0001
,
0010
0001
1000
0010
,
1000
0000
0100
0000
1000
0000
0010
0200
,
0000
0300
0100
0200
0000
0000
0300
0000
,
0001
0010
0100
0010
,
0001
0100
1000
0100
,
0001
0010
0100
2000
,
3002
0000
1003
0001
1000
0001
0001
2000
,
0000
0000
0000
3010
0000
0000
0000
0002
,
0000
0000
0000
0013
0000
0000
0000
2000
,
0000
0000
0000
3200
0000
0000
0000
0301
,
0000
0000
0000
0001
0100
0010
0001
0200
,
0000
0000
0010
0000
0000
0310
0000
0220
,
0330
0000
0MM0
0000
0000
0000
0000
1000
,
0001
0000
0010
0001
1000
0010
0000
0220
,
0330
0000
0MM0
0000
0000
0000
0000
1000
,
0000
0100
0000
0001
0100
0010
0000
0220
,
0330
0000
0MM0
0000
0000
0000
0000
0001
,
1000
1000
0000
1000
0001
0001
0000
0020
,
0000
0032
0000
1003
0000
1000
0000
0200
,
0000
0000
0000
0000
0000
0310
0000
0220
,
0330
0000
0MM0
1000
0000
0001
0000
0010
,
0100
0000
0010
0001
1000
0100
0000
0220
,
0330
0000
0MM0
0001
0000
1000
0000
0010
,
0100
0010
0100
0010
0000
1000
0000
0220
,
0330
0000
0MM0
0001
0000
1000
0000
0100
,
0000
1000
0000
0001
0000
0100
0000
0001
,
0000
0010
0000
0010
0000
0100
0000
0100
,
0000
1000
0000
1000
0000
0010
0000
0220
,
0000
0000
0000
0330
0000
0000
0000
2002
,
0000
0000
0000
0000
0000
3003
0000
1000
,
0000
0001
0000
1000
0000
0001
0000
0010
,
0000
0100
0000
0010
0000
0100
0000
1000
,
0000
0010
0000
1000
0000
0010
0000
0100
,
0000
0001
0000
0010
0000
0001
0000
0100
,
0000
0010
0000
0100
0000
0010
0000
1000
,
0000
0100
0000
1000
0000
0100
0000
0010
,
0000
0001
0000
0010
0000
0001
0000
1000
,
0010
0000
0010
1000
0001
0010
0000
0010
,
0000
0001
0000
0001
0000
0100
0000
0100
,
0000
0001
0000
0010
0000
0100
0000
1000
,
0000
0010
0000
0010
0000
0100
0100
0000
,
0001
0000
1000
0100
1000
0100
0000
0010
,
0000
0001
0000
0001
0000
1000
0000
2000
,
0000
3001
0000
0001
0000
1000
0000
2000
,
0000
3100
0000
0200
0000
0310
0000
0220
,
0000
0330
0000
0010
0000
0001
0000
2002
,
0000
0000
0000
3003
0000
0000
0000
1000
,
0000
2100
0000
0000
0000
3001
0000
0011
,
0000
0202
0000
0303
0000
0000
0000
0001
,
0000
0101
0000
0000
0000
0000
0000
0010
,
0000
0000
0000
0100
0000
0000
0000
1000
,
0000
0000
0000
0002
0000
0000
0000
0023
,
0000
0030
0000
0200
0000
0000
0000
2300
,
0000
0000
0000
3200
0000
0000
0000
0301
;

//---------------dance-single - Blank----------------
#NOTES:
     dance-single:
     Blank:
     Beginner:
     2:
     0.186,0.000,0.149,0.139,0.000:
0000
0000
0000
0000
,
0000
0000
0000
0000
,
0000
0000
0000
0000
,
0000
0000
0000
0000
,
1000
0000
0000
0000
,
0001
0000
0000
0000
,
1000
0000
0001
0000
,
1000
0000
0001
0000
,
0100
0000
0010
0000
,
1000
0000
0000
0000
0200
0000
0300
1000
,
0000
0000
0000
0000
0000
0000
0000
0010
,
0000
0000
0000
0000
0000
0000
0000
0100
,
0000
0000
0000
0000
0000
0000
0000
0001
,
0000
0000
0000
0000
0000
0000
0000
0010
,
0000
0000
0000
0000
0000
0000
0000
0100
,
0000
0000
0000
0000
0000
0000
0000
0010
,
0000
0000
0000
0000
0000
0000
0000
0001
,
0000
0000
0000
1000
0000
0000
0000
0001
,
0000
0000
0000
0000
0000
0000
0000
1001
,
0000
0000
0000
0000
0000
0000
0000
1000
,
0000
0000
0000
1001
,
1001
0000
1001
0000
0000
0000
0000
0001
,
0000
0000
0000
0000
0000
0000
0000
0110
,
0000
0000
0000
0000
0000
0000
0000
1001
,
0000
0000
0000
1001
0000
0000
0000
1001
,
0000
0000
0000
0000
0000
0000
0000
0220
,
0000
0000
0000
0000
0000
0330
0000
0110
,
0000
0000
0000
0000
0000
0000
0000
1000
,
0000
0000
0000
0001
0000
0000
0000
0110
,
0000
0000
0000
0000
0000
0000
0000
0001
,
0000
0000
0000
1000
0000
0000
0000
0110
,
0000
0000
0000
0000
0000
0000
0000
0010
,
0000
0000
0000
1000
0000
0000
0000
0100
,
0000
0000
0000
0001
0000
0000
0000
0020
,
0000
0000
0000
0000
0000
0030
0000
0010
,
0000
0000
0000
1000
0000
0000
0000
0010
,
0000
0000
0000
1000
0000
0000
0000
0001
,
0000
0000
0000
0010
0000
0000
0000
0001
,
0000
0000
0000
0010
0000
0000
0000
0100
,
0000
0000
0000
1000
0000
0000
0000
0100
,
0000
0000
0000
1000
0000
0000
0000
0001
,
0000
0000
0000
0100
0000
0000
0000
0001
,
0000
0000
0000
0100
0000
0000
0000
0001
,
0000
0001
0000
0001
0000
0001
0000
0002
,
0000
0000
0000
0003
0000
0000
0000
0002
,
0000
0000
0000
0003
0000
0000
0000
2000
,
0000
0000
0000
3000
0000
0000
0000
0002
,
0000
0000
0000
0003
0000
0000
0000
1000
,
0000
0000
0000
0001
0000
0000
0000
0200
,
0000
0000
0000
0300
0000
0000
0000
0020
,
0000
0000
0000
0030
0000
0000
0000
0200
,
0000
0000
0000
0300
0000
0000
0000
0001
,
0000
0000
0000
0001
0000
0000
0000
1000
,
0000
0000
0000
0100
0000
0000
0000
0010
,
0000
0000
0000
0100
0000
0000
0000
1000
,
0000
0000
0000
0100
0000
0000
0000
0001
,
0000
0000
0000
0100
0000
0000
0000
1000
,
0000
0000
0000
0010
0000
0000
0000
0100
,
0000
0000
0000
0010
0000
0000
0000
1000
,
0000
0000
0000
0010
0000
0000
0000
0001
,
0000
0000
0000
0010
0000
0000
0000
2000
,
0000
0000
0000
3000
0000
0000
0000
0001
,
0000
0000
0000
0000
0000
0100
0000
0110
,
0000
0110
0000
0000
0000
0000
0000
0010
,
0000
0000
0000
0000
0000
0000
0000
2000
,
0000
0000
0000
3000
0000
0000
0000
0001
,
0000
0000
0000
0000
0000
0000
0000
0001
,
0000
2000
0000
0000
0000
0000
0000
3001
,
0000
0000
0000
0000
0000
0000
0000
1001
;

//---------------dance-double - Blank----------------
#NOTES:
     dance-double:
     Blank:
     Hard:
     10:
     0.730,0.000,0.259,0.289,0.214:
00000000
00000000
00000000
00000000
,
00000000
00000000
00000000
00000000
,
00000000
00000000
00000000
00000000
,
00000000
00000000
00000000
00000000
,
10000000
00100000
01000000
00010000
00100000
00001000
00010000
00000100
,
00001000
00000010
00000100
00000001
00000010
00000100
00001000
00000010
,
00000100
00001000
00010000
01000000
10000000
00100000
00010000
00001000
,
00010000
01000000
10000000
01000000
00010000
00001000
00000010
00000001
,
00000010
00000001
00000010
00000000
00000001
00000100
00000001
00000000
00001000
00000100
00001000
00000000
00000010
00000100
00000010
00000000
,
00001000
00000001
00001000
00000000
00000001
00001000
00000001
00000000
00000010
00001000
00010000
00200000
00000000
00000000
00000000
00000000
,
20300000
00010000
32000000
03100000
,
00020000
01000000
00230000
01300000
,
00020000
01000000
00032000
00103000
,
00020000
00032000
00003200
00000310
,
00000002
00001000
00000203
00000310
,
00020000
00001000
00030200
00000310
,
00002000
00000000
00000010
00000000
00023000
00000000
01030000
00100000
,
00010000
00000000
00000000
00000000
00100000
00000000
00010000
10000000
01000000
10000000
01000000
00000000
10000000
00100000
01000000
00000000
,
01000000
00100000
10000000
01000000
00010000
01000000
10000000
00100000
,
01000000
00010000
00100000
00001000
01000000
00010000
00100000
01000000
,
00010000
00001000
00000010
00000001
00000010
00001000
00011000
00000000
,
00010010
00000000
00000000
00000000
00011000
00000000
00001000
00010000
00001000
00010000
00001000
00000000
00010000
00001000
00010000
00000000
,
00010000
01000000
00100000
00010000
01000000
00100000
00010000
00011000
,
00001000
00000100
00000010
00001000
00000100
00000010
00001000
00011000
,
00010000
00100000
00010000
00001000
00010000
01000000
00010000
00002000
,
00000000
00000000
00003000
00000000
00000000
00000000
10000000
00010000
10000000
00010000
01000000
00010000
01000000
00010000
02000000
00000000
,
00000000
00000000
00002000
00000000
00000000
03103000
00000000
00011000
,
00011000
00000000
00000000
000MM000
00000000
00000000
00000000
10000000
,
01000000
00000000
00000000
00100000
00010000
01000000
00100000
00000000
00010000
00001000
00000100
00000000
00000000
00000000
00011000
00000000
,
00011000
00000000
00000000
000MM000
00000000
00000000
00000000
00000001
,
00000000
00000000
00001000
00000000
00000000
00000000
00000001
00001000
00000001
00001000
00000001
00000000
00000010
00000000
00011000
00000000
,
00011000
00000000
00000000
00000000
00000000
00000000
000MM000
00000000
00000000
00000000
00000000
00000000
00000000
00000000
10000000
00100000
,
01000000
00100000
10000000
00000000
00010000
00000000
00100000
00000000
00010000
00100000
00010000
00000000
00100000
00000000
02000000
00000000
,
00000000
00000000
03010000
00000000
00000000
00000000
10000000
01000000
00100000
00010000
01000000
00000000
00100000
00010000
00002000
00000000
,
00000000
00000100
00000000
00010000
00000000
00003100
00000000
00011000
,
00011000
00001000
00100000
01000000
00010000
00001000
00100000
01000000
,
10000000
01000000
00100000
00010000
01000000
00100000
00010000
00011000
,
00011000
00010000
00000010
00001000
00000010
00000100
00000001
00000010
,
00001000
00000010
00000001
00000100
00010000
00000100
00000000
00011000
,
00011000
00001000
00010000
01000000
10000000
00100000
01000000
00001000
,
00100000
00001000
01000000
00010000
00100000
00001000
01000000
00010000
,
01000000
00000000
00000000
00100000
00000000
00000000
00010000
00000000
00000000
00001000
00000000
00000000
00000010
00000000
00000000
00001000
00000000
00000000
00010000
00000000
00000000
00001000
00000000
00100000
,
00000000
01000000
00000000
10000000
00000000
01000000
00000000
00100000
00000000
00001000
00000000
00000000
10000000
00000000
00000000
01000000
00000000
00000000
00010000
00000000
00000000
01000000
00000000
00000000
,
10000000
10000000
10000000
20000000
00000000
02000000
00000000
00111000
,
00000000
00000000
00000000
00000000
00000000
33000000
00000000
10000000
,
01000000
00100000
00001000
00010000
00000100
00000010
00000001
00000100
,
00000001
00000010
00000100
00010000
00001000
00100000
01000000
10000000
,
00100000
01000000
00001000
00010000
00000010
00000100
00000001
00000010
,
00000001
00000100
00000010
00001000
00000001
00000010
00000100
00010000
,
00001000
00100000
01000000
10000000
01000000
00100000
00001000
00010000
,
00001000
00000100
00000010
00000100
00000001
00000100
00000010
00001000
,
00000100
00010000
00001000
00100000
00010000
01000000
10000000
01000000
,
01010000
00000000
01000000
10000000
01000000
00010000
00100000
10000000
,
00100000
00010000
01000000
10000000
01000000
00010000
00100000
00001000
,
00010000
01000000
00010000
00001000
00000100
00001000
00010000
00000100
,
00010000
00000010
00010000
00001000
00010000
00000100
00000110
00000000
,
00001001
00000000
00000000
00000000
00000110
00000000
00000010
00000100
00000010
00000100
00000010
00000100
00000010
00000100
00000010
00000000
,
00001000
00000100
00010000
00001000
01000000
00010000
00100000
01000000
,
00010000
00001000
01000000
00010000
00100000
01000000
10000000
00010000
,
10000000
00010000
01000000
00001000
00010000
00000100
00001000
00000002
,
00000000
00000000
00000003
00000000
00000000
00000000
00000001
00000010
00000100
00001000
00000010
00000000
00010000
00000000
00022000
00000000
,
00000000
00000000
00000000
00000000
00000000
00000000
00003000
00000000
00000000
00000000
00030000
00000000
00000000
00000000
00000001
00000100
,
00000000
00000010
00020000
00000000
00000000
00000000
00030000
00000000
00000000
00000000
01001000
00000000
00000000
00000000
00110000
00000000
,
00000000
00000000
00022000
00000000
00000000
00000000
00030000
00000000
00000000
00000000
00003000
00000000
00000000
00000000
01000000
00100000
,
00000000
00010000
00001000
00000000
00000000
00000000
00000100
00000000
00000010
00000000
00010000
00000000
00001000
00000000
00001000
00000000
,
10000000
01000000
00100000
00010000
01000000
00100000
10000000
00010000
,
01000000
00100000
00010000
00001000
00100000
01000000
00010000
00001000
,
00000100
00000010
00001000
00000100
00000001
00000100
00000010
00000001
,
00000010
00001000
00010000
01000000
10000000
01000000
00010000
10000000
,
00000000
00000000
00000000
00000000
00000000
00000000
00000000
M00MM00M
;

//---------------dance-double - Blank----------------
#NOTES:
     dance-double:
     Blank:
     Medium:
     8:
     0.562,0.000,0.259,0.498,0.060:
00000000
00000000
00000000
00000000
,
00000000
00000000
00000000
00000000
,
00000000
00000000
00000000
00000000
,
00000000
00000000
00000000
00000000
,
10000000
00100000
01000000
00010000
00100000
00001000
00010000
00000100
,
00001000
00000010
00000100
00000001
00000010
00001000
00000010
00000100
,
00001000
00000100
00000010
00000001
00001000
00000100
00000010
00000001
,
00002000
00003100
00000020
00000031
00000200
00000000
00000000
00000000
,
00000310
00010000
00001000
00000000
00100000
00001000
00010000
00000000
,
00100000
01000000
00010000
00000000
00002000
00000000
00003000
00000000
,
00002000
20003000
32000000
03100000
,
00002000
20003000
32000000
03100000
,
00002000
00023000
00030200
00000310
,
00000001
00000100
00001000
00010000
,
00020000
00032000
20003000
30100000
,
02000000
03020000
00230000
01300000
,
00010000
00000000
00001000
00000000
00000100
00000000
00001000
00010000
,
00001000
00000000
00010000
00001000
00010000
00000000
00001000
00012000
,
00000000
00010000
01000000
00013000
,
00020000
00001000
00000100
00031000
,
00002000
00010000
00103000
01100000
,
10010000
00000000
10000000
01000000
00100000
00001000
00010000
00002000
,
00010000
00000000
01000000
00000000
00100000
00003000
00010000
00000100
,
00002000
00000000
00000100
00000000
00000010
00003000
00000001
00000010
,
00000100
00000000
00001000
00000010
00000100
00000000
00001000
00000002
,
00000000
00000003
00000000
00000100
00000010
00001000
00000100
00020000
,
00000000
00000000
00002000
00033000
00000000
00011000
00000000
00012000
,
000M0000
00000000
00000000
00000000
00000000
00000000
00000000
01003000
,
00010000
10000000
00100000
01000000
00001000
00010000
00000000
00021000
,
0000M000
00000000
00000000
00000000
00000000
00000000
00000000
00030001
,
00000010
00000000
00000001
00001000
00000100
00000000
00010000
00012000
,
000M0000
00000000
00000000
00000000
00000000
00000000
00000000
00000000
00000000
00000000
00000000
00000000
00000000
00000000
01003000
00100000
,
01000000
00100000
01000000
00000000
00000000
00000000
00100000
00000000
01000000
00000000
00100000
00000000
01000000
00000000
00010000
00000000
,
00000000
00100000
00000000
01000000
00000000
00010000
00000000
00022000
,
00000000
00000000
00000000
00000000
00000000
00033000
00000000
00011000
,
00000000
00010000
00001000
01000000
00010000
00100000
01000000
10000000
,
00100000
00000000
01000000
00001000
00000000
00010000
00000000
00011000
,
00000000
00010000
00000100
00001000
00000010
00000100
00000001
00000010
,
00000001
00001000
00000010
00010000
00000010
00010000
00000000
00011000
,
00000000
00001000
01000000
00010000
00100000
00001000
00000000
00011000
,
00000000
00010000
00000100
00001000
00000010
00010000
00000000
00011000
,
00000000
00000000
00000000
00000100
00000000
00000000
00000000
00000000
00000000
00001100
00000000
00000000
00000000
00000000
00000000
00010000
00000000
00000000
00000000
00000000
00000000
00001000
00000000
00010000
,
00000000
00000000
00001000
00000000
00000000
00000000
00010000
00000000
00000000
00000000
00001000
00000000
00000000
00000000
00010000
00000000
00000000
00000000
00001000
00000000
00000000
00000000
00000000
00000000
00010000
00000000
00000000
00000000
00000000
00000000
00001000
00000000
00000000
00010000
00000000
00000000
00001000
00000000
00000000
00010000
00000000
00000000
00002000
00000000
00000000
00000000
00000000
00000000
,
00000000
00000000
00000000
20000000
00000000
00000000
00000000
00100000
,
00000000
00000000
00000000
30003000
00000000
00000000
00000000
20000000
,
00000000
00100000
00000000
31000000
00000000
00100000
00001000
00020000
,
00000000
00000010
00000000
00030100
00000000
00001000
00010000
00200000
,
00000000
01000000
00000000
00310000
00000000
01000000
00100000
10000000
,
01000000
00100000
00010000
01000000
00100000
01000000
00001000
00010000
,
00000000
00000010
00000000
00001000
00000000
00000100
00001000
00010000
,
00000000
00001000
00000000
00000100
00000000
00000010
00001000
00010000
,
00000000
00001000
00000000
00010000
00100000
01000000
00100000
10000000
,
11000000
00000000
00100000
00110000
00000000
00001010
00000000
00011000
,
00000000
00001000
10000000
01000000
10000000
00100000
00010000
00001000
,
00000000
00010000
00000001
00000100
00000001
00000010
00001000
00010000
,
00000000
00001000
00100000
01000000
00100000
00001000
00011000
00000000
,
00001100
00000000
00000010
00000010
00000001
00000100
00000010
00010000
,
00001000
01000000
00100000
01000000
00001000
00010000
00000010
00001000
,
00000100
00000010
00000100
00001000
00000010
00001000
00000100
00020000
,
00000000
00031000
00000000
00200000
00000000
00310000
00000000
00002000
,
00000000
00003000
00000000
00001000
00010000
00000100
00010000
00022000
,
00030000
00000000
00000000
00000000
00000000
00000000
000M0000
00000000
00000000
00000000
00003000
00000000
00000000
00000000
00010000
00100000
,
00000000
01000000
00010000
00000000
00000000
00000000
00000000
00000000
00000000
00000000
10010000
00000000
00000000
00000000
00011000
00000000
,
00000000
00000000
00001001
00000000
00000000
00000000
00000000
00000000
00000000
00000000
00000000
00000000
00000000
00000000
00001000
00000100
,
00000000
00000010
00001000
00000000
00000000
00000000
00000000
00000000
00000000
00000000
00000000
00000000
00000000
00000000
00022000
00000000
,
00000000
00030000
00000000
20003000
00000000
00000000
00000000
32000000
,
00000000
00000000
00000000
03020000
00000000
00000000
00000000
00032000
,
00000000
00000000
00000000
00003200
00000000
00000000
00000000
00000302
,
00000000
00000000
00000000
00010003
00000000
00000000
00000000
00011000
,
00000000
00000000
00000000
00000000
00000000
00000000
00000000
000MM000
;

//---------------dance-double - Blank----------------
#NOTES:
     dance-double:
     Blank:
     Easy:
     5:
     0.367,0.000,0.139,0.120,0.000: // measure 1
00000000
00000000
00000000
00000000
,  // measure 2
00000000
00000000
00000000
00000000
,  // measure 3
00000000
00000000
00000000
00000000
,  // measure 4
00000000
00000000
00000000
00000000
,  // measure 5
10000000
00100000
01000000
00001000
,  // measure 6
00010000
00000010
00000100
00000001
,  // measure 7
00000010
00000100
00010000
00001000
,  // measure 8
00200000
00000000
00000000
00300000
,  // measure 9
00010000
10000000
00010000
00001000
,  // measure 10
00000001
00001000
00020000
00030000
,  // measure 11
10000000
00010000
10000000
00010000
,  // measure 12
00100000
00010000
00100000
00010000
,  // measure 13
01000000
00001000
01000000
00001000
,  // measure 14
00010000
00001000
00010000
00010000
,  // measure 15
00000001
00001000
00000001
00001000
,  // measure 16
00000010
00001000
00000010
00001000
,  // measure 17
00000100
00000000
00010000
00000000
00000100
00000000
00010000
00001000
,  // measure 18
00010000
00000000
00001000
00010000
00001000
00010000
00001000
00000000
,  // measure 19
10000000
10000000
01000000
01000000
,  // measure 20
00100000
00100000
00010000
00010000
,  // measure 21
01000000
00000000
01000000
00000000
00001000
00000000
00001000
00010000
,  // measure 22
00001000
00000000
00010000
00001000
00010000
00000000
00001000
00000000
,  // measure 23
00010000
00010000
00000100
00000100
,  // measure 24
00000010
00000010
00000001
00000001
,  // measure 25
00000100
00000000
00000100
00000000
00000010
00000000
00000010
00010000
,  // measure 26
00000000
00000000
00000000
00000010
00000100
00000010
00000100
00000020
,  // measure 27
00000000
00000000
00020030
00000000
00000000
00031000
00000000
00011000
,  // measure 28
00000000
00000000
00000000
0000000M
00000000
00000000
00000000
00001000
,  // measure 29
00100000
00000000
00010000
01000000
00100000
00000000
10000000
01000000
,  // measure 30
01000000
00000000
00000000
00000000
00000000
00000000
00000000
00100000
,  // measure 31
00000000
00001000
00000000
00010000
00000000
00000010
00000000
00000100
,  // measure 32
00000100
00000000
00000000
M0000000
00000000
00000000
00000000
00000001
,  // measure 33
00000010
00000001
00000000
00001000
00000010
00001000
00000000
00000100
,  // measure 34
00000000
00000010
00000000
00001000
00000000
00010000
00000000
00022000
,  // measure 35
00000000
00000000
00000000
00000000
00000000
00003000
00000000
00001000
,  // measure 36
00031000
00000000
00000000
00100000
00000000
01000000
00000000
10000000
,  // measure 37
00000000
00100000
00000000
00010000
00000000
00001000
00000000
00010000
,  // measure 38
00001000
00000000
00000000
00000010
00000000
00000100
00000000
00001000
,  // measure 39
00000000
00000100
00000000
00010000
00000000
00001000
00000000
00011000
,  // measure 40
00011000
00000000
00000000
M0010000
00000000
00000001
00000000
00000100
,  // measure 41
00000000
00000001
00000000
00000010
00000000
00000100
00000000
00010000
,  // measure 42
00000000
00001000
00000000
01000000
00000000
00001000
00000000
00200000
,  // measure 43
00000000
00000000
00000000
01300000
00000000
00000000
00000000
10000000
,  // measure 44
00010000
00010000
10000000
10000000
00000000
00001000
00000000
00022000
,  // measure 45
00000000
00000000
00000000
00000000
00000000
00033000
00000000
00001000
,  // measure 46
00000000
10000000
00000000
01000000
00000000
10000000
00000000
00100000
,  // measure 47
00000000
01000000
00000000
00100000
00000000
10000000
00000000
00010000
,  // measure 48
00000000
00100000
00000000
00010000
00000000
01000000
00000000
00001000
,  // measure 49
00000000
00010000
00000000
00000100
00000000
00001000
00000000
00000010
,  // measure 50
00000000
00000100
00000000
00000010
00000000
00001000
00000000
00000001
,  // measure 51
00000000
00000010
00000000
00000001
00000000
00000100
00000000
00000010
,  // measure 52
00000000
00001000
00000000
00000010
00000000
00000100
00000000
00001000
,  // measure 53
00010000
00000000
00001000
00010000
00000000
00011000
00000000
00001000
,  // measure 54
00000000
00100000
00000000
01000000
00000000
00100000
00000000
00010000
,  // measure 55
00000000
10000000
00000000
01000000
00000000
00010000
00000000
00001000
,  // measure 56
00000000
00000100
00000000
00000010
00000000
00000100
00001000
00000000
,  // measure 57
00011000
00000000
00010000
00000000
00011000
00000000
00001000
00010000
,  // measure 58
00000000
00000100
00000000
00001000
00000000
00000100
00000000
00010000
,  // measure 59
00000000
00001000
00000000
01000000
00000000
00010000
00000000
20000000
,  // measure 60
00000000
31000000
00000000
00200000
00000000
00310000
00000000
20000000
,  // measure 61
00000000
00000000
00000000
31000000
00000000
00010000
00000000
00011000
,  // measure 62
00000000
0000000M
00000000
0000000M
00000000
0000000M
00000000
00000MMM
,  // measure 63
00000000
0000000M
00000000
0000000M
00000000
00110000
00000000
01001000
,  // measure 64
00000000
00011000
00000000
M0000000
00000000
M0000000
00000000
MMM00000
,  // measure 65
00000000
M0000000
00000000
M0000000
00000000
M0000000
00000000
00011000
,  // measure 66
00000000
00000000
00000000
M0000000
00000000
00000000
00000000
00000001
,  // measure 67
00000000
00000000
00000000
00000000
00000000
00000000
00000000
00000100
,  // measure 68
00000000
00000000
00000000
00000010
00000000
00000000
00000000
00010000
,  // measure 69
00000000
00000000
00000000
00001000
00000000
00000000
00000000
00011000
;
