#TITLE:Very Old Couples;
#SUBTITLE:;
#ARTIST:015B;
#TITLETRANSLIT:;
#SUBTITLETRANSLIT:;
#ARTISTTRANSLIT:;
#GENRE:Fuufu Step;
#CREDIT:Telperion;
#BANNER:;
#BACKGROUND:../fallback-bg.png;
#LYRICSPATH:;
#CDTITLE:;
#MUSIC:voc.ogg;
#OFFSET:-0.180;
#SAMPLESTART:41.834;
#SAMPLELENGTH:15.824;
#SELECTABLE:YES;
#DISPLAYBPM:121.024;
#BPMS:0.000=121.024
;
#STOPS:
;
#BGCHANGES:;
#KEYSOUNDS:;
#ATTACKS:;

//---------------dance-double - Telperion----------------
#NOTES:
     dance-double:
     Telperion:
     Challenge:
     10:
     0.552,0.548,0.086,0.289,0.311,324.000,8.000,27.000,43.000,5.000,2.000,0.552,0.548,0.086,0.289,0.311,324.000,8.000,27.000,43.000,5.000,2.000: // measure 0
00000000
00000000
00000000
00000000
,  // measure 1
00000000
00000000
00000000
00000000
,  // measure 2
00000000
00000000
00000000
00000000
,  // measure 3
00000000
00000000
00000000
00000000
,  // measure 4
00010000
00000000
00001000
00000000
01000000
00000000
01000000
00000000
01000000
00000000
00000000
10000000
00000000
00000000
01000000
00000000
,  // measure 5
00001000
00000000
00010000
00000000
00000100
00000000
00000100
00000000
00000100
00000000
00000000
00000001
00000000
00000000
00000100
00000000
,  // measure 6
00010000
00000000
00001000
00000000
00000100
00000000
00000100
00000000
00000100
00000000
00000000
00001000
00000000
00000000
00000000
00000000
,  // measure 7
00010000
00000000
01000000
00000000
10000000
00000000
10000000
00000000
10000000
00000000
00000000
00010000
00000000
00000000
00110000
00000000
,  // measure 8
10000000
00000000
00100000
00000000
01000000
00000000
00001000
00000000
00010000
00000000
00000100
00000001
00000100
00000000
00001000
00000000
,  // measure 9
00000010
00000000
00010000
00000000
00000100
00000000
00010000
00000000
00001000
00000000
01000000
10000000
01000000
00000000
00010000
00000000
,  // measure 10
00100000
00000000
00000010
00000000
00001000
00000000
00000100
00000000
00010000
00000000
00000100
00000001
00000100
00000000
00001000
00000000
,  // measure 11
00000010
00000000
00000100
00000000
00001000
00000000
00010000
00000000
00000100
00000000
00010000
00001000
00000000
00000000
00001000
00000000
,  // measure 12
00010000
00000000
00000010
00000100
00000010
00000000
00010000
00000000
00001000
00100000
00010000
00100000
01000000
00000000
10000000
00000000
,  // measure 13
00010000
00000000
01000000
00100000
01000000
00000000
00001000
00000000
00010000
00000100
00001000
00000100
00000010
00000000
00000100
00000000
,  // measure 14
00001000
00000000
00000001
00000010
00000001
00000000
00000100
00000000
00000010
00010000
00001000
00100000
00010000
00000000
10000000
00000000
,  // measure 15
01000000
00000000
10000000
00100000
10000000
00000000
00010000
00000000
00100000
00000010
00010000
00001000
01000000
00000000
00010000
00000000
,  // measure 16
00100000
00000000
00000010
00001000
00000010
00000000
00010000
00000000
00001000
00100000
00010000
00100000
00001000
00000000
00010000
00000000
,  // measure 17
00000010
00000000
00100000
00010000
00100000
00000000
00001000
00000000
01000000
00010000
01000000
00100000
01000000
00000000
00001000
00000000
,  // measure 18
00010000
00000000
01000000
10000000
01000000
00000000
00100000
00000000
00001000
00010000
00100000
00010000
00001000
00000000
00100000
00000000
,  // measure 19
00001000
00000000
00000100
00000010
00000100
00000000
00001000
00000000
00010000
00001000
00000010
00001000
00010000
00000000
00000010
00000000
,  // measure 20
00000200
00000001
00000000
00001300
00010000
00000000
02000000
10000000
00000000
03010000
00001000
00000000
01000000
00000000
00022000
00000000
,  // measure 21
00033000
00000000
00001000
00000000
01000000
00000000
00000100
00000000
00000010
00000000
00000001
00000010
00000100
00000000
0MM00000
00000000
,  // measure 22
00001000
00000000
00001000
00000000
00000100
00000000
01000000
00000000
00100000
00000000
10000000
00100000
01000000
00000000
00000MM0
00000000
,  // measure 23
10000000
00000000
01000000
00000000
00010000
00000000
00001000
00000000
00000010
00000000
00000100
00000001
00000100
00000000
0MM00000
00000000
,  // measure 24
00000010
00000000
00001000
00000000
00000100
00000000
00100000
00000000
00010000
00000000
01000000
00100000
01000000
00000000
00000MM0
00000000
,  // measure 25
00001000
00000000
00010000
00000000
00000010
00000000
00100000
00000000
00010000
00000000
10000000
01000000
00100000
00000000
00000MM0
00000000
,  // measure 26
00010000
00000000
01000000
00000000
00001000
00000000
00001000
00000000
00001000
00000000
00010000
00000100
00000010
00000000
0MM00000
00000000
,  // measure 27
00000001
00000000
00000010
00000000
00001000
00000000
00010000
00000000
00000100
00000000
00000010
00000100
00000010
00000000
0MM01000
00000000
,  // measure 28
00020000
00000000
00000000
00000000
00000000
00000000
00000000
00000000
00000000
00000000
00000000
00000000
00000000
00000000
00000000
00000000
00000000
00000000
00000000
00000000
00000000
00000000
00000000
00000000
00100000
00000000
00000000
00000000
00000000
00000000
00000000
00000000
00000000
00000000
00000000
00000000
00000000
00000000
00000000
00000000
00000000
00000000
00000000
00000000
00000000
00000000
00000000
00030000
00020000
00000000
00000000
00000000
00000000
00000000
00000000
00000000
00000000
00000000
00000000
00000000
00000000
00000000
00000000
00000000
00000000
00000000
00000000
00000000
00000000
00000000
00000000
00000000
01000000
00000000
00000000
00000000
00000000
00000000
00000000
00000000
00000000
00000000
00000000
00000000
00000000
00000000
00000000
00000000
00000000
00000000
00000000
00000000
00000000
00000000
00000000
00030000
00010000
00000000
00000000
00000000
00000000
00000000
00000000
00000000
00000000
00000000
00000000
00000000
00000000
00000000
00000000
00000000
00000000
00000000
00000000
00000000
00000000
00000000
00000000
00000000
00000000
00000000
00000000
00000000
00000000
00000000
00000000
00000000
00000000
00000000
00000000
00000000
00001000
00000000
00000000
00000000
00000000
00000000
00000000
00000000
00000000
00000000
00000000
00000000
00000000
00000000
00000000
00000000
00000000
00000000
00000000
00000000
00000000
00000000
00000000
00000000
00000000
00000000
00000000
00000000
00000000
00000000
00000000
00000000
00000000
00000000
00000000
00000000
00000100
00000000
00000000
00000000
00000000
00000000
00000000
00000000
00000000
00000000
00000000
00000000
00000000
00000000
00000000
00000000
00000000
00000000
00000000
00000000
00000000
00000000
00000000
00000000
,  // measure 29
00020220
00000000
00000000
MMM31331
,  // measure 30
00001000
00000000
00000001
00000000
00000010
00000000
00000000
00000000
00000100
00000000
00000000
00000100
00000000
00000000
00001001
00000000
,  // measure 31
00000000
00000000
00000100
00000000
00000010
00000000
00000000
00000000
00100000
00000000
00000000
00100000
00000000
00000000
00000000
00000000
,  // measure 32
01000000
00000000
10000000
00000000
01000000
00000000
00010000
00000000
01000000
00000000
00000000
10000000
00000000
00000000
00000100
00000000
,  // measure 33
00000000
00040000
00000000
00030000
00004000
00000000
00003000
00000000
,  // measure 34
00200000
000M0000
02300000
M0000000
00020000
00M00000
20030000
030M0000
,  // measure 35
30200000
0M000000
00300200
000M0000
00000302
0000M000
00000023
00000M00
,  // measure 36
00000032
0000M000
00000203
000000M0
00002000
0000000M
00003002
0000M300
,  // measure 37
00000023
00000M00
0200M030
000M0000
23M00000
000M0000
3M001000
00M00000
,  // measure 38
M0011000
00000000
00001000
00000000
00010000
00000000
00000010
00000000
00010000
00000000
00100000
10000000
00100000
00000000
000000MM
00000000
,  // measure 39
01000000
00000000
00001000
00000000
00010000
00000000
00010000
00000000
00001000
00000000
00000010
00000001
00000010
00000000
MM000000
00000000
,  // measure 40
00000100
00000000
00001000
00000000
00000010
00000000
00001000
00000000
00001000
00000000
00100000
10000000
00100000
00000000
M001000M
00000000
,  // measure 41
00002000
00000000
00000000
00000000
00000000
00000000
00000000
00000000
00000000
00000000
00000000
00000000
00000000
00000000
00000000
00000000
00000000
00000000
00000000
00000000
00000000
00000000
00000000
00000000
00000010
00000000
00000000
00000000
00000000
00000000
00000000
00000000
00000000
00000000
00000000
00000000
00000000
00000000
00000000
00000000
00000000
00000000
00000000
00000000
00000000
00000000
00000000
00003000
00002000
00000000
00000000
00000000
00000000
00000000
00000000
00000000
00000000
00000000
00000000
00000000
00000000
00000000
00000000
00000000
00000000
00000000
00000000
00000000
00000000
00000000
00000000
00000000
00000100
00000000
00000000
00000000
00000000
00000000
00000000
00000000
00000000
00000000
00000000
00000000
00000000
00000000
00000000
00000000
00000000
00000000
00000000
00000000
00000000
00000000
00000000
00003000
00001000
00000000
00000000
00000000
00000000
00000000
00000000
00000000
00000000
00000000
00000000
00000000
00010000
00000000
00000000
00000000
00000000
00000000
00000000
00000000
00000000
00000000
00000000
00000000
00000000
00000000
00000000
00000000
00000000
00000000
00000000
00000000
00000000
00000000
00000000
00000000
00000010
00000000
00000000
00000000
00000000
00000000
00000000
00000000
00000000
00000000
00000000
00000000
00001000
00000000
00000000
00000000
00000000
00000000
00000000
00000000
00000000
00000000
00000000
00000000
00000010
00000000
00000000
00000000
00000000
00000000
00000000
00000000
00000000
00000000
00000000
00000000
00010000
00000000
00000000
00000000
00000000
00000000
00000000
00000000
00000000
00000000
00000000
00000000
00001000
00000000
00000000
00000000
00000000
00000000
00000000
00000000
00000000
00000000
00000000
00000000
,  // measure 42
00100000
00000000
01000000
00000000
10000000
00000000
10000000
00000000
10000000
00000000
00000000
00001000
00000000
00000000
00000100
00000000
,  // measure 43
00000001
00000000
00001000
00000000
00000010
00000000
00000010
00000000
00000010
00000000
00000000
01100000
00000000
00000000
00000000
00000000
,  // measure 44
10000000
00000000
00001000
00000000
00100000
00000000
00000010
00000000
00001000
00000000
00000000
00010000
00000000
00000000
00001000
00000000
,  // measure 45
00000100
00000000
00000010
00000000
00000001
00000000
00000001
00000000
00000001
00000000
00000000
00000010
00000000
00000000
00000100
00000000
,  // measure 46
00001210
00000000
00000300
00000000
;

//---------------dance-double - Telperion----------------
#NOTES:
     dance-double:
     Telperion:
     Hard:
     8:
     0.493,0.473,0.150,0.139,0.198,295.000,14.000,13.000,0.000,0.000,0.000,0.493,0.473,0.150,0.139,0.198,295.000,14.000,13.000,0.000,0.000,0.000:
00000000
00000000
00000000
00000000
,
00000000
00000000
00000000
00000000
,
00000000
00000000
00000000
00000000
,
00000000
00000000
00000000
00000000
,
10000000
00010000
01000000
00010000
00100000
00000000
00000000
00000000
,
01000000
00100000
00001000
00100000
00001000
00000000
00000000
00000000
,
00010000
00000010
00001000
00000010
00000100
00000000
00000000
00000000
,
00000001
00000000
00001000
00000000
00000100
00000000
00001000
00000000
00000010
00000000
00000000
00000200
00000000
00000000
00000300
00000000
,
00000001
00000100
00000010
00000100
00001000
00000000
00001000
00000000
,
00010000
01000000
00100000
01000000
10000000
00000000
10000000
00000000
,
00100000
00010000
00100000
01000000
00001000
00000000
00001000
00000000
,
00010000
00000000
00000100
00000000
00000010
00000000
00000100
00000000
00001000
00000000
00000000
00000002
00000000
00000000
00000003
00000000
,
00000010
00000000
00000100
00000000
00010000
00000000
00001000
00000000
01000000
00000000
00010000
01000000
00010000
00000000
00010000
00000000
,
01000000
00000000
00001000
00000000
00010000
00000000
00000100
00000000
00000010
00000000
00000100
00001000
00000100
00000000
00000100
00000000
,
00010000
00000000
00001000
00000000
01000000
00000000
00010000
00000000
00100000
00000000
01000000
00100000
01000000
00000000
01000000
00000000
,
10000000
00000000
01000000
00000000
00010000
00000000
00001000
00000000
00000010
00000000
00000001
00000100
00000001
00000000
00000010
00000000
,
00000100
00000000
00001000
00000000
00000010
00000000
00010000
00000000
00001000
00000000
00100000
00010000
00100000
00000000
00001000
00000000
,
01000000
00000000
00010000
00000000
00100000
00000000
00001000
00000000
00010000
00000000
00000010
00001000
00000010
00000000
00000100
00000000
,
00000001
00000000
00000100
00000000
00001000
00000000
00010000
00000000
00000100
00000000
00001000
00000100
00001000
00000000
00000100
00000000
,
00010000
00000000
00001000
00000000
00010000
00000000
01000000
00000000
10000000
00000000
00010000
01000000
00010000
00000000
00000000
00000000
,
10000000
01000000
00000000
01000000
00010000
00000000
00001000
00000100
00000000
00000100
00000001
00000000
00001000
00000000
00000210
00000000
,
00000300
00000000
00000001
00000000
00000100
00000000
00000010
00000000
00000100
00000000
00000001
00000100
00000000
00000000
00001000
00000000
,
00010000
00000000
00000100
00000000
00010000
00000000
00001000
00000000
00010000
00000000
01000000
00100000
00000000
00000000
01100000
00000000
,
01000000
00000000
10000000
00000000
00010000
00000000
10000000
00000000
01000000
00000000
00100000
01000000
00000000
00000000
00010000
00000000
,
00001000
00000000
00000100
00000000
00000010
00000000
00000100
00000000
00000001
00000000
00001000
00000001
00000000
00000000
00001001
00000000
,
00000010
00000000
00000001
00000000
00000100
00000000
00000010
00000000
00001000
00000000
00000100
00000010
00000000
00000000
00001000
00000000
,
00010000
00000000
00000010
00000000
00010000
00000000
00001000
00000000
01000000
00000000
01000000
00100000
00000000
00000000
10100000
00000000
,
10000000
00000000
00100000
00000000
01000000
00000000
00010000
00000000
00100000
00000000
01000000
00100000
00000000
00000000
00001000
00000000
,
00010000
00000000
00001000
00000000
00100000
00000000
00001000
00000000
00010000
00000100
00001000
00000100
00010000
00000000
00001000
00000000
,
02000200
00000000
00000000
03000300
,
01000000
00000000
00010000
00000000
10000000
00000000
00000000
00000000
01010000
00000000
00000000
01001000
00000000
00000000
00011000
00000000
,
00000000
00000000
00000100
00000000
00000100
00000000
00010000
00000100
00001000
00000000
00000001
00001000
00000100
00000000
00000010
00000000
,
00000100
00000000
00001000
00000000
00000001
00000000
00000000
00000000
00001100
00000000
00000000
00010010
00000000
00000000
00011000
00000000
,
00000000
00000000
00001000
00010000
00001000
00010000
00000000
00000000
00001000
00010000
00001000
00010000
00000000
00000000
00000000
00000000
,
00000200
00000000
00001300
00000100
,
00000020
00000000
00000130
00001000
,
00000002
00000000
00000103
00000001
,
00002000
00003000
00000200
00000300
00020000
00000000
00031000
00000000
,
00011000
00001000
01000000
00010000
00100000
00000000
00100000
00000000
,
00010000
01000000
00100000
01000000
10000000
00000000
10000000
00000000
,
01000000
00010000
00100000
00001000
00010000
00000000
00010000
00001000
,
00000010
00000000
00000001
00000000
00000010
00000000
00001000
00000000
00000010
00000100
00000000
00000100
00001000
00000000
00000100
00000000
,
00010000
00000000
00001000
00000000
00100000
00000000
00001000
00000000
01000000
00000000
00010000
01000000
00000000
00000000
01010000
00000000
,
00010000
00000000
01000000
00000000
00100000
00000000
01000000
00000000
10000000
00000000
01000000
00020000
00030000
00000000
00000000
00000000
,
00100000
00000000
00010000
00000000
00100000
00000000
01000000
00000000
10000000
00000000
00010000
01000000
00000000
00000000
01010000
00000000
,
10000000
00000000
10000000
00000000
01000000
00000000
01000000
00000000
00100000
00000000
00010000
00100000
00010000
00000000
00100000
00000000
,
00002000
00000000
00003000
00000000
;
