#TITLE:桃花恋情;
#SUBTITLE:;
#ARTIST:TËЯRA;
#TITLETRANSLIT:Toukarenjou;
#SUBTITLETRANSLIT:;
#ARTISTTRANSLIT:TERRA;
#GENRE:Hyper Chinese Pop;
#CREDIT:Telperion;
#BANNER:;
#BACKGROUND:../fallback-bg.png;
#LYRICSPATH:;
#CDTITLE:;
#MUSIC:tkrj-2.ogg;
#OFFSET:-0.287;
#SAMPLESTART:49.603;
#SAMPLELENGTH:20.757;
#SELECTABLE:YES;
#DISPLAYBPM:92.500;
#BPMS:0.000=92.500
;
#STOPS:
;
#BGCHANGES:;
#KEYSOUNDS:;
#ATTACKS:;

//---------------dance-double - Telperion----------------
#NOTES:
     dance-double:
     Telperion:
     Challenge:
     9:
     0.451,0.425,0.071,0.111,0.468,375.000,9.000,14.000,1.000,0.000,8.000,0.451,0.425,0.071,0.111,0.468,375.000,9.000,14.000,1.000,0.000,8.000:
00000000
00000000
00000000
00000000
,
00000000
00000000
00000000
00000000
,
00000000
00000000
00000000
00000000
,
00010000
00000000
00000000
00000000
00000000
00000000
00000000
00000000
00100000
00000000
00000000
00000000
00010000
00000000
00000000
00000000
10000000
00000000
00000000
00000000
00100000
01000000
00100000
01000000
00010000
00000000
00000000
00000000
02000000
00000000
00000000
00000000
,
00001000
00000000
00000000
00000000
00100000
00000000
00000000
00000000
03000000
00000000
00001000
00010000
00001000
00000000
00000100
00000000
,
00000001
00000000
00000000
00000000
00000000
00000000
00000000
00000000
00000010
00000000
00000000
00000000
00000001
00000000
00000000
00000000
00001000
00000000
00000000
00000000
00000010
00000100
00000010
00000100
00000001
00000000
00000000
00000000
00000100
00000000
00000000
00000000
,
00000020
00001000
00000130
00000000
,
00000001
00000000
00000000
00000001
00000100
00000000
00000010
00000000
00001000
00000000
00000000
00000100
00010000
00001000
00000000
00010000
,
00000100
00000000
00000000
00000100
00000010
00000000
00000100
00000000
00010000
00000000
00000000
00001000
01000000
00010000
00000000
01000000
,
00100000
00000000
00000000
00100000
01000000
00000000
00100000
00000000
10000000
00000000
00000000
00010000
00100000
00010000
00000000
10000000
,
00010000
00000000
01000000
00100000
00010000
00000000
00001000
00000000
00000010
00000000
00000000
00000100
00001000
00000100
00000000
00001000
,
00000001
00000000
00000000
00000000
00000000
00000000
00000000
00000000
00000000
00000001
00000000
00000000
00000100
00000000
00000000
00000000
00000000
00000000
00000001
00000000
00000000
00000000
00000000
00000000
00001000
00000000
00000001
00000000
00001000
00000000
00000001
00000000
00001000
00000000
00000001
00000000
00001000
00000000
00000000
00000000
00000000
00000000
00000100
00000000
00000000
00000000
00000000
00000000
,
00000010
00000000
00000000
00000010
00001000
00000000
00010000
00000000
00100000
00000000
00000000
01000000
00010000
01000000
00000000
00100000
,
10000000
00000000
00000000
10000000
01000000
00000000
00010000
00000000
00001000
00000000
00000000
00100000
00010000
00100000
00000000
00001000
,
00010000
00000000
00000000
00010000
00001000
00000000
00000100
00000000
00000001
00000000
00000000
00000000
00000010
00000000
00000100
00000000
,
00001000
00000000
00000000
00001000
00000100
00000000
00000000
00000100
00040000
00030000
00001000
01000000
00001000
00000000
00010000
00000000
,
04000000
03000000
10000000
00010000
10000000
00000000
01000000
00000000
00400000
00300000
00000000
00000000
04000000
03000000
00000000
00000000
,
40000000
30000000
00010000
01000000
00000000
00000000
00100000
00000000
00040000
00030000
00001000
00100000
00000000
00000000
00001000
00000000
,
00000400
00000300
00000010
00000100
00001000
00000000
00000100
00000000
00000004
00000003
00000010
00000001
00000010
00000100
00001000
00000200
,
00000300
00000000
00000000
00000000
00000011
00000010
00000100
00010000
,
00001100
00000000
00000000
00000000
00011000
00000000
00000000
00000000
01000000
00001000
00000000
00010000
00001000
00000000
00001000
00000000
,
01000000
00000000
00000000
00001000
00000000
00000000
00000000
00000000
00010000
00000000
00001000
00000000
00010000
00000000
00000000
00000000
00000000
00000000
00000000
00000000
00000000
00000000
00000000
00000000
00000100
00000000
00000000
00000000
00000000
00000000
00000010
00000000
00000000
00000100
00000000
00000000
00001000
00000000
00000000
00000000
00000000
00000000
00010000
00000000
00000000
00000000
00000000
00000000
,
01000000
00000000
00100000
01000000
00010000
00000000
00001000
00000000
00000100
00010000
00000000
00001000
00010000
00000000
00010000
00000000
,
00000100
00001000
00000100
00010000
00001000
00000000
00000000
00000000
01000000
00000000
00010000
01000000
00010000
00000000
00100000
00000000
,
01000000
00000000
00000000
00000000
10000000
00000000
01000000
00000000
00010000
00000000
00001000
00010000
01000000
00000000
00100000
00000000
,
00000100
00000000
00000000
00000000
00000001
00000000
00000100
00000000
00001100
00000000
00000001
00000100
00000010
00000000
00000100
00000000
,
00000101
00000000
00001000
00000100
00010000
00000000
00001000
00000000
00011000
00000000
00000000
00000000
00101000
00000000
00000000
00000000
,
10001000
00000000
01000000
00000000
02100000
00000000
03000000
00000000
10000000
01000000
10000000
00010000
01000000
00010000
00100000
01000000
,
10000000
00000000
00010000
00100000
00010000
01000000
00010000
00000000
01000000
00000000
00100000
01000000
00010000
00000000
01000000
00000000
,
00001000
00000000
01000000
00000100
00010000
00000000
00000100
00000000
00000010
00000001
00001000
00000001
00000100
00000010
00001000
00000010
,
00000100
00000000
00000001
00000100
00000001
00000000
00001000
00000000
00000010
00000000
00001000
00000100
00000010
00000000
00000100
00000000
,
00010000
00000100
00010000
00000000
00001000
00000000
01000000
00000000
00100000
10000000
00100000
10000000
00100000
01000000
00100000
01000000
,
00010000
00000000
10000000
01000000
00100000
00000000
01000000
00000000
00020000
00000000
00031000
00000100
00000002
00000000
00000103
00000000
,
00000010
00000100
00000010
00000000
00001000
00000000
00000100
00000000
00010000
00000000
01000000
00000000
10000000
01000000
00100000
00010000
,
01000000
00000000
00001000
00000000
00010000
00000100
00000010
00000001
00000100
00000001
00000100
00000010
00001000
00000000
00000100
00010000
,
00001000
01000000
00001000
01000000
00100000
00000000
01000000
00010000
20000000
00000000
00000000
00000000
31000000
00000000
10000000
00000000
,
00100000
00010000
00100000
01000000
00020000
00000000
01030000
00001000
,
00020000
00000000
00000000
00000000
00030100
00000000
00000010
00000000
00000001
00000000
00001000
00000002
00000000
00000000
00000103
00000000
,
00000010
00000001
00000010
00000100
00000002
00000000
00001003
00000001
,
00001000
00000100
00001000
00000100
00001000
00000000
00000001
00000000
00001000
00000000
00000000
00000000
00000100
00000000
00000000
00000000
00000010
00000000
00000000
00000000
00000000
00000000
00000100
00000000
00000010
00000000
00000100
00000000
00000000
00000000
00000100
00000000
,
00001000
00000100
00000010
00002000
00003000
00010000
00200000
00000000
,
00310000
00000000
00001000
01000000
00200000
00000000
00000000
00000000
,
00000000
00000000
00000000
00000000
00000000
00000000
00000000
00000000
10300000
00100000
00000000
01000000
00010000
01000000
00000000
00001000
,
00010000
00000000
00000000
00000000
00000000
00000000
00000000
00000000
00000000
00000000
00000000
00000000
00000000
00000000
00000000
00000000
00000000
00000000
00000000
00000000
00000000
00000000
00000000
00000000
00000100
00000000
00000000
00000000
00000000
00000000
00000000
00000000
00000000
00000000
00000000
00000000
00001000
00000000
00000000
00000000
00000000
00000000
00000000
00000000
00000000
00000000
00000000
00000000
00000100
00000000
00000000
00000000
00000000
00000000
00000000
00000000
00010000
00000000
00000000
00000000
00000000
00000000
00000000
00000000
00000100
00000000
00000000
00000000
00000000
00000000
00000000
00000000
00010000
00000000
00000000
00000000
00000000
00000000
00000000
00000000
00000100
00000000
00000000
00000000
00000000
00000000
00000000
00000000
00010000
00000000
00000000
00000000
00000000
00000000
00000000
00000000
00001000
00000000
00000000
00000000
00000000
00000000
00000000
00000000
00000000
00000000
00000000
00000000
00010000
00000000
00000000
00000000
00000000
00000000
00000000
00000000
00000000
00000000
00000000
00000000
00001000
00000000
00000000
00000000
00000000
00000000
00000000
00000000
00000000
00000000
00000000
00000000
00000000
00000000
00000000
00010000
00000000
00000000
00000000
00000000
00000000
00000000
00000000
00000000
00000000
00000000
00000000
00000000
00000000
00000000
00001000
00000000
00000000
00000000
00000000
00000000
00000000
00000000
00000000
00000000
00000000
00000000
00000000
00000000
00000000
00000000
00000000
00000000
00010000
00000000
00000000
00000000
00000000
00000000
00000000
00000000
00000000
00000000
00000000
00000000
00000000
00000000
00000000
00000000
00000000
00000000
00001000
00000000
00000000
00000000
00000000
00000000
,
00000000
00000000
00000000
00000000
00000000
00010000
00000000
00000000
00000000
00000000
00000000
00000000
00001000
00000000
00000000
00000000
00000000
00000000
00000000
00000000
00000000
00000000
00010000
00000000
00000000
00000000
00000000
00000000
00000000
00000000
00000000
00000000
00001000
00000000
00000000
00000000
00000000
00000000
00000000
00000000
000M0000
00000000
00000000
00000000
00000000
00000000
00000000
00000000
00000000
00000000
00000000
00000000
00000000
00000000
00000000
00000000
00000000
00000000
00000000
00000000
00000000
00000000
00000000
00000000
;

//---------------dance-double - Telperion----------------
#NOTES:
     dance-double:
     Telperion:
     Hard:
     6:
     0.265,0.282,0.000,0.024,0.000,231.000,0.000,3.000,0.000,0.000,0.000,0.265,0.282,0.000,0.024,0.000,231.000,0.000,3.000,0.000,0.000,0.000: // measure 0
00000000
00000000
00000000
00000000
,  // measure 1
00000000
00000000
00000000
00000000
,  // measure 2
00000000
00000000
00000000
00000000
,  // measure 3
00000010
00000000
00001000
00000010
00000100
00000000
00000001
00001000
,  // measure 4
00000100
00000000
00000010
00000000
00000000
00000000
00001000
00010000
,  // measure 5
00100000
00000000
10000000
00100000
01000000
00010000
01000000
00000000
,  // measure 6
00001000
00010000
00001000
00000000
,  // measure 7
00000100
00000000
00000001
00000010
00000100
00000000
00001000
00000100
,  // measure 8
00000001
00001000
00000010
00001000
00010000
00000000
00000100
00010000
,  // measure 9
00001000
00000000
00000000
01000000
00001000
00010000
00100000
10000000
,  // measure 10
00010000
10000000
01000000
00010000
00001000
00000000
01000000
00100000
,  // measure 11
10000000
00000000
01000000
00100000
00010000
00000000
01000000
00100000
,  // measure 12
10000000
00010000
00100000
00010000
01000000
00000000
10000000
01000000
,  // measure 13
00010000
00000000
10000000
01000000
00010000
00001000
00000010
00000001
,  // measure 14
00000100
00001000
00000100
00000001
00000010
00000000
00000100
00000010
,  // measure 15
00000100
00000000
00000000
00000000
00000000
00000100
00010000
00001000
,  // measure 16
01000000
00000000
00001000
00010000
00000010
00000000
00000100
00000001
,  // measure 17
00001000
00000000
00000100
00000000
00010000
00001000
00100000
00010000
,  // measure 18
10000000
00010000
01000000
00010000
00200000
00000000
00000000
00000000
,  // measure 19
00300000
00000000
00000000
00000000
10000000
00000000
00000000
10000000
,  // measure 20
01000000
00010000
00001000
00000100
,  // measure 21
00000001
00000000
00000000
00000000
00001000
00000000
00000000
00000001
,  // measure 22
00000100
00000000
00001000
00000000
00010000
00000000
01000000
10000000
,  // measure 23
00010000
00000000
01000000
00010000
10000000
00000000
00010000
00100000
,  // measure 24
01000000
00000000
10000000
01000000
00010000
00000000
00001000
00000010
,  // measure 25
00000100
00000000
00000010
00000001
00001000
00000000
00000010
00001000
,  // measure 26
00000001
00000010
00000100
00010000
00001000
00000000
00001000
00000000
,  // measure 27
00001000
00100000
00010000
00000000
01000000
00010000
01000000
00010000
,  // measure 28
10000000
00100000
00010000
00001000
00000100
00000001
00000100
00000001
,  // measure 29
00001000
00000100
00001000
00000001
00000010
00000100
00010000
00001000
,  // measure 30
00000010
00001000
00010000
01000000
00100000
01000000
10000000
00010000
,  // measure 31
01000000
00010000
10000000
01000000
00010000
01000000
10000000
00100000
,  // measure 32
10000000
00100000
01000000
00010000
00100000
00001000
00000010
00001000
,  // measure 33
00010000
00000100
00000010
00000100
00001000
00000001
00000010
00000001
,  // measure 34
00001000
00000010
00001000
00000001
00000100
00000010
00001000
00010000
,  // measure 35
01000000
00100000
10000000
01000000
00100000
00000000
00000000
00000000
,  // measure 36
10000000
00100000
00010000
01000000
,  // measure 37
00100000
00000000
01000000
00010000
00100000
00000000
01000000
00010000
,  // measure 38
00001000
00000010
00000100
00001000
00000001
00000000
00000100
00000001
,  // measure 39
00000000
00000100
00000000
00000000
00000010
00000000
00000010
00000000
,  // measure 40
00000010
00000000
00001000
00000010
,  // measure 41
00001000
00000000
00000100
00010000
00200000
00000000
00000000
00000000
,  // measure 42
00300000
00000000
00010000
00001000
,  // measure 43
01000000
00010000
00200000
00000000
,  // measure 44
00000000
00000000
00300000
00000000
;
