#TITLE:The Zoo Zone;
#SUBTITLE:;
#ARTIST:Mystic Moon;
#TITLETRANSLIT:;
#SUBTITLETRANSLIT:;
#ARTISTTRANSLIT:;
#GENRE:Animal Minimal;
#CREDIT:Telperion;
#BANNER:zoozone-bn.png;
#BACKGROUND:../fallback-bg.png;
#LYRICSPATH:;
#CDTITLE:;
#MUSIC:zoozone.ogg;
#OFFSET:-0.978;
#SAMPLESTART:14.487;
#SAMPLELENGTH:23.980;
#SELECTABLE:YES;
#DISPLAYBPM:160.000;
#BPMS:0.000=160.000
,32.750=240.000
,33.750=160.000
,39.500=80.000
,39.688=400.000
,40.000=160.000
,43.500=80.000
,43.688=400.000
,44.000=160.000
,47.500=80.000
,47.688=400.000
,48.000=160.000
,55.500=80.000
,55.688=400.000
,56.000=160.000
,59.500=80.000
,59.688=400.000
,60.000=160.000
,63.500=80.000
,63.688=400.000
,64.000=160.000
,71.500=80.000
,71.688=400.000
,72.000=160.000
,75.500=80.000
,75.688=400.000
,76.000=160.000
,79.500=80.000
,79.688=400.000
,80.000=160.000
,87.500=80.000
,87.688=400.000
,88.000=160.000
,91.500=80.000
,91.688=400.000
,92.000=160.000
,95.500=240.000
,98.000=160.000
,98.500=240.000
,99.000=160.000
,99.500=400.000
,99.813=80.000
,100.000=160.000
,103.500=400.000
,103.813=80.000
,104.000=160.000
,107.500=400.000
,107.813=80.000
,108.000=160.000
,111.500=400.000
,111.813=80.000
,112.000=160.000
,113.000=400.000
,113.313=80.000
,113.500=160.000
,115.500=400.000
,115.813=80.000
,116.000=160.000
,119.500=400.000
,119.813=80.000
,120.000=160.000
,123.500=400.000
,123.813=80.000
,124.000=160.000
,125.500=400.000
,125.813=80.000
,126.000=160.000
,147.000=120.000
,147.500=240.000
,148.000=160.000
,155.000=320.000
,155.250=160.000
,162.000=240.000
,163.500=120.000
,164.000=320.000
,165.000=240.000
,166.000=160.000
,169.000=240.000
,170.000=160.000
,173.000=240.000
,174.000=160.000
,177.000=240.000
,178.000=160.000
,183.500=400.000
,183.813=80.000
,184.000=160.000
,187.500=400.000
,187.813=80.000
,188.000=160.000
,189.500=400.000
,189.813=80.000
,190.000=160.000
,191.500=400.000
,191.813=80.000
,192.000=160.000
,196.000=53.333
,198.000=320.000
,198.500=160.000
,203.500=80.000
,203.688=400.000
,204.000=160.000
,219.500=80.000
,219.688=400.000
,220.000=160.000
,227.500=240.000
,230.000=160.000
,230.500=240.000
,231.000=160.000
,248.000=240.000
,250.000=160.000
;
#STOPS:32.750=0.062,
33.250=0.063,
95.500=0.125,
96.500=0.125,
97.500=0.063,
98.500=0.062,
155.000=0.031,
162.000=0.042,
162.333=0.042,
162.667=0.041,
164.000=0.188,
165.000=0.042,
165.333=0.042,
165.667=0.041,
169.000=0.042,
169.333=0.042,
169.667=0.041,
173.000=0.042,
173.333=0.042,
173.667=0.041,
177.000=0.042,
177.333=0.042,
177.667=0.041,
198.000=0.094,
227.500=0.125,
228.500=0.125,
229.500=0.063,
230.500=0.062,
248.000=0.063,
248.500=0.062,
249.000=0.063,
249.500=0.062
;
#BGCHANGES:;
#KEYSOUNDS:;
#ATTACKS:;

//---------------dance-double - Telperion----------------
#NOTES:
     dance-double:
     Telperion:
     Challenge:
     11:
     0.766,0.745,0.241,0.473,0.626,501.000,26.000,51.000,156.000,0.000,0.000,0.766,0.745,0.241,0.473,0.626,501.000,26.000,51.000,156.000,0.000,0.000: // measure 0
MM0000MM
M000000M
M000000M
M000000M
M000000M
M000000M
M000000M
M000000M
,  // measure 1
00000000
M0000000
00000000
0000000M
00000000
M0000000
00000000
0000000M
,  // measure 2
00000000
M0000000
00000000
0000000M
00000000
M0000000
00000000
0000000M
,  // measure 3
00000000
M0000000
00000000
0000000M
00000000
00000000
000000MM
00000000
,  // measure 4
MM010010
M0000000
M0000010
M0000000
M0000100
M0000000
M0000100
M0000000
,  // measure 5
00000001
M0000000
00000001
M0000000
00000010
M0000000
00001000
M0000010
,  // measure 6
MM000001
00000100
00000010
00000100
MM001000
00010000
00001000
01000000
,  // measure 7
0001000M
00000000
10000000
00100000
0000000M
01000000
00001000
00010000
0000000M
00000100
00001000
00000100
0001000M
00000100
00001000
00000000
,  // measure 8
00000002
00000000
00000000
00000000
00000000
00000000
00000000
00000003
00000000
00000000
00001000
00000100
00010000
00001000
01000000
00000000
,  // measure 9
000MM000
00000000
00100000
00000000
01000000
00100000
01000000
00000000
00100000
00000000
00000000
10000000
00000000
00000000
02000000
00000000
,  // measure 10
M3000000
00000000
00010000
00000000
01000000
10000000
00000000
10000000
00100000
00000000
00010000
00000000
00001000
00000000
00000020
00000000
,  // measure 11
00000M3M
00000000
00001000
00000000
00000100
00000001
00000000
00000001
00000010
00000000
00001000
00000000
00010000
00000000
02000000
00000000
,  // measure 12
M3M00000
00000000
00010000
00000000
00100000
10000000
00000000
00100000
01000000
00000000
00010000
01000000
00001000
00010000
00000100
00000000
,  // measure 13
00000000
00000000
00000010
00000000
00000100
00000010
00000100
00000000
00000010
00000000
00000000
00000001
00000000
00000000
00000200
00000000
,  // measure 14
0000030M
00000000
00000001
00000000
00000010
00000001
00000000
00000001
00000100
00000000
00001000
00000000
00010000
00000000
02000000
00000000
,  // measure 15
M3M00000
00000000
00010000
00000000
00100000
10000000
00000000
10000000
01000000
00000000
00010000
00000000
00001000
00000000
00000200
00000000
,  // measure 16
000003MM
00000000
00000001
00000000
00000010
00000000
00001000
00000000
00010000
00000000
01000000
10000000
01000000
00000000
00100000
00000000
,  // measure 17
01100MM0
00000000
10010000
00000000
01000000
00010000
00001000
00000020
,  // measure 18
0000M030
00000000
00000001
00000000
00000010
00001000
00000000
00001000
00000100
00000000
01000000
00000000
00010000
00000000
00200000
00000000
,  // measure 19
003M0000
00000000
10000000
00000000
00100000
00010000
00000000
00010000
01000000
00000000
00000100
00000000
00001000
00000000
00000020
00000000
,  // measure 20
0000M030
00000000
00000001
00000000
00000010
00001000
00000000
00000010
00000100
00000000
00000001
00000000
00000001
00000000
00000000
00000000
,  // measure 21
0MM00110
00000000
00001001
00000000
00000100
00001000
00010000
00200000
,  // measure 22
MM300000
00000000
00010000
00000000
01000000
10000000
00000000
10000000
00100000
00000000
00010000
00000000
00001000
00000000
00000200
00000000
,  // measure 23
0000M300
00000000
00000001
00000000
00000010
00000100
00000000
00000010
00001000
00000000
00010000
00000000
00000100
00000000
00011000
00000000
,  // measure 24
00000000
00011000
00000000
00011000
00100000
00110000
00M1M000
00000002
,  // measure 25
00000003
00000000
00000010
00000000
00000001
00001000
00000100
00001000
00000010
00000000
00001000
00000000
000M1M00
00000000
20000000
00000000
,  // measure 26
30000000
00000000
00100000
00000000
10000000
00010000
01000000
00010000
10000000
00000000
00010000
00000000
00M1M000
00000000
00000002
00000000
,  // measure 27
00000003
00000000
00000010
00000000
00000001
00001000
00000010
00001000
00000100
00000000
00001000
000M0M00
00001000
00000000
20000000
00000000
,  // measure 28
30010000
00000000
00M1M000
00000000
00000002
00000000
00001003
00000000
000M2M00
00000000
00013000
00000100
00000000
00000000
20000000
00000000
,  // measure 29
30000000
00000000
00100000
00000000
200M0000
30100000
01000000
00010000
01000000
00000000
00010000
00000000
00M1M000
00000000
00000002
00000000
,  // measure 30
00000003
00000000
00000010
00000000
0000M002
00000013
00000100
00001000
00000100
00000000
00001000
00000000
000M1M00
00000000
20000000
00000000
,  // measure 31
30100000
00000000
01000000
00010000
01000000
00000000
M0200000
00000000
00310000
00000000
00001000
01000000
00001000
00000000
0M020000
00000000
,  // measure 32
01030000
00000000
00000000
00000000
00000000
00000000
00000000
00000000
00M20000
00000000
00000000
00000000
00000000
00000000
00000000
00000000
00031000
00000000
00000000
00000000
00000000
00000000
00000000
00000000
000M0200
00000000
00000000
00000000
00000000
00000000
00000000
00000000
00000301
00000000
00000000
00000000
0000M010
00000000
00000000
00000000
00000000
00000000
00000000
00000000
00000010
00000000
00000000
00000000
00000100
00000000
00000000
00000000
00000000
00000000
00000000
00000000
000020M0
00000000
00000000
00000000
00000000
00000000
00000000
00003000
,  // measure 33
0001020M
00000000
00000000
00000000
00000000
00000000
00000000
00000000
00000320
00000000
00000000
00000000
00000000
00000000
00000000
00000100
00000000
00000000
00000000
00000000
00000000
00000000
00000000
00000000
00000000
00000000
00000000
00000000
00000000
00000000
00000000
00000000
,  // measure 34
00000000
00000000
00000000
00000000
00000000
00000000
00000000
00000000
00000000
00000000
00000000
00000000
00000000
00000000
00000000
00000030
0000001M
00000000
00000000
00000000
00000000
00000000
00000000
00000000
00000100
00000000
00000000
00000000
00000000
00000000
00000000
00000000
00010000
00000000
00000000
00000000
00000000
00000000
00000000
00000000
00000000
00000000
00000000
00000000
00000000
00000000
00000000
00000000
00000M00
00000000
00000000
00000000
00000000
00000000
00000000
00000000
00001000
00000000
00000000
00000000
00000000
00000000
00000000
00000000
,  // measure 35
01000000
00000000
00000000
00000000
00000000
00000000
00000000
00000000
00000000
00000000
00000000
00000000
00000000
00000000
00000000
00000000
00200000
00000000
00000000
00000000
00000000
00000000
00000000
00000000
00000000
00000000
00000000
00000000
00000000
00000000
00000000
00300000
001M0000
00000000
00000000
00000000
00000000
00000000
00000000
00000000
01000000
00000000
00000000
00000000
00000000
00000000
00000000
00000000
00010000
00000000
00000000
00000000
00000000
00000000
00000000
00000000
00000000
00000000
00000000
00000000
00000000
00000000
00000000
00000000
,  // measure 36
001M0000
00000000
01000000
00000000
00010000
00000000
00000000
00000000
001M0000
10000000
01000000
10000000
00010000
00000000
00000000
00000000
,  // measure 37
010M10M0
00000000
00000000
00000000
00000000
00000000
00000000
00000000
00000000
00000000
00000000
00000000
00000000
00000000
00000000
00000000
01000000
00000000
00000000
00000000
00000000
00000000
00000000
00000000
01000000
00000000
00000000
00000000
00000000
00000000
00000000
00000000
00000000
00000000
00000000
00000000
00000000
00000000
00000000
00000000
00200000
00000000
00000000
00000000
00000000
00000000
00000000
00300000
00200000
00000000
00000000
00000000
00000000
00000000
00000000
00000000
01300000
00000000
00000000
00000000
00000000
00000000
00000000
00000000
,  // measure 38
00001000
00000000
00000000
00000000
00010000
00000000
00001000
00000000
01000000
00000000
00000000
00000000
00010000
00020000
00030000
00000000
,  // measure 39
00010000
00000000
00000000
00000000
00000000
00000000
00000000
00000000
00000000
00000000
00000000
00000000
00000000
00000000
00000000
00000000
01000000
00000000
00000000
00000000
00000000
00000000
00000000
00000000
00000100
00000000
00000000
00000000
00000000
00000000
00000000
00000000
00000000
00000000
00000000
00000000
00000000
00000000
00000000
00000000
00000020
00000000
00000000
00000000
00000000
00000000
00000000
00000030
00000020
00000000
00000000
00000000
00000000
00000000
00000000
00000000
00000130
00000000
00000000
00000000
00000000
00000000
00000000
00000000
,  // measure 40
00001000
00000000
00000000
00000000
00000000
00000000
00000000
00000000
00000000
00000100
00000000
00000000
M0002002
00000000
0M000000
00000000
00M00000
00000000
000M0000
00000000
00000000
00000000
00000000
00000000
,  // measure 41
00003003
00000000
00000000
00000000
00000000
00000000
MM000011
00000000
00000010
00000000
00001000
00000000
00010000
00000000
00000000
00100000
00000000
00000000
00010000
00000000
00000000
00001000
00000000
00000000
,  // measure 42
00010000
00000000
00000000
00M11M00
00010000
01000000
10000000
00100000
10000000
00100000
10000000
00100000
,  // measure 43
01000000
00000000
00000000
00000000
00000000
00000000
10100M0M
00000000
00100000
00000000
00010000
00000000
00001000
00000000
00000000
00000010
00000000
00000000
00001000
00000000
00000000
00010000
00000000
00000000
,  // measure 44
00001000
00000000
00000000
00M11M00
00001000
00000100
00000010
00001000
00000001
00001000
00000010
00001000
,  // measure 45
00000001
00000000
00000010
00000001
00000100
00000000
00000001
00000000
00000010
00000001
00001000
00000000
00000100
00000000
2000000M
00000000
,  // measure 46
30010000
00000000
01000000
00010000
00100000
00000000
00010000
00000000
01000000
00100000
01000000
00010000
01000000
00000000
M0000002
00000000
,  // measure 47
00000103
00000000
00000010
00001000
00000100
00000000
2000000M
00000000
31000000
00000000
00100000
00010000
01000000
00000000
M0000002
00000000
,  // measure 48
00001003
00000000
00000M02
00000013
00001000
00000000
00020M00
00000000
00130000
01000M00
00100000
00010M00
00001000
00000000
00020M00
00030000
,  // measure 49
2M0000M2
00000000
00000000
00000000
00000000
00000000
00000000
00000000
00000000
00000000
00000000
00000000
00000000
00000000
00000000
00000000
00000000
00000000
00000M00
00000000
000M0000
00000000
0000M000
00000000
30M00003
00000000
00000000
00000000
00000000
00000000
00000100
00000000
00000000
01000000
00000000
00000000
00001000
00000000
00000000
01000000
00000000
00000000
00010000
00000000
00000000
00000000
00000000
00000000
,  // measure 50
00000MM0
00000000
00100000
00000000
01000000
00100000
01000000
00000000
00100000
00000000
00000000
00010000
00000000
00000000
02000000
00000000
,  // measure 51
03000000
00000000
10000000
00000000
01000000
00000000
00010000
00000000
00001000
00000000
00000010
00000001
00000000
00000000
00000010
00000000
,  // measure 52
00000100
00000001
00000010
00000001
00000100
00000010
00001000
00000100
00010000
00000000
00000000
00000100
00000000
00000000
00001000
00000000
,  // measure 53
00000000
00000001
00000010
00000100
00001000
00000100
00001000
00000001
00000100
00000000
00000010
00010000
00001000
01000000
00010000
00000000
,  // measure 54
00000MM0
00000000
00100000
00000000
01000000
00100000
01000000
00000000
00100000
00000000
00000000
00010000
00000000
00000000
02000000
00000000
,  // measure 55
03000000
00000000
10000000
00000000
01000000
00000000
00010000
00000000
00001000
00000000
00000010
00001000
00000100
00000000
00010000
00000000
,  // measure 56
01000000
00100000
01000000
10000000
00100000
10000000
01000000
00100000
00010000
00000000
00000000
01000000
00000000
00000000
00011000
00000000
,  // measure 57
00000000
00011000
00000000
00011000
00000010
00001010
00001000
00000100
,  // measure 58
M0000001
00000000
00000100
00000000
00001000
00000000
00010000
00000000
00100000
01000000
00000000
01000000
10000000
00000000
00010000
10000000
,  // measure 59
00000000
00000000
00100000
00000000
00010000
00000000
00001000
00000000
00000100
00000010
00000000
00000100
00000001
00000000
00000001
00001000
,  // measure 60
00000000
00000100
00010000
00000100
00000000
00001000
00000100
00001000
00000000
00000100
00000000
00010000
00001000
00000000
00001000
01000000
,  // measure 61
00000000
00000000
00100000
01000000
00010000
00000000
001M0000
01000000
00010000
00000000
001M0000
10000000
00010000
00000000
00100000
00000000
,  // measure 62
M1100000
00000000
M1100000
00000000
M11M0000
00000000
M11M0000
00000000
00100000
01000000
00000000
01000000
10000000
00000000
00010000
10000000
,  // measure 63
0M000000
00000000
00100000
00000000
00010000
00000000
00001000
00000000
00000100
00000010
00000000
00000100
00000001
00000000
00001000
00000001
,  // measure 64
000010M0
00000100
01000000
00001000
M0100000
00010000
10000000
00100000
,  // measure 65
0100M000
00000000
00010000
10000000
01000M00
00000000
00100000
00010000
010000M0
00000000
00001000
00010000
0000000M
00010000
00001000
00000000
,  // measure 66
MM2002MM
00000000
00000000
00000000
,  // measure 67
00300300
00000000
00000000
00000000
;

//---------------dance-double - Telperion----------------
#NOTES:
     dance-double:
     Telperion:
     Hard:
     9:
     0.623,0.590,0.195,0.185,0.278,429.000,21.000,20.000,0.000,0.000,0.000,0.623,0.590,0.195,0.185,0.278,429.000,21.000,20.000,0.000,0.000,0.000:
00022000
00000000
00000000
00000000
,
00000000
00000000
00000000
00000000
,
00000000
00000000
00000000
00000000
,
00000000
00000000
00000000
00033000
,
00011000
00000100
00001000
01000000
,
00010000
00000100
00001000
01000000
,
00100000
01000000
10000000
01000000
00010000
00100000
10000000
00100000
,
00010000
01000000
00100000
00010000
00001000
00000100
00000001
00000020
,
00000030
00000000
00000000
00000000
00000000
00000000
00000000
00000000
00000000
00000000
00000100
00000010
00000100
00000010
00000001
00000000
,
00000100
00000000
00000010
00000000
00001000
00000000
00000010
00000000
00000010
00000000
00000000
00000100
00000000
00000000
00000001
00000000
,
00000000
00000000
00000010
00000000
00000100
00010000
00000000
00000100
00010000
00000000
00001000
00000000
02000000
00000000
00010000
00000000
,
03000000
00000000
00100000
00000000
01000000
00001000
00000000
01000000
00001000
00000000
00010000
00000000
00000200
00000000
00001000
00000000
,
00000300
00000000
00000010
00000000
00000100
00010000
00000000
00000100
00010000
00000000
00001000
00000000
01000000
00000000
00100000
00000000
,
00000000
00000000
10000000
00000000
00010000
00000000
00100000
00000000
00100000
00000000
00000000
01000000
00000000
00000000
10000000
00000000
,
00000000
00000000
00100000
00000000
01000000
00010000
00000000
00010000
01000000
00000000
00001000
00000000
00010000
00000000
00000200
00000000
,
00000300
00000000
00000010
00000000
00000100
00001000
00000000
00001000
00000100
00000000
00010000
00000000
00001000
00000000
02000000
00000000
,
03000000
00000000
00100000
00000000
00010000
00000000
00001000
00000000
00000100
00000000
00000000
00000001
00000010
00000000
00000100
00000000
,
00001000
00000000
00000110
00000000
00000010
00000001
00000100
00001000
,
00000000
00000000
00010000
00000000
01000000
10000000
00000000
10000000
00100000
00000000
01000000
00000000
00010000
00000000
00100000
00000000
,
00000000
00000000
00001000
00000000
00000100
00000001
00000000
00000001
00000010
00000000
00000100
00000000
00001000
00000000
00000010
00000000
,
00000000
00000000
00010000
00000000
01000000
10000000
00000000
10000000
00010000
00000000
00000000
00000000
10000000
00000000
00100000
00000000
,
10000000
00000000
01100000
00000000
10000000
01000000
00010000
00001000
,
00000000
00000000
00000010
00000000
00000001
00000100
00000000
00000100
00000010
00000000
00000100
00000000
00001000
00000000
00010000
00000000
,
00000000
00000000
00100000
00000000
10000000
01000000
00000000
10000000
00010000
00000000
01000000
00000000
00001000
00000000
00011000
00000000
,
00000000
00011000
00000000
00011000
00001000
00010000
00000100
00000110
,
00000000
00000100
00001000
00000100
00010000
00001000
00010000
00110000
,
00000000
01000000
00010000
01000000
00001000
00010000
00001000
00001010
,
00000000
00000100
00001000
00000100
00010000
00001000
00010000
00110000
,
00000000
00000000
00110000
00000000
00010000
00001000
00010000
00000010
,
00010000
00001000
00001010
00000000
00001000
00010000
00001000
00100000
,
00001000
00010000
00110000
00000000
00010000
00001000
00010000
00000010
,
00010000
00000000
00000000
00001000
00000000
00000000
00100000
00000000
00001000
00000000
00000000
00010000
00000000
00000000
00000010
00000000
,
00001000
00000000
00000010
00000000
00000100
00000000
00000010
00000000
00000001
00000010
00000000
00000010
00000100
00000000
00000010
00000000
,
00002000
00000001
00000002
00000000
,
00000003
00000000
00003001
00001000
00000100
00000000
00000000
01000000
,
00020000
00000000
10000000
00000000
10030000
00010000
01000000
00000000
,
10000000
00010000
01000000
00000000
00100000
01000000
00001000
00000000
,
00011000
00000000
00000100
00000100
00000000
00000010
00000020
00000130
,
00001000
00000000
00000000
00000100
00000000
00000000
00010000
00000000
00001000
00000000
00000000
00000000
00020000
00030000
00000000
00000000
,
00001000
00000000
01000000
01000000
00000000
00100000
00200000
01300000
,
00010000
00000000
00000000
01000000
20200000
00000000
00000000
30300000
,
00000000
00000000
00000000
00100000
00000000
00000000
10000000
00000000
01000000
00000000
00010000
00000000
00001000
00000000
00000000
00000100
00000000
00000000
00000000
00000000
00000000
00000001
00000000
00000000
,
00000000
00000000
00000000
00000010
00000000
00000000
00000001
00000000
00000100
00000000
00001000
00000000
00010000
00000000
00000000
01000000
00000000
00000000
00000000
00000000
00000000
10000000
00000000
00000000
,
00000000
00000000
00000000
00100000
00000000
00000000
10000000
00000000
01000000
00000000
00100000
00000000
00001000
00000000
00000000
00010000
00000000
00000000
00001000
00000000
00000000
00000100
00000000
00000000
,
00000001
00000000
00000000
00000010
00000000
00000000
00000001
00000000
00000100
00000000
00000010
00000000
00010000
00000000
00000000
00001000
00000000
00000000
00010000
00000000
00000000
01000000
00000000
00000000
,
10000000
00100000
01000000
00010000
00100000
01000000
10000000
00100000
,
01000000
00010000
00100000
01000000
00010000
00001000
00000100
00000010
,
00001000
00000010
00000100
00000001
00001000
00000010
00000100
00000001
,
00001000
00000000
00000010
00000100
00000010
00000000
00001000
00000000
00000001
00000000
00000100
00000010
00000100
00000000
00000001
00000000
,
00002200
00000000
00000000
00000000
00000000
00000000
00000000
00000000
00003300
00000000
00000100
00001000
00000100
00000010
00000001
00000000
,
00000100
00000000
00000010
00000000
00001000
00000000
00000010
00000000
00000010
00000000
00000000
00000100
00000000
00000000
00000001
00000000
,
00000000
00000000
00001000
00000000
00000100
00000000
00001000
00000000
00000100
00000000
00000000
00010000
00000000
00000000
00000100
00000000
,
00001000
00000000
00000001
00000000
00000010
00000000
00001000
00000000
00010000
00000000
00000000
00100000
00000000
00000000
10000000
00000000
,
00000000
00010000
01000000
00100000
00010000
00100000
10000000
00000000
,
01000000
00000000
00100000
00000000
00010000
00000000
00100000
00000000
00100000
00000000
00000000
01000000
00000000
00000000
10000000
00000000
,
00000000
00000000
00010000
00000000
01000000
00000000
00001000
00000000
00010000
00000000
00000100
00002000
00000000
00000000
00003000
00000000
,
00000001
00000000
00000100
00000000
00001000
00000000
00000100
00000000
00000010
00000000
00000000
00001000
00000000
00000000
00000110
00000000
,
00000000
00000110
00000000
00000110
00000001
00000010
00000010
00000100
,
00001000
00000000
00000100
00000000
00010000
00000000
00001000
00000000
01000000
00100000
00000000
00100000
01000000
00000000
00010000
00000000
,
00000000
00000000
10000000
00000000
01000000
00000000
00010000
00000000
00001000
01000000
00000000
01000000
00001000
00000000
00010000
00000000
,
00000000
00000000
00100000
00000000
00010000
00000000
00001000
00000000
00000100
00000010
00000000
00000010
00001000
00000000
00000010
00000000
,
00000000
00000100
00001000
00000100
00001000
00000100
00000001
00000010
,
00000100
00000000
00000100
00000000
00000100
00000000
00000100
00000000
00000100
00000000
00000000
00001000
00000000
00000000
00000100
00000000
,
00000000
00000000
00010000
00000000
00001000
00000000
01000000
00000000
00100000
01000000
00000000
01000000
00010000
00000000
01000000
00000000
,
00000000
00100000
10000000
01000000
00100000
01000000
10000000
00010000
,
01000000
00000000
00010000
10000000
01000000
00000000
10000000
00010000
01000000
00000000
00010000
00100000
00010000
00000000
01000000
00000000
,
20200000
00000000
00000000
00000000
,
30300000
00000000
00000000
00000000
;
