#TITLE:S.W.A.G.;
#SUBTITLE:;
#ARTIST:The Qemists;
#TITLETRANSLIT:;
#SUBTITLETRANSLIT:;
#ARTISTTRANSLIT:;
#GENRE:DnB Rock;
#CREDIT:Telperion;
#BANNER:;
#BACKGROUND:../fallback-bg.png;
#LYRICSPATH:;
#CDTITLE:;
#MUSIC:swag.ogg;
#OFFSET:-0.128;
#SAMPLESTART:45.658;
#SAMPLELENGTH:11.034;
#SELECTABLE:YES;
#DISPLAYBPM:173.999;
#BPMS:0.000=173.999
;
#STOPS:
;
#BGCHANGES:;
#KEYSOUNDS:;
#ATTACKS:;

//---------------dance-double - Telperion----------------
#NOTES:
     dance-double:
     Telperion:
     Challenge:
     10:
     0.554,0.852,0.159,0.268,0.154,340.000,16.000,27.000,257.000,4.000,11.000,0.554,0.852,0.159,0.268,0.154,340.000,16.000,27.000,257.000,4.000,11.000: // measure 0
00000000
00000000
00000000
00000000
,  // measure 1
00000021
00000000
00000000
00000000
00000100
00000000
00000031
00000100
,  // measure 2
00000001
00000000
00000000
00000010
00000100
00010000
00001000
00010000
,  // measure 3
02000000
00000000
00000000
00000000
00100000
00000000
13000000
00100000
,  // measure 4
10000000
00000000
00000000
01000000
00010000
01000000
10000000
00010000
,  // measure 5
02000000
00000000
00000000
00000000
10000000
00000000
03100000
10000000
,  // measure 6
00100000
00000000
00000000
01000000
00001000
01000000
00000100
00010000
,  // measure 7
00002000
00000000
00000000
00000000
00100000
00000000
00013000
00000100
,  // measure 8
00010000
01000000
11000000
10100000
,  // measure 9
01020000
00000000
10000000
00000000
00100000
00000000
10030000
01000000
,  // measure 10
10000000
00100000
00000000
00010000
00000000
00100000
01000000
00000000
,  // measure 11
00001000
00010000
00000100
00010000
00001000
00000000
00010000
00000100
,  // measure 12
00000010
00001000
00000000
00000010
00000000
00000100
00001000
00000000
,  // measure 13
00000001
00000000
00000011
00000000
00011000
00000000
00000100
00001000
,  // measure 14
00000100
00010000
00000000
01000000
00100000
01000000
20000000
00000000
,  // measure 15
30010000
00000000
00000000
00010000
01000000
00000000
00000000
01000000
,  // measure 16
00100000
01000000
00010000
01000000
00001000
01000000
00000100
00000010
,  // measure 17
MMMMMMM4
00000000
00000000
00000003
00000000
00000000
00020000
00000000
,  // measure 18
00030000
00000100
00001000
00000100
00000020
00000000
00001030
00000000
,  // measure 19
4MMMMMMM
00000000
00000000
30000000
00000000
00000000
00002000
00000000
,  // measure 20
00000000
01003000
00100000
01000000
20000000
00000000
30010000
00000000
,  // measure 21
MMMMMMM4
00000000
00000000
00000003
00000000
00000000
00020000
00000000
,  // measure 22
00000000
00030100
00001000
00010000
00100000
00010000
01000000
00000000
,  // measure 23
4MMMMMMM
00000000
00000000
30000000
00000000
00000000
10020000
00000000
,  // measure 24
00130000
00010000
10000000
00010000
00100000
01000000
10000000
00000000
,  // measure 25
1010MMMM
M1000000
00001000
0M01M000
00000100
000M0M10
00000100
00001MM0
,  // measure 26
00000001
0000M01M
000M01M0
0M010M00
000M100M
0100M0M0
0M10000M
01M00M00
,  // measure 27
0M0100M0
100M0M00
M100000M
0M0100M0
000M100M
M000M100
0M000M10
00M010M0
,  // measure 28
M000M100
0M000M10
00M010M0
0001M00M
0M1M0M00
M0M1000M
000M1000
0M00M1M0
,  // measure 29
00M00M01
M00M001M
000010M0
M001M000
010M000M
1M000M00
M01000M0
00M1M000
,  // measure 30
0M00100M
000100M0
0000100M
001000M0
0000100M
001000M0
00010M00
001000M0
01000M00
001000M0
01000M00
1000M000
00010M00
1000M000
00100M00
0100M000
,  // measure 31
0001MMMM
00000000
00001000
00001000
00000000
00010000
00010000
00010000
,  // measure 32
00001000
00010000
00001000
00010000
00001000
00000010
M0000001
00000100
,  // measure 33
MMM00010
00000000
00000100
00000001
00000000
00000000
00000110
00000000
,  // measure 34
00002001
00000000
00000000
00003100
00001000
00010000
00100000
00010000
,  // measure 35
01000000
00000000
00100000
10000000
00000000
00000000
01100000
00000000
,  // measure 36
01010000
00000000
00100000
00010000
00000000
00100000
01000000
00001000
,  // measure 37
00000200
00000000
00000310
00000100
00001000
00000100
00010000
00001000
,  // measure 38
01000000
00000000
00020000
00030000
00000100
00000000
00000001
00000020
,  // measure 39
00000000
00000031
00000100
00000010
00001000
00000100
00000010
00000000
,  // measure 40
00000100
00010000
00001000
01000000
00100000
01000000
00010000
00000000
,  // measure 41
20000000
00000000
01000000
00000000
30000000
10000000
01000000
00000000
,  // measure 42
00020000
00000000
01000000
00000000
00030000
00010000
00001000
00000000
,  // measure 43
00000200
00000000
00001000
00000000
00000300
00000100
00000001
00000000
,  // measure 44
00000020
00000000
00000100
00000000
00000031
00001000
00000100
00100000
,  // measure 45
00001000
00000000
00010000
00001000
00000000
00001000
00010000
01000000
,  // measure 46
10000000
00100000
00000000
00010000
00000000
00100000
01000000
00000000
,  // measure 47
MMMM0000
00000000
00010000
00010000
00000000
10000000
00010000
01000000
,  // measure 48
00000100
00010000
00001000
01000000
00000100
00001000
00000001
00000100
,  // measure 49
MMMMMMM4
00000000
00000000
00000003
00000000
00000000
00000000
00000000
,  // measure 50
00000000
00000000
00000000
00000000
,  // measure 51
MMMM4MMM
00000000
00000000
00003000
00000000
00000000
00000000
00000000
,  // measure 52
00000000
00000000
00000000
00000000
,  // measure 53
MMM4MMMM
00000000
00000000
00030000
00000000
00000000
00000000
00000000
,  // measure 54
00000000
00000000
00000000
00000000
,  // measure 55
4MMMMMMM
00000000
00000000
30000000
00000000
00000000
00000000
00000000
,  // measure 56
00020000
00000000
00000000
00030000
,  // measure 57
MM4MMMMM
00000000
00000000
00300000
01000000
00000000
M0M10000
01000000
,  // measure 58
0M1M0000
00001000
00M1M000
00000010
000M20M0
00000000
000031MM
00000000
,  // measure 59
MMMMMM4M
00000000
00000000
00000030
00000000
00000000
0000M020
00000001
,  // measure 60
000M013M
00001000
00M0M100
00010000
0M1M0000
01000000
0MM10000
00000000
,  // measure 61
MM4MMMMM
00000000
00000000
00300000
01000000
00100000
1MM00000
00100000
,  // measure 62
M0M10000
01000000
0M1M0000
00010000
00MM0100
00001000
0000MM10
00000100
,  // measure 63
MMMMM0M1
00000100
00000001
00000100
00000001
00000100
00000001
00000100
00000001
00001000
00000001
00001000
00000100
00001000
00000100
00001000
,  // measure 64
00000100
00010000
00000100
00010000
00001000
01000000
00001000
01000000
00100000
00000000
01000000
00000000
00010000
00000000
00000000
00000000
,  // measure 65
2111MMMM
00000000
00000000
30000000
M0000000
00000000
00000000
00000000
,  // measure 66
0000000M
00000000
000000M0
00000M00
0000M000
000M0000
00M00000
0M000000
M0000000
00000000
00000000
00000000
00000000
00000000
00000000
00000000
,  // measure 67
MMMM1112
00000000
00000000
00000003
0000000M
00000000
00000000
00000000
,  // measure 68
M0000000
00000000
00000000
M0000000
00000000
0M000000
00000000
00M00000
000M0000
0000M000
00000M00
000000M0
0000000M
00000000
00000000
00000000
00000000
00000000
00000000
00000000
00000000
00000000
00000000
00000000
,  // measure 69
2111MMMM
00000000
00000000
30000000
M0000000
00000000
00000000
00000000
,  // measure 70
0000000M
00000000
000000M0
00000M00
0000M000
000M0000
00M00000
0M000000
M0000000
00000000
00000000
00000000
00000000
00000000
00000000
00000000
,  // measure 71
00012110
00000000
00000000
00003000
0000M000
00000000
00000000
00000000
;

//---------------dance-double - Telperion----------------
#NOTES:
     dance-double:
     Telperion:
     Hard:
     8:
     0.486,0.567,0.119,0.228,0.000,308.000,12.000,23.000,0.000,0.000,0.000,0.486,0.567,0.119,0.228,0.000,308.000,12.000,23.000,0.000,0.000,0.000:
00000000
00000000
00000000
00000000
,
00002200
00000000
00000000
00000000
,
00003300
00000000
00000000
00000000
,
00002002
00000000
00003003
00000000
,
00000002
00000000
00000000
00000023
00000000
00000000
00000032
00000000
,
00002003
00000000
00000200
00000000
,
00000000
00000000
00000000
00000000
00003000
00001300
00000100
00000000
,
00020000
00000000
00000000
00000000
00001000
00000000
00031000
00010000
,
00000100
00010000
01000000
00100000
,
10020000
00000000
00100000
00000000
00130000
00000000
01000000
10000000
,
00010000
10000000
00000000
00100000
00000000
10000000
01000000
00000000
,
00100000
00001000
00100000
00001000
00010000
00000000
00000000
00001000
,
00100000
00001000
00000000
00010000
00000000
00001000
01000000
00000000
,
00010000
00000000
10100000
00000000
01001000
00000000
01000000
00010000
,
00000000
00001000
00000000
00000010
00000100
00000001
00001000
00000000
,
00000010
00000000
00000000
00000010
00000100
00000000
00000000
00000100
,
00000001
00000100
00000010
00001000
00000100
00000010
00000001
00001000
,
00000010
00000010
00000100
00000100
00000000
00000000
00000000
00000000
,
00000000
00000000
00000000
00000000
,
00000001
00001000
00000100
00000100
00000000
00000000
00000000
00000000
,
00000000
00000000
00000000
00000000
,
00010000
00001000
01000000
01000000
00000000
00000000
00000000
00000000
,
00000000
00000000
00000000
00000000
,
00100000
10000000
01000000
01000000
00000000
00000000
00000000
00000000
,
00000000
00000000
00000000
00000000
,
10000000
01000000
10000000
01000000
00010000
01000000
00010000
00001000
,
00000100
00001000
00000100
00000001
00000010
00000001
00000010
00001000
,
00010000
00001000
00010000
00100000
10000000
00100000
01000000
00100000
,
10000000
01000000
10000000
01000000
00010000
00001000
00010000
00001000
,
00000100
00000001
00001000
00000010
00000100
00000001
00000100
00000010
,
00001000
00000001
00000100
00001000
00010000
01000000
10000000
00100000
,
02000000
00000000
03000000
00000000
00000000
01000000
00010000
01000000
,
10000000
01000000
10000000
01000000
00010000
00100000
01000000
00000000
,
10010000
00000000
00100000
00010000
10000000
00000000
00100000
00000000
,
10010000
00000000
00100000
00010000
01000000
00100000
01000000
00000000
,
00010000
10000000
00010000
00100000
00000000
00000000
00200000
00000000
,
00301000
00010000
00000010
00001000
00000010
00000100
00000010
00000000
,
00001001
00000000
00000010
00000001
00000010
00000100
00001000
00000100
,
00010000
00000000
00001000
00000000
00010000
00000000
01000000
20000000
,
00000000
31000000
00100000
01000000
00010000
00000000
00001000
00000000
,
00000100
00000010
00000100
00000001
00001000
00000000
00010000
00000000
,
00200000
00000000
01300000
00100000
00000000
01000000
00100000
00000000
,
00020000
00000000
00130000
00010000
00000000
01000000
00010000
00000000
,
00200000
00000000
00301000
00100000
00000000
00001000
00010000
00000000
,
00000020
00000000
00000130
00000010
00001000
00000001
00000100
00000000
,
00001001
00000000
00000001
00000001
00000000
00001000
00000010
00000000
,
00001000
00000001
00000000
00000020
00000000
00000030
00001100
00000000
,
00020000
00030000
00000000
00000000
,
00001000
00010000
00001000
00010000
00001000
00010000
01000000
10000000
,
00100000
00100000
01000000
01000000
00000000
00000000
00000000
00000000
,
00000000
00000000
00000000
00000000
,
00010000
01000000
00001000
00001000
00000000
00000000
00000000
00000000
,
00000000
00000000
00000000
00000000
,
00000010
00000100
00001000
00001000
00000000
00000000
00000000
00000000
,
00000000
00000000
00000000
00000000
,
00000010
00001000
00000100
00000100
00000000
00000000
00000000
00000000
,
00000000
00000000
00000000
00000000
,
00001000
00000001
00000100
00000100
00000010
00000000
00001000
00000010
,
00000100
00000001
00000100
00000010
00000002
00000000
00000013
00000000
,
00001000
00000100
00001000
00001000
00000000
00000000
00000002
00000000
,
00001003
00000100
00010000
00001000
00000010
00000100
00001000
00000000
,
00000010
00010000
00001000
00001000
00010000
00001000
00010000
00100000
,
10000000
01000000
10000000
01000000
00010000
00001000
00010000
00001000
,
00000100
00000100
00000010
00000010
00001000
00000001
00000100
00000010
,
00001000
00000100
00010000
00001000
00100000
01000000
20000000
00000000
,
30100000
00100000
01000000
01000000
00000000
00000000
00000000
00000000
,
00000000
00000000
00000000
00000000
,
00010000
01000000
00010000
00010000
00000000
00000000
00000000
00000000
,
00000000
00000000
00000000
00000000
,
00100000
01000000
10000000
10000000
00000000
00000000
00000000
00000000
,
00000000
00000000
00000000
00000000
,
00010000
10000000
10010000
10010000
00000000
00000000
00000000
00000000
;
