#TITLE:Pernicious Deed;
#SUBTITLE:;
#ARTIST:SABREMISSILE;
#TITLETRANSLIT:;
#SUBTITLETRANSLIT:;
#ARTISTTRANSLIT:;
#GENRE:Gothic Mixture / Full On;
#CREDIT:Telperion;
#BANNER:;
#BACKGROUND:../fallback-bg.png;
#LYRICSPATH:;
#CDTITLE:;
#MUSIC:pernish.ogg;
#OFFSET:-0.016;
#SAMPLESTART:41.416;
#SAMPLELENGTH:26.498;
#SELECTABLE:YES;
#DISPLAYBPM:72.500:145.000;
#BPMS:0.000=145.000
,196.000=72.500
,212.000=145.000
,276.000=72.500
;
#STOPS:
;
#BGCHANGES:;
#KEYSOUNDS:;
#ATTACKS:;

//---------------dance-double - Telperion----------------
#NOTES:
     dance-double:
     Telperion:
     Challenge:
     10:
     0.669,0.887,0.399,0.566,0.510,466.000,50.000,71.000,54.000,0.000,21.000,0.669,0.887,0.399,0.566,0.510,466.000,50.000,71.000,54.000,0.000,21.000:
00000000
00000000
00000000
00000000
,
00000000
00000000
00000000
00000000
,
00000000
00000000
00000000
00000000
,
00000000
00000000
00000000
00000000
,
00000000
00000000
00000000
00000000
,
00000000
00000000
00000000
00000000
,
00000000
00000000
00000000
00000000
,
00000000
00000000
00000000
00000000
,
00000100
00000000
00000000
00000000
00020000
00030000
00000000
00000000
00000000
00000000
00012000
00003000
00000000
00000000
00000000
00000000
,
01000000
00000000
00000000
00000000
00002000
00003000
00000000
00000000
00000000
00000000
00021000
00030000
00000000
00000000
00000000
00000000
,
00000100
00000000
00000000
00000000
00000020
00000030
00000000
00000000
00000000
00000000
00001200
00000300
00000000
00000000
00000000
00000000
,
01000000
00000000
00000000
00000000
00200000
00300000
00000000
00000000
00000000
00000000
01020000
00030000
00000000
00000000
00000000
00000000
,
10000000
00000000
00000000
00010000
01000000
00000000
00001000
00000000
00010000
00000000
01000000
00000000
00000000
00000000
00010000
00000000
,
00001000
00000000
00000000
00010000
00000010
00000000
00001000
00000000
00000100
00000000
00000010
00000000
00000000
00000000
00000100
00000000
,
00001000
00000000
00000000
00000001
00000100
00000000
00001000
00000000
00010000
00000000
00000100
00000000
00000000
00000000
00010000
00000000
,
00001000
00000000
00000000
00010000
00100000
00000000
10000000
00000000
00010000
00000000
01000000
00000000
00000000
00000000
00100000
00000000
,
011M0000
00000000
00000000
01M01000
00000000
00000000
0M010000
00000000
M000110M
00000000
00000000
00000000
000110M0
00000000
00000000
00000000
,
0000MM14
00000003
00000010
00000100
00004100
00003000
00000100
00010000
,
00014000
00003000
01000000
00001000
00110000
00000000
00011000
00000000
,
10400000
00300000
01000000
00010000
04010000
03000000
00000100
00010000
,
00014000
00003000
00000100
00000001
00000021
00000000
0000000M
00000030
,
00001001
00000000
00000001
00000000
00000100
00000010
00000100
00000001
00001000
00000000
00000100
00000000
00010000
00000000
00010000
00000000
,
00011000
00000000
00001000
00000000
01000000
00001000
01000000
00001000
00010000
00000000
01000000
00000000
00100000
00000000
00000000
00000000
,
10010000
00000000
00010000
00000000
01000000
00100000
01000000
00010000
10000000
00000000
00010000
00000000
01000000
00000000
00001000
00000000
,
00010000
01000000
00000000
10000000
01000000
00100000
00010000
00000000
00001100
00000000
00000000
00000000
04000000
00000000
00000000
00000000
,
03000100
00000000
00000010
00000000
00000400
00000010
00000000
00000010
00000000
00001000
00000000
00001000
00000300
00100000
00001000
00010000
,
00002000
00003000
00010000
00000000
00000200
00000300
00010000
00000000
00001000
00000000
01000000
00000000
00010000
01000000
00100000
00000000
,
04000000
00000000
03000000
00000000
04000000
00100000
00000000
00100000
00000000
00010000
00000000
00010000
03000000
00000010
00010000
00001000
,
00100000
00000000
00010000
00100000
00001000
00010000
00000000
00010000
00001000
00000000
00000100
00000000
00000010
00000000
00000100
00000000
,
MM000001
00000010
00000100
00010000
000010MM
00100000
00010000
00100000
04000000
03000000
00100000
00000000
00010000
00000000
10000000
00000000
,
00100000
00000000
01000000
00000000
00001000
00010000
00001000
00000000
04000000
03000000
00010000
00000000
01000000
00000000
00100000
00000000
,
10000000
00000000
00040000
00100000
00000000
00100000
00000000
00130000
00000040
00000030
00000010
00000100
00000001
00001000
00000100
00000010
,
00000001
00000000
00004000
00000100
00000000
00000100
00000000
00003100
00400000
00300000
00100000
01000000
10000000
00000000
00000000
00000000
,
20200000
30300000
00000000
00010000
22000000
33000000
20020000
30030000
,
00220000
00330000
00000000
00000000
00020020
00030030
00000220
00000330
,
00000101
00000000
00000200
00000000
00000010
00000000
00000000
00000000
00000301
00000000
00000100
00000001
00000020
00000000
00000000
00000000
,
00000130
00000001
00000100
00000010
00001000
00010000
01000000
10000000
,
00200000
00300000
00000000
10000000
02020000
03030000
00022000
00033000
,
00002020
00003030
00000000
00000000
00000022
00000033
00002100
00003100
,
00020000
01000000
00001000
00130000
,
01100000
00000000
01000000
00000000
10000000
00000000
01000000
00000000
00010000
00000000
00100000
00001000
00010000
00000000
00000100
00000000
,
00000220
00000330
000000M0
00000001
00002200
00003300
00022M00
00033000
,
00220000
00330000
00M00000
00000000
20200000
30300000
02M20000
03030000
,
00001000
00000000
00000000
00000000
00000000
00000000
00010000
00000000
00000000
00001000
00000000
00000000
00000010
00000000
00000000
00000000
00000001
00000000
00000000
00000000
00000010
00000000
00000000
00000000
00000100
00000000
00000000
00000000
00000000
00000000
00001000
00000000
00000000
00000100
00000000
00000000
00010000
00000000
00000000
00000000
01000000
00000000
00000000
00000000
10000000
00000000
00000000
00000000
,
00100000
10000000
01000000
00100000
00001000
00010000
00000010
00001000
00000100
00000010
00000001
00000100
,
00000010
00000000
00000100
00000000
00000001
00000000
00010000
00000000
00000100
00000000
00000010
00000000
00001000
00000000
00010000
00100000
,
01000000
00000000
00100000
00000000
00010000
00000000
00001000
00000000
00100000
00000000
01000000
00000000
10000000
00000000
01000000
00010000
,
00001000
00000000
01000000
00000000
00100000
01000000
00010000
00000000
00004000
00000000
00000000
00000000
00003004
00000000
00000000
00000000
,
00000013
00000000
00000000
00000000
00000000
00000000
00000200
00000300
,
MMMMMM22
00000000
00000000
00000000
00000000
00000000
00000000
00000000
00000000
00000000
00000000
00000000
00000000
00000000
00000000
00000000
00000000
00000000
00000000
00000000
00000000
00000000
00000000
00000000
00000000
00000000
00000000
00000000
00000000
00000000
00000000
00000000
00000000
00000000
00000000
00000000
00000000
00000000
00000000
00000000
00000000
00000000
00000000
00000000
00000000
00000033
00000000
00000000
00001000
00000000
00000000
00000000
00000000
00000000
00000000
00000000
00000100
00000000
00000000
00000000
00000000
00000000
00000000
00000000
00010000
00000000
00000000
00000000
00000000
00000000
00000000
00000000
01000000
00000000
00000000
00000000
00000000
00000000
00000000
00000000
00100000
00000000
00000000
00000000
00000000
00000000
00000000
00000000
00010000
00000000
00000000
00000000
00000000
00000000
00000000
00000000
02000000
00000000
00000000
00000000
00000000
00000000
00000000
00000000
00000000
00000000
00000000
00000000
00000000
00000000
00000000
00000000
00000000
00000000
00000000
00000000
00000000
00000000
00000000
00000000
00000000
00000000
00000000
00000000
00000000
00000000
00000000
00000000
00000000
00000000
00000000
00000000
00000000
00000000
00000000
00000000
00000000
00000000
00000000
00000000
00000000
00000000
00000000
00000000
03200000
00000000
00000000
00000000
00000000
00000000
00000000
00000000
00000000
00000000
00000000
00000000
00000000
00000000
00000000
00000000
00000000
00000000
00000000
00000000
00000000
00000000
00000000
00000000
00300000
00000000
00000000
00000000
00000000
00000000
00000000
00000000
00000000
00000000
00000000
00000000
00000000
00000000
00000000
00000000
00000000
00000000
00000000
00000000
00000000
00000000
00000000
00000000
,
20000000
00000000
00000000
00000000
00000000
00000000
00000000
00000000
00000000
00000000
00000000
00000000
00000000
00000000
00000000
00000000
00000000
00000000
00000000
00000000
00000000
00000000
00000000
00000000
00000000
00000000
00000000
00000000
00000000
00000000
00000000
00000000
00000000
00000000
00000000
00000000
00000000
00000000
00000000
00000000
30000000
00000000
00000000
00000000
00000000
00000000
00000000
00000000
00100000
00000000
00000000
00000000
00000000
00000000
00000000
00000000
00000000
00000000
00000000
00000000
00000000
00000000
00000000
00000000
00000000
00000000
01000000
00000000
00000000
00000000
00000000
00000000
00000000
00000000
00000000
00000000
00000000
00000000
00000000
00000000
00000000
00000000
00000000
00000000
00010000
00000000
00000000
00000000
00000000
00000000
00000000
00000000
00000000
00000000
00000000
00000000
02000000
00000000
00000000
00000000
00000000
00000000
00000000
00000000
00000000
00000000
00000000
00000000
00000000
00000000
00000000
00000000
00000000
00000000
00000000
00000000
00000000
00000000
00000000
00000000
00100000
00000000
00000000
00000000
00000000
00000000
00000000
00000000
00000000
00000000
00000000
00000000
00000000
00000000
00000000
00000000
00000000
00000000
00000000
00000000
00000000
00000000
00000000
00000000
13000000
00000000
00000000
00000000
00000000
00000000
00000000
00000000
01000000
00000000
00000000
00000000
00000000
00000000
00000000
00000000
00100000
00000000
00000000
00000000
00000000
00000000
00000000
00000000
00010000
00000000
00000000
00000000
00000000
00000000
00000000
00000000
00001000
00000000
00000000
00000000
00000000
00000000
00000000
00000000
00000010
00000000
00000000
00000000
00000000
00000000
00000000
00000000
,
MM000001
00000010
00000100
00001000
00010000
00100000
0100M000
00000000
01000000
000M0000
01000000
00000000
100000MM
00100000
01000000
00010000
00001000
00000010
000M0100
00000000
00000100
0000M000
00000100
00000000
,
MM000001
00000010
00000100
00001000
00010000
00100000
000010MM
00010000
00100000
01000000
00010000
00100000
0400MM00
00000000
00000000
00000000
00000000
00000000
13MM0000
00000000
00000000
00M10000
00000000
00000000
,
1MM00000
00000000
00000000
10000000
01000000
00000000
00000000
10000000
00010000
00000000
00000000
01000000
00001000
00000000
00000000
00010000
,
00001000
00000000
00000000
00001000
00000100
00000000
00000000
00000100
00000010
00000000
00000000
00000100
00000001
00000000
00001000
00000000
,
000MM011
00000000
00000010
00000100
00011MM0
00000000
00100000
01000000
,
1M000000
00010000
01000000
00000000
00M01000
00010000
00000010
00000000
000M1000
00000001
00000100
00000000
0000M001
00000000
00000010
00000000
,
00000100
00000000
00000000
00000000
0000M11M
00000000
00000000
00000010
00000001
00000000
00000000
00000001
00001000
00000000
00000000
00000100
,
00010000
00000000
00000000
00001000
00100000
00000000
00000000
00010000
01000000
00000000
00000000
00100000
10000000
00000000
00100000
00000000
,
01000000
00010000
01000000
00000000
00010000
00100000
00010000
00000000
00100000
01000000
00100000
00000000
01000000
10000000
00100000
00000000
,
01000000
00010000
00100000
00010000
10000000
00000000
00010000
00100000
00000010
00001000
00000100
00000010
00000002
00000000
00000000
00000000
,
000MM203
00000300
00000000
00000001
00002200
00003300
00022000
00033000
,
00220000
00330000
00000000
00000000
00202000
00303000
22000000
33000000
,
00010000
00000000
02000000
00000000
00100000
00000000
00000000
00000000
03010000
00000000
00100000
01000000
00200000
00000000
00000000
00000000
,
00310000
10000000
01000000
00010000
00001000
00000010
00000100
00001000
,
00000010
00000000
00000010
00000000
00000100
00000000
00000001
00000000
00000100
00000000
00000100
00000000
00000010
00000000
00000100
00000010
,
00010000
00000000
00010000
00000000
00001000
00000000
00001000
00000000
00100000
00000000
00010000
00000000
10000000
00000000
00010000
01000000
,
00400000
01000000
00000000
01000000
00000000
00010000
00000000
00310000
00001000
00100000
01000000
10000000
00400000
00000000
00000000
00000000
,
10300000
01000000
00010000
00000100
00000001
00000000
00000000
00000000
,
00202000
00000000
00303000
00000000
;

//---------------dance-double - Telperion----------------
#NOTES:
     dance-double:
     Telperion:
     Hard:
     7:
     0.442,0.550,0.104,0.463,0.108,317.000,13.000,58.000,0.000,0.000,0.000,0.442,0.550,0.104,0.463,0.108,317.000,13.000,58.000,0.000,0.000,0.000: // measure 0
00000000
00000000
00000000
00000000
,  // measure 1
00000000
00000000
00000000
00000000
,  // measure 2
00000000
00000000
00000000
00000000
,  // measure 3
00000000
00000000
00000000
00000000
,  // measure 4
00000000
00000000
00000000
00000000
,  // measure 5
00000000
00000000
00000000
00000000
,  // measure 6
00000000
00000000
00000000
00000000
,  // measure 7
00000000
00000000
00000000
00000000
,  // measure 8
00010000
00000000
01000000
00000000
,  // measure 9
00100000
00000000
10000000
00000000
,  // measure 10
01000000
00000000
00010000
00000000
,  // measure 11
00001000
00000000
00000100
00000000
,  // measure 12
00000001
00000000
00001000
00000000
,  // measure 13
00000010
00000000
00000100
00000010
,  // measure 14
00000001
00000000
00000010
00000000
,  // measure 15
00001000
00000000
00000100
00000000
,  // measure 16
00000010
00000000
00000000
00000100
00000000
00000000
00001000
00000000
00000100
00000000
00000000
00000000
00010000
00000000
00000000
00000000
,  // measure 17
00102000
00003000
00100000
00010000
00200000
00300000
10000000
00100000
,  // measure 18
02000000
03000000
10000000
00100000
00020000
00000000
00031000
00000000
,  // measure 19
00020010
00030000
00000010
00001000
00000020
00000030
00000001
00000010
,  // measure 20
00000200
00000300
00000001
00000010
00002000
00000000
00013000
00000000
,  // measure 21
00012000
00003000
00100000
00010000
02000000
03000000
00100000
10000000
,  // measure 22
02000000
03000000
10000000
01000000
00020000
01030000
00100000
00001000
,  // measure 23
00020000
00030000
00000010
00001000
00000200
00000300
00000010
00000001
,  // measure 24
00000200
00000300
00000000
00000000
00001000
00000000
00010000
00000000
00100000
00000000
00000000
00000000
00020000
00000000
00000000
00000000
,  // measure 25
00031000
00010000
00001000
00100000
00001000
01000000
00100000
01000000
,  // measure 26
00010000
10000000
00100000
00010000
,  // measure 27
00002000
00000000
00013000
00001000
00010000
00000010
00010000
00000100
,  // measure 28
00000010
00000001
00000010
00001000
,  // measure 29
00000012
00000000
00000013
00000001
00001000
00000100
00010000
00000100
,  // measure 30
00001000
00000010
00000100
00000010
,  // measure 31
00010000
00001000
00001000
00100000
00010000
01000000
01000000
00010000
,  // measure 32
00100000
01000000
01000000
10000000
00200000
00000000
00300000
00000000
,  // measure 33
02200000
00000000
03300000
00010000
01000000
00000000
00100000
00000000
,  // measure 34
00020000
00030000
00000010
00001000
,  // measure 35
00000200
00000010
00020300
00100000
,  // measure 36
00031000
00010000
00100000
01000000
,  // measure 37
02200000
00000000
03300000
00100000
01000000
00000000
10000000
00000000
,  // measure 38
00020000
00000000
00030000
00000000
00000010
00000000
00001000
00000100
,  // measure 39
00000010
00000110
00000001
00001000
,  // measure 40
00000010
00000100
00000010
00000000
00001000
00000001
00000010
00000000
,  // measure 41
00000220
00000000
00000330
00001000
00000100
00000000
00000010
00000000
,  // measure 42
00002000
00003000
00010000
00100000
,  // measure 43
01000000
00000000
00010000
10000000
00000000
10000000
01000000
00000000
00010000
00001000
00000000
00001000
,  // measure 44
00000100
00000000
00000001
00000010
00000000
00001000
00010000
00000000
00010000
00100000
00000000
00100000
,  // measure 45
20000000
30020000
02030000
03100000
02000000
03010000
00100000
00001000
,  // measure 46
00020000
00030200
00020300
00030010
00000100
00000001
00000200
00000320
,  // measure 47
00001030
00000100
00000001
00000000
00001000
00000010
00000001
00000000
,  // measure 48
00000100
00001000
00010000
00100000
20000000
00000000
30000000
00000000
,  // measure 49
02200000
00000000
03300000
00000000
20000000
00000000
31000000
00010000
,  // measure 50
00001000
00000000
00000000
00000000
00100000
00000000
00001000
00000000
00020000
00000000
00000000
00030000
00000010
00000000
00000100
00000000
,  // measure 51
00000002
00000000
00000000
00000103
00001000
00010000
02000000
00000000
00000000
13000000
01000000
00010000
,  // measure 52
00002000
00000000
00003200
00000000
00000310
00000100
00000001
00000100
,  // measure 53
00000101
00000000
00000000
00000001
00000100
00000000
00000000
00000100
00001000
00000000
00000000
00001000
00010000
00000000
00000000
01000000
,  // measure 54
10000000
00000000
00000000
10000000
00100000
00000000
00000000
00100000
00010000
00000000
00000000
00010000
00001000
00000000
00000010
00000000
,  // measure 55
00000100
00000000
00010000
00001000
00000100
00000000
00001000
00010000
,  // measure 56
01000000
01000000
01000000
02000000
,  // measure 57
03000000
00000000
00000000
00000000
10010000
00000000
00000000
10000000
00100000
00000000
00000000
00100000
00010000
00000000
00000000
00010000
,  // measure 58
00001000
00000000
00000000
00001000
00000100
00000000
00000000
00000100
00000010
00000000
00000000
00000010
00001000
00000000
00000010
00000000
,  // measure 59
00000100
00000001
00001000
00000010
00010000
00000010
00001000
00000100
,  // measure 60
00010000
00001000
00100000
00010000
10000000
00010000
01000000
00000000
,  // measure 61
02200000
00000000
03300000
00010000
01000000
00000000
00100000
00000000
,  // measure 62
00020000
00030000
00000010
00001000
,  // measure 63
00000200
00000010
00020300
01000000
,  // measure 64
00031000
00010000
01000000
00100000
,  // measure 65
10010000
00010000
10000000
00100000
10000000
01000000
00100000
01000000
,  // measure 66
00010000
00001000
00010000
00000100
00000010
00000100
00001000
00000001
,  // measure 67
00000200
00000000
00000000
00000000
00000300
00000100
00000000
00000000
00000020
00000000
00000000
00000000
00002030
00000000
00000000
00000000
,  // measure 68
00003100
00010000
00001000
01000000
00200000
00000000
00000000
00000000
,  // measure 69
00300000
00000000
00000000
00000000
;
