#TITLE:One;
#SUBTITLE:(Your Name);
#ARTIST:Swedish House Mafia ft. Pharrell;
#TITLETRANSLIT:;
#SUBTITLETRANSLIT:;
#ARTISTTRANSLIT:;
#GENRE:House;
#CREDIT:Telperion;
#BANNER:;
#BACKGROUND:../fallback-bg.png;
#LYRICSPATH:;
#CDTITLE:;
#MUSIC:one.ogg;
#OFFSET:-0.201;
#SAMPLESTART:15.571;
#SAMPLELENGTH:23.040;
#SELECTABLE:YES;
#DISPLAYBPM:124.999;
#BPMS:0.000=124.999
;
#STOPS:
;
#BGCHANGES:;
#KEYSOUNDS:;
#ATTACKS:;

//---------------dance-single - Telperion----------------
#NOTES:
     dance-single:
     Telperion:
     Challenge:
     9:
     0.497,0.669,0.104,0.594,0.286,375.000,14.000,80.000,6.000,0.000,0.000,0.497,0.669,0.104,0.594,0.286,375.000,14.000,80.000,6.000,0.000,0.000:
0000
0000
0000
0000
,
0000
0000
0000
0000
,
0000
0000
0000
0000
,
0000
0000
0000
0110
,
0001
0000
0000
0010
0000
0000
0100
0000
0000
1000
0000
0000
0010
0000
0000
0010
,
0000
0000
0010
0000
0000
0010
0000
0000
0010
0000
0000
0000
0100
0000
0010
0000
,
1000
0000
0000
0010
0000
0000
0100
0000
0000
0001
0000
0000
1000
0000
0000
1000
,
0000
0000
1000
0000
0000
1000
0000
0000
1000
0000
0000
0000
0011
0000
0001
0000
,
1000
0000
0000
0100
0000
0000
0010
0000
0000
0001
0000
0000
0100
0000
0000
0100
,
0000
0000
0100
0000
0000
0100
0000
0000
0100
0000
0000
0000
0010
0000
0100
0000
,
1000
0000
0000
0100
0000
0000
0010
0000
0000
0100
0000
0000
0001
0000
0000
0001
,
0000
0000
0M01
0000
0000
0001
1000
0000
0001
0000
0001
0000
1000
0000
0001
0000
,
0020
0000
0000
0030
,
0000
0000
0000
0000
0100
0010
0002
0000
,
1000
0000
0000
0000
0103
0001
0010
0000
0100
0000
0000
0000
0010
0000
0010
0000
,
0000
0010
0M00
0010
0100
1000
0001
0100
,
0020
0000
0000
0030
,
0000
0000
00M0
0100
0010
1000
0002
0000
,
0010
0000
1003
0001
0100
0000
0010
0010
,
0000
0010
0000
0010
0100
0001
0010
0100
,
1000
0000
0100
0010
0100
1000
0001
0100
,
0010
0000
1000
0000
0010
0100
0002
0000
,
1000
0000
0000
0000
0013
0100
1000
0000
0001
0000
0000
0000
0100
0000
0100
0000
,
0000
0100
000M
0100
0010
0100
1000
0100
,
0001
0000
0010
0100
0001
1000
0010
0001
,
0200
0000
0010
0000
0301
0010
0100
0000
,
2001
0000
0100
0000
3002
0000
1003
0001
,
0000
0200
0020
0330
,
1000
1000
1000
1000
,
0001
0001
1000
1000
,
0001
1000
0001
1000
0001
1000
0001
1000
,
0100
0010
0100
0010
0100
0010
0110
0110
,
2001
3000
0000
2000
3001
0000
0200
0300
0010
0200
0300
0000
0020
0030
0000
0020
,
0130
0000
0002
0003
1000
0002
0003
0000
0020
0000
0030
0000
0100
0000
0110
0000
,
2000
3000
0000
0002
1003
0000
0020
0030
0100
0020
0030
0000
0020
0030
0000
0200
,
0301
0000
2000
3000
0001
0020
0030
0000
0020
0000
0030
0000
0001
0000
0011
0000
,
2000
3000
0000
0020
1030
0000
2000
3000
0001
2000
3000
0000
0002
0003
0000
0020
,
0031
0000
0002
0003
1000
0002
0003
0000
0002
0000
0003
0000
0010
0000
0110
0000
,
0002
0003
0000
2000
3001
0000
0200
0300
0010
0200
0300
0000
2000
3000
0000
0200
,
0310
0000
2000
3000
0001
2000
3001
0000
0020
0030
0100
0000
1000
0000
0001
0000
,
2001
3000
0000
0002
0103
0000
0020
0030
1000
0020
1030
0000
0002
0003
0100
0001
,
0100
0000
0000
0001
0010
0000
0100
0000
1000
0100
1000
0000
0001
0000
0001
0000
,
2000
3000
0000
0200
1300
0000
0002
0003
0010
0002
0013
0000
0200
0300
0010
0001
,
0010
0000
0000
0001
1000
0000
0010
0000
0100
0000
0100
0000
0010
0000
0010
0000
,
2000
0000
0000
3000
,
0000
0000
0000
0000
0002
0010
2003
0000
,
0100
0000
0000
0000
3001
0100
0010
0000
1000
0000
0000
0000
0010
0000
0010
0000
,
0000
0010
0000
0010
0100
1000
0100
0001
,
0020
0000
0000
0000
0000
0000
0000
0000
0000
0000
0000
0000
0000
0000
0000
0000
0000
0000
0000
0000
0000
0000
0000
0000
0001
0000
0000
0000
0000
0000
0000
0030
0020
0000
0000
0000
0000
0000
0000
0000
1000
0000
0000
0000
0000
0000
0000
0030
0020
0000
0000
0000
0000
0000
0000
0000
0001
0000
0000
0000
0000
0000
0000
0030
,
0200
0300
0000
0010
0100
0001
1000
0000
,
2001
0000
0010
0000
3002
0000
1003
0001
,
0000
0200
0020
0330
,
0001
0000
0000
1000
0000
0000
0010
0000
0000
0100
0000
0000
1000
0000
0000
0100
,
0000
0000
0010
0000
0000
0001
0000
0000
1000
0000
0000
0000
1000
0000
0100
0000
,
0001
0000
0000
0010
0000
0000
0100
0000
0000
0001
0000
0000
1000
0000
0000
0001
,
0000
0000
0100
0000
0000
0010
0000
0000
0001
0000
0000
0000
1000
0000
0001
0000
,
0110
0000
0000
0001
0000
0000
0010
0000
0000
1000
0000
0000
0001
0000
0000
0100
,
0000
0000
0010
0000
0000
0100
0000
0000
0001
0000
0000
0000
0001
0000
0100
0000
,
1000
0000
0000
0010
0000
0000
0100
0000
0000
0001
0000
0000
0010
0000
0000
0100
,
0000
0000
1000
0000
0000
0001
1000
0000
0001
0000
0100
0000
0100
0000
0001
0000
,
0100
0000
0000
0010
0000
0000
1000
0000
0000
0001
0000
0000
0020
0000
0000
1000
,
0000
0000
0100
0000
0000
0031
0000
0000
1000
0000
0000
0000
0000
0000
0010
0000
,
0010
0000
0000
0100
0000
0000
0001
0000
0000
0100
0000
0000
0020
0000
0000
0001
,
0000
0000
0100
0000
0000
1030
0000
0000
0001
0000
0010
0000
0100
0000
0100
0000
,
0200
0000
0000
0001
0000
0000
0010
0000
0000
1000
0000
0000
0010
0000
0000
0301
,
0000
0000
0100
0000
0000
1000
0000
0000
0001
0000
0100
0000
0010
0000
0010
0000
,
0020
0000
0000
0000
0000
0000
0000
0000
0000
0000
0000
0000
2030
0000
0000
0000
0000
0000
0000
0000
0000
0000
0000
0000
3020
0000
0000
0000
0000
0000
0000
0000
0000
0000
0000
0000
0230
0000
0000
0000
0000
0000
0000
0000
0000
0000
0000
0000
0320
0000
0000
0000
0000
0000
0000
0000
0000
0000
0000
0030
0020
0000
0000
0000
,
0000
0000
0000
0000
0000
0000
0000
0030
0020
0000
0000
0000
0000
0000
0000
0000
0000
0000
0000
0030
0020
0000
0000
0000
0000
0000
0000
0000
0000
0000
0000
0030
0010
0000
0000
0000
0000
0000
0000
0000
0000
0000
0000
0000
0000
0000
0000
0000
0110
0000
0000
0000
0000
0000
0000
0000
0100
0000
0000
0000
0000
0000
0000
0000
,
2002
0000
0000
0000
,
3003
0000
0000
0000
0000
M000
000M
0000
0000
0000
0000
0000
0000
0000
0000
0000
;

//---------------dance-double - Telperion----------------
#NOTES:
     dance-double:
     Telperion:
     Hard:
     7:
     0.414,0.462,0.178,0.111,0.186,352.000,24.000,15.000,0.000,0.000,0.000,0.414,0.462,0.178,0.111,0.186,352.000,24.000,15.000,0.000,0.000,0.000: // measure 0
00000000
00000000
00000000
00000000
,  // measure 1
00000000
00000000
00000000
00000000
,  // measure 2
00000000
00000000
00000000
00000000
,  // measure 3
00000000
00000000
00000000
00000000
,  // measure 4
00100000
01000000
10000000
00010000
,  // measure 5
01000000
00000000
00010000
00000000
10000000
00000000
00010000
10000000
,  // measure 6
00100000
01000000
00001000
00100000
,  // measure 7
00001000
00000000
00010000
00000000
00000010
00000000
00001000
00000010
,  // measure 8
00001010
00001000
00000101
00000001
,  // measure 9
00001100
00000000
00000100
00000000
00011000
00000000
00000100
00010000
,  // measure 10
00011000
00001000
01001000
00100000
,  // measure 11
00110000
00010000
00000000
10000000
00010000
00100000
01000000
10000000
,  // measure 12
20000000
00000000
00000000
30000000
,  // measure 13
00000000
00000000
00000000
00000000
10000000
01000000
00200000
00000000
,  // measure 14
00302000
00000000
00103000
01000000
10000000
00000000
00100000
00100000
,  // measure 15
00000000
00100000
00000000
10000000
00100000
00010000
00001000
00000100
,  // measure 16
00000020
00000000
00000000
00000030
,  // measure 17
00000000
00000000
00000000
00000100
00000001
00000100
00000010
00000000
,  // measure 18
00020000
00000000
00031000
00010000
00000100
00000000
00000010
00000010
,  // measure 19
00000000
00000010
00000000
00000001
00000010
00001000
00010000
01000000
,  // measure 20
00100000
00010000
10000000
01000000
,  // measure 21
00010000
00000000
01000000
00000000
00100000
00001000
00010000
00000000
,  // measure 22
00001000
00000000
00000100
00000001
00000100
00000000
00000010
00000010
,  // measure 23
00000000
00000010
00000000
00001000
00000100
00001000
00000001
00000010
,  // measure 24
00000020
00000000
00000030
00000100
00010000
00001000
01000000
00100000
,  // measure 25
00200000
00000000
00300000
01000000
00010000
10000000
00010000
00000000
,  // measure 26
00100000
00000000
01000000
00000000
10000000
00000000
00100000
00100000
,  // measure 27
00000000
01010000
10100000
00000000
,  // measure 28
10010000
00010000
10000000
00010000
10000000
00010000
10000000
00010000
,  // measure 29
00100000
00010000
00100000
00010000
00100000
00001000
00100000
00001000
,  // measure 30
00010000
00000100
00001000
00000100
00010000
00000100
00001000
00000001
,  // measure 31
00000100
00000010
00001000
00000100
00010000
00001000
01001000
00000000
,  // measure 32
00110000
00000000
00000000
00100000
00000000
00000000
01000000
00000000
00000000
10000000
00000000
00000000
00010000
00000000
00000000
01000000
,  // measure 33
00000000
00000000
00100000
00000000
00000000
01000000
00000000
00000000
10000000
00000000
00000000
00000000
01000000
00000000
00010000
00000000
,  // measure 34
00100000
00000000
00000000
01000000
00000000
00000000
10000000
00000000
00000000
01000000
00000000
00000000
00010000
00000000
00000000
00001000
,  // measure 35
00000000
00000000
00010000
00000000
00000000
00000100
00000000
00000000
00000010
00000000
00000000
00000000
00000001
00000000
00000100
00000000
,  // measure 36
00001010
00000000
00000000
00000010
00000000
00000000
00000100
00000000
00000000
00000001
00000000
00000000
00001000
00000000
00000000
00000100
,  // measure 37
00000000
00000000
00000010
00000000
00000000
00000100
00000000
00000000
00000001
00000000
00000000
00000000
00001100
00000000
00001000
00000000
,  // measure 38
00000010
00000000
00000000
00000100
00000000
00000000
00000001
00000000
00000000
00000100
00000000
00000000
00001000
00000000
00000000
00010000
,  // measure 39
00000000
00000000
00100000
00000000
00000000
01000000
00000000
00000000
10000000
00000000
00000000
00000000
01100000
00000000
01000000
00000000
,  // measure 40
10010000
00000000
00000000
00010000
01000000
00000000
00001000
00000000
00010000
00000000
00000100
00000000
00001000
00000000
00000100
00000000
,  // measure 41
00010000
00000000
00000000
00010000
00001000
00000000
00000100
00000000
00000001
00000000
00000010
00000000
00000110
00000000
00000100
00000000
,  // measure 42
00001001
00000000
00000000
00001000
00000100
00000000
00010000
00000000
00001000
00000000
01000000
00000000
00010000
00000000
00100000
00000000
,  // measure 43
00001000
00000000
00000000
00001000
00010000
00000000
01000000
00000000
10000000
00000000
10000000
00000000
01010000
00000000
10000000
00000000
,  // measure 44
20020000
00000000
00000000
30030000
,  // measure 45
00000000
00000000
00000000
00000000
00100000
01000000
20000000
00000000
,  // measure 46
30200000
00000000
10300000
01000000
00100000
00000000
00001000
00001000
,  // measure 47
00000000
00001000
00000000
01000000
00001000
00010000
00000100
00000010
,  // measure 48
00000020
00000000
00000030
00001000
00000010
00000001
00000100
00000010
,  // measure 49
00000020
00000030
00000000
00000100
00000010
00000100
00000001
00000000
,  // measure 50
00001000
00000001
00001000
00000100
00010000
00001000
00100000
01000000
,  // measure 51
10000000
00010000
00100000
00001000
00010000
00100000
00110000
00000000
,  // measure 52
01001000
00000000
00000000
01000000
00000000
00000000
00100000
00000000
00000000
10000000
00000000
00000000
00100000
00000000
00000000
00010000
,  // measure 53
00000000
00000000
00001000
00000000
00000000
00000100
00000000
00000000
00000001
00000000
00000000
00000000
00001000
00000000
00000001
00000000
,  // measure 54
00001000
00000000
00000000
00000100
00000000
00000000
00000010
00000000
00000000
00000001
00000000
00000000
00000010
00000000
00000000
00001000
,  // measure 55
00000000
00000000
00010000
00000000
00000000
01000000
00000000
00000000
10000000
00000000
00000000
00000000
00010000
00000000
10000000
00000000
,  // measure 56
00100000
00000000
00000000
01000000
00000000
00000000
00100000
00000000
00000000
10000000
00000000
00000000
00100000
00000000
00000000
00010000
,  // measure 57
00000000
00000000
00001000
00000000
00000000
00000100
00000000
00000000
00000001
00000000
00000000
00000000
00001000
00000000
00000001
00000000
,  // measure 58
00000010
00000000
00000000
00000100
00000000
00000000
00000010
00000000
00000000
00000001
00000000
00000000
00001000
00000000
00000000
00000100
,  // measure 59
00000000
00010000
00000000
00001000
00010000
00001000
01000000
01000000
,  // measure 60
00010000
00000000
00000000
01000000
00000000
00000000
00100000
00000000
00000000
01000000
00000000
00000000
10000000
00000000
00000000
01000000
,  // measure 61
00000000
00000000
00100000
00000000
00000000
00010000
00000000
00000000
00001000
00000000
00000000
00000000
00100000
00000000
01000000
00000000
,  // measure 62
00100000
00000000
00000000
10000000
00000000
00000000
00100000
00000000
00000000
01000000
00000000
00000000
00010000
00000000
00000000
00001000
,  // measure 63
00000000
00010000
00000000
00000100
00001000
00000100
00010000
00001000
,  // measure 64
00010000
00000000
00000000
00100000
00000000
00000000
01000000
00000000
00000000
10000000
00000000
00000000
01000000
00000000
00000000
00010000
,  // measure 65
00000000
00000000
00001000
00000000
00000000
00000010
00000000
00000000
00000100
00000000
00000001
00000000
00001000
00000000
00000100
00000000
,  // measure 66
00001000
00000000
00000000
00000001
00000000
00000000
00001000
00000000
00000000
00000001
00000000
00000000
00001000
00000000
00000000
00001000
,  // measure 67
00000000
00000000
00001000
00000000
00000000
00001000
00000000
00000000
00001000
00000000
00000001
00000000
00001001
00000000
00001000
00000000
,  // measure 68
00000220
00000000
00000000
00000000
,  // measure 69
00000000
00000330
00000000
00000000
;

//---------------dance-double - Telperion----------------
#NOTES:
     dance-double:
     Telperion:
     Challenge:
     9:
     0.461,0.541,0.304,0.074,0.252,384.000,41.000,10.000,12.000,0.000,12.000,0.461,0.541,0.304,0.074,0.252,384.000,41.000,10.000,12.000,0.000,12.000:
00000000
00000000
00000000
00000000
,
00000000
00000000
00000000
00000000
,
00000000
00000000
00000000
00000000
,
00000000
00000000
00000000
00011000
,
00000010
00000000
00000000
00000100
00000000
00000000
00001000
00000000
00000000
00010000
00000000
00000000
00100000
00000000
00000000
00010000
,
00000000
00000000
01000000
00000000
00000000
10000000
00000000
00000000
00100000
00000000
00000000
00000000
10000000
00000000
01000000
00000000
,
00100000
00000000
00000000
01000000
00000000
00000000
00010000
00000000
00000000
00001000
00000000
00000000
00000010
00000000
00000000
00001000
,
00000000
00000000
00000100
00000000
00000000
00000001
00000000
00000000
00001000
00000000
00000000
00000000
00000011
00000000
00000001
00000000
,
00000101
00001010
00010100
01001000
,
00110000
00000000
11000000
00000000
10100000
00000000
01001000
00010000
,
00000110
00001100
00011000
00110000
,
11000000
0M000001
00000000
00010000
00001000
00010000
00000100
00000110
,
00000002
00000000
00000000
00000003
,
00000000
00000000
00000000
00000000
00000100
00001000
00020000
00000000
,
00000010
00000000
00000000
00000000
00031000
00010000
01000000
00000000
10000000
00000000
00000000
00000000
00100000
00000000
00100000
00000000
,
00000000
00100000
M0000000
01000000
10000000
01000000
00010000
10000000
,
20000000
00000000
00000000
30000000
,
00000000
00000000
M0000000
01000000
00010000
01000000
00100000
00000000
,
00001000
01000000
00001000
00010000
00000100
00000000
00000010
00000010
,
00000000
00000010
00000000
00000100
00000001
00000100
00001000
00000001
,
00000001
00000000
00001000
00000100
00010000
00001000
01000000
00100000
,
00100000
00000000
01000000
00000000
00010000
10000000
01000000
10000000
,
00002000
00000000
00000000
00000000
00013000
00001000
00000100
00000000
00000001
00000000
00000000
00000000
00000010
00000000
00000010
00000000
,
00000000
00000010
0000000M
00000100
00000001
00000100
00001000
00000001
,
00000001
00000000
00001000
01000000
00100000
01000000
10000000
00100000
,
00100000
00000000
01000000
00100000
10000000
00100000
01000000
00000000
,
00010000
00100000
00001000
00000010
00000100
00000000
00000010
00000010
,
00000000
00000000
00000000
00000000
00000000
00000000
00000000
00000000
00000000
00000000
00000000
00000000
00000000
00000000
00000000
00000000
00000002
00000000
00000000
00000000
00000000
00000000
00000000
00000000
00000000
00000000
00000000
00000000
00000000
00000000
00000000
00000003
00000001
00000000
00000000
00000000
00000000
00000000
00000000
00000000
00000000
00000000
00000000
00000000
00000000
00000000
00000000
00000000
00001001
00000000
00000000
00000000
00000000
00000000
00000000
00000000
00001000
00000000
00000000
00000000
00000000
00000000
00000000
00000000
,
M00M1004
00000403
00004300
00043000
,
00430000
40300000
34000000
03400000
,
00310000
00100000
00010000
10000000
00010000
01000000
00001000
00010000
,
00000010
00001000
00000001
00001000
00000100
00000010
00001001
00000001
,
00001001
00000000
00000000
00001000
00000010
00000000
00100000
00000000
00010000
00100000
00000000
00000000
00000100
00000000
00000000
00001000
,
00000100
00000000
01000000
00000000
00010000
01000000
00000000
00000000
00010000
00000000
00000000
00000000
11000000
00000000
10000000
00000000
,
10010000
00000000
00000000
00010000
00100000
00000000
00000010
00000000
00001000
00000010
00000000
00000000
01000000
00000000
00000000
00010000
,
01000000
00000000
00000100
00000000
00001000
00000100
00000000
00000000
00010000
00000000
00000000
00000000
00000011
00000000
00000001
00000000
,
00001001
00000000
00000000
00001000
00000100
00000000
00100000
00000000
00010000
00100000
00000000
00000000
00000010
00000000
00000000
00001000
,
00000010
00000000
01000000
00000000
00010000
01000000
00000000
00000000
00001000
00000000
00000000
00000000
00110000
00000000
10000000
00000000
,
11000000
00000000
00000000
00010000
01000000
00000000
00001000
00000000
00010000
00000010
00000000
00000000
00001000
00000000
00000000
00000100
,
00010000
00000000
00001000
00000000
00100000
00010000
10000000
00000000
00010000
00000000
00100000
00000000
10010000
00000000
00010000
00000000
,
10010000
00000000
00000000
10000000
01000000
00000000
00010000
00000000
00001000
00010000
01000000
00000000
00010000
00000000
00001000
00000100
,
00000001
00000000
00000000
00000001
00001000
00000000
00000001
00000000
00000010
00001000
00010000
00000000
00001100
00000000
00010000
00000000
,
00001001
00000000
00000000
00000001
00000100
00000000
00001000
00000000
00010000
00001000
00000100
00000000
00001000
00000000
00010000
01000000
,
00010000
00000000
00000000
00001000
00010000
00000000
00100000
00000000
10000000
00000000
01000000
00000000
01100000
00000000
01000000
00000000
,
10010000
00000000
00000000
00000000
,
00000000
00000000
00000000
00000000
10000000
01000000
00010000
00000000
,
00002000
00000000
00000000
00000000
00013000
00001000
00000100
00000000
00000001
00000000
00000000
00000000
00000010
00000000
00000010
00000000
,
00000000
00000010
0000000M
00000100
00000001
00000100
00001000
00000010
,
00000010
00000000
00000000
01000000
10000000
01000000
00010000
00100000
,
00100000
000M0000
00100000
01000000
00010000
01000000
00100000
00000000
,
11000000
10000000
00040000
00000000
04030000
00000000
03004000
00000000
,
00043000
00000000
00000000
00000000
00000000
00000000
00000000
00000000
00000000
00000000
00000000
00000000
00000000
00000000
00000000
00000000
00030002
00000000
00000000
00000000
00000000
00000000
00000000
00000000
00000000
00000000
00000000
00000000
00000000
00000000
00000000
00000003
00000001
00000000
00000000
00000000
00000000
00000000
00000000
00000000
00000000
00000000
00000000
00000000
00000000
00000000
00000000
00000000
00001001
00000000
00000000
00000000
00000000
00000000
00000000
00000000
00001000
00000000
00000000
00000000
00000000
00000000
00000000
00000000
,
00001001
00000000
00000000
00000001
00000000
00000000
00000010
00000000
00000000
00001000
00000000
00000000
00010000
00000000
00000000
00100000
,
00000000
00000000
00010000
00000000
00000000
01000000
00000000
00000000
10000000
00000000
00000000
00000000
01100000
00000000
01000000
00000000
,
00010000
00000000
00000000
10000000
00000000
00000000
00100000
00000000
00000000
00010000
00000000
00000000
00001000
00000000
00000000
00000010
,
00000000
00000000
00001000
00000000
00000000
00000100
00000000
00000000
00000001
00000000
00000000
00000000
00000110
00000000
00000010
00000000
,
00001001
00000000
00000000
00001000
00000000
00000000
00000010
00000000
00000000
00000001
00000000
00000000
00001000
00000000
00000000
00010000
,
00000000
00000000
01000000
00000000
00000000
10000000
00000000
00000000
00100000
00000000
00000000
00000000
01100000
00000000
00100000
00000000
,
10000000
00000000
00000000
00010000
00000000
00000000
00100000
00000000
00000000
10000000
00000000
00000000
00010000
00000000
00000000
00001000
,
00000000
00000000
00000100
00000000
00000000
00000010
00001000
00000000
00000010
00000000
00000100
00000000
00000001
00000000
00000100
00000000
,
00001000
00000000
00000000
00010000
00000000
00000000
00001000
00000000
00000000
00000010
00000000
00000000
00001000
00000000
00000000
00010000
,
00000000
00000000
00001000
00000000
00000000
00000100
00000000
00000000
00000010
00000000
000000M0
00000000
00000001
00000000
00010000
00000000
,
00010000
00000000
00000000
00001000
00000000
00000000
00010000
00000000
00000000
00100000
00000000
00000000
00010000
00000000
00000000
00001000
,
00000000
00000000
00010000
00000000
00000000
01000000
00100000
00000000
00010000
00000000
10000000
00000000
10010000
00000000
00010000
00000000
,
10000000
00000000
00000000
01000000
00000000
00000000
00010000
00000000
00000000
00001000
00000000
00000000
00100000
00000000
00000000
01000000
,
00000000
00000000
10000000
00000000
00000000
00010000
00000000
00000000
01000000
00000000
00100000
00000000
00010000
00000000
00001000
00000000
,
00000010
00000000
00000000
00000010
00000000
00000000
00000010
00000000
00000000
00000010
00000000
00000000
00000010
00000000
00000000
00000010
,
00000000
00000000
00000010
00000000
00000000
00000010
00000000
00000000
00000010
00000000
00000001
00000000
200000M0
00000000
30000000
00000000
,
00022000
00000000
00000000
00000000
,
00033000
00000000
00000000
0000M000
000M0000
00000000
00000000
00000000
;
