#TITLE:KiLLiNG ME;
#SUBTITLE:;
#ARTIST:SiM;
#TITLETRANSLIT:;
#SUBTITLETRANSLIT:;
#ARTISTTRANSLIT:;
#GENRE:J-Punk Rock;
#CREDIT:Telperion;
#BANNER:;
#BACKGROUND:../fallback-bg.png;
#LYRICSPATH:;
#CDTITLE:;
#MUSIC:km.ogg;
#OFFSET:-1.249;
#SAMPLESTART:37.491;
#SAMPLELENGTH:23.446;
#SELECTABLE:YES;
#DISPLAYBPM:202.000:210.000;
#BPMS:0=210,96=204,128=210,188=207,192=210,352=202,368=210;
#STOPS:
;
#BGCHANGES:;
#KEYSOUNDS:;
#ATTACKS:;

//---------------dance-double - Telperion----------------
#NOTES:
     dance-double:
     Telperion:
     Challenge:
     11:
     0.842,0.891,0.712,0.372,0.142,595.000,88.000,46.000,48.000,0.000,0.000,0.842,0.891,0.712,0.372,0.142,595.000,88.000,46.000,48.000,0.000,0.000: // measure 0
00000MMM
00000000
00000MMM
00000000
00000000
10000000
00000000
00010000
,  // measure 1
00000000
10000000
00000000
00010000
00000000
10000000
00100000
01000000
,  // measure 2
00002MMM
00000000
00003MMM
00000000
00000000
00010000
00000000
00001000
,  // measure 3
00000000
00010000
00000100
00001000
00000100
00010000
00000010
00000000
,  // measure 4
MMM00200
00000000
MMM00300
00000000
00000000
00000001
00000000
00001000
,  // measure 5
00000000
00000001
00000000
00001000
00000000
00000001
00000010
00000100
,  // measure 6
MMM20000
00000000
MMM30000
00000000
00000000
00001000
00000000
00001000
,  // measure 7
00000000
00010000
00001000
00000100
00000002
00000000
00000000
00000003
,  // measure 8
00001010
00000000
00000101
00000000
00001000
00000100
00000000
00101000
,  // measure 9
00000000
00010010
00000000
01001000
00000000
00000100
00010000
01000000
,  // measure 10
10000000
00000000
01010000
00000000
10000000
00001000
00000000
00010100
,  // measure 11
00000000
00101000
00010000
10000000
00100000
01000000
00010000
00100000
,  // measure 12
00110000
00000000
11000000
00000000
00010000
01000000
00000000
00010010
,  // measure 13
00000000
00101000
00000000
00010100
00000000
01000000
00001000
00000100
,  // measure 14
00000010
00000000
00001010
00000000
00000100
00010000
00011000
00000000
,  // measure 15
00210000
00000000
00000000
00000000
01300000
00100000
01000000
00000000
,  // measure 16
20020000
00000000
30030000
00000000
10000000
00001000
00010000
00001000
,  // measure 17
00100000
00000100
00001000
00000010
01000000
00010000
00100000
01000000
,  // measure 18
20020000
00000000
30030000
00000000
10000000
00001000
00010000
00001000
,  // measure 19
00100000
01000000
00010000
01000000
00100000
00001000
00000010
00000001
,  // measure 20
00000100
00000010
00000100
00000001
00010000
00001000
00010000
00000100
,  // measure 21
01000000
00100000
01000000
00010000
10000000
00001000
00010000
01000000
,  // measure 22
10000000
00100000
01000000
00100000
10000000
00001000
00010000
00001000
,  // measure 23
00100000
00000010
00000100
00000001
00000020
00000000
00000032
00000000
,  // measure 24
00001003
00000000
00000000
00000000
00001000
00000000
00000000
00000000
00000100
00000000
00010000
00001000
00010000
00000000
00000100
00000000
,  // measure 25
00000000
00000000
00010000
00001000
00010000
00000000
00000100
00000000
00010000
00000000
00001000
00000000
00100000
00000000
00000000
00000000
,  // measure 26
00110000
00000000
00000000
00000000
00010000
00000000
00000000
00000000
01000000
00000000
00001000
00010000
00001000
00000000
01000000
00000000
,  // measure 27
00000000
00000000
00001000
00010000
00001000
00000000
01000000
00000000
00100000
00000000
01000000
00000000
10000000
00000000
01000000
00000000
,  // measure 28
00010000
00000000
00000000
00000000
00010000
00000000
00000000
00000000
00100000
00000000
00001000
00010000
00001000
00000000
10000000
00000000
,  // measure 29
00000000
00000000
00001000
00010000
00001000
00000000
00100000
00000000
00010000
00000000
00100000
00000000
00001000
00000000
00010000
00000000
,  // measure 30
00000100
00000000
00000000
00000000
00000010
00000000
00000000
00000000
00000001
00000000
00001000
00000001
00001000
00000000
00000010
00000000
,  // measure 31
00000000
00000100
00000100
00000000
00000000
00000000
00000000
00000021
,  // measure 32
00000000
00000130
00001000
00000000
00000001
00001000
00000100
00010000
,  // measure 33
00MMM000
01000000
00010000
00000000
00100000
00001000
00010000
00000001
,  // measure 34
00000000
00000001
00000010
00000000
00000100
00001000
00000100
00010000
,  // measure 35
00MMM000
01000000
00010000
00000000
01000000
00100000
00000000
10200000
,  // measure 36
00000000
01300000
00010000
00000000
10000000
00010000
01000000
00001000
,  // measure 37
00MMM000
00000100
00010000
00000000
00001000
00010000
00000100
00000010
,  // measure 38
00000000
00000100
00001000
00000000
00000001
00000100
00000001
00000010
,  // measure 39
00000000
00000100
00000001
00000100
00010000
01000000
10000000
00100000
,  // measure 40
00000000
00000000
01000000
00000000
10020000
00000000
00000000
00030100
,  // measure 41
00000000
00000000
00000010
00000000
00002001
00000000
00000000
01003000
,  // measure 42
00000000
00000000
00100000
00000000
00010000
00100000
00000000
22000000
,  // measure 43
00000000
30000000
13000000
00000000
10010000
00000000
00010000
00000000
01001000
00000000
01000000
00000000
00011000
00000000
00000020
00000000
,  // measure 44
00000000
00000130
00000001
00000100
00000010
00001000
00000100
00000000
,  // measure 45
00100000
00001000
01000000
00000000
00100000
10000000
00010000
00000000
,  // measure 46
00100000
00000000
00000000
01000000
00000000
00000000
10000000
00000000
00000000
01000000
00000000
00000000
00010000
00000000
01000000
00000000
00100000
00000000
00001000
00000000
00010000
00000000
00000010
00000000
,  // measure 47
00001000
00000000
00000000
00000000
,  // measure 48
00001010
00000000
00000101
00000000
00001000
00000100
00000000
00101000
,  // measure 49
00000000
00010010
00000000
01001000
00000000
00000100
00010000
01000000
,  // measure 50
00100000
00000000
11000000
00000000
10000000
00001000
00000000
00010010
,  // measure 51
00000000
01001000
00010000
00000100
00010000
00011000
00000000
00000100
,  // measure 52
00000110
00000000
00001001
00000000
00000100
00010000
00000000
01001000
,  // measure 53
00000000
00010100
00000000
00110000
00000000
00001000
00010000
00100000
,  // measure 54
10000000
00000000
01010000
00000000
10000000
00010000
00000000
00010010
,  // measure 55
00000000
01000000
00001000
01000000
00100000
01000000
00010000
00100000
,  // measure 56
02200000
00000000
03300000
00000000
10000000
01000000
10000000
00000000
,  // measure 57
00010000
01000000
00001000
00000000
00010000
00000100
00001000
00000000
,  // measure 58
00000220
00000000
00000330
00000000
00000001
00000100
00000001
00000000
,  // measure 59
00001000
00000100
00010000
00000000
00001000
01000000
00010000
01000000
,  // measure 60
02200000
00000000
03300000
00000000
00010000
01000000
10000000
01000000
,  // measure 61
00010000
00100000
01000000
00010000
00001000
00000100
00000001
00000010
,  // measure 62
00000220
00000000
00000000
00000000
00000330
00000000
00000000
00000000
00000100
00000000
00010000
00001000
00010000
00000000
00000100
00000000
,  // measure 63
00000000
00000100
00000100
00000000
00000000
00000000
00000000
00000021
,  // measure 64
00000000
00000130
00001000
00000000
00000001
00000100
00001000
00010000
,  // measure 65
00MM0M00
01000000
00100000
00000000
10000000
00100000
01000000
00001000
,  // measure 66
00000000
00000100
00000001
00000000
00000010
00000100
00010000
00001000
,  // measure 67
0MM0M000
00000100
00010000
00000000
01000000
00100000
00000000
10020000
,  // measure 68
00000000
00130000
01000000
00000000
10000000
00100000
00010000
00001000
,  // measure 69
0000MMM0
00000100
00000010
00000000
00000001
00001000
00000100
00010000
,  // measure 70
00000000
01000000
10000000
00000000
00010000
01000000
00010000
00100000
,  // measure 71
00000000
01000000
00100000
01000000
00010000
00000100
00000010
00000001
,  // measure 72
00000000
00000000
00000100
00000000
00002001
00000000
00000000
01003000
,  // measure 73
00000000
00000000
00100000
00000000
10020000
00000000
00000000
00030100
,  // measure 74
00000000
00000000
00000010
00000000
00001000
00000010
00000000
00000202
,  // measure 75
00000003
00000301
00001001
00001000
00010100
00001000
00011000
00200000
,  // measure 76
00000000
01300000
10000000
00010000
01000000
00010000
10000000
00000000
,  // measure 77
00100000
01000000
00001000
00000000
00010000
00000100
00001000
00000000
,  // measure 78
00000001
00000100
00001000
00000100
00000010
00010000
00100000
00010000
,  // measure 79
00001000
00100000
00001000
00100000
00010000
00000000
00000000
00000000
00000000
00000000
00000000
00000000
00000000
00000000
00000000
00000000
,  // measure 80
00000000
00000000
00000000
00000000
11000000
00000000
00000000
00000000
00101000
00000000
00001000
00010000
00001000
00000000
00100000
00000000
,  // measure 81
00000000
00000000
00010000
00000000
01000000
00010000
01000000
00010000
01000000
00100000
01000000
00100000
01000000
00010000
10000000
00000000
,  // measure 82
00000000
00000000
00000000
00000000
11000000
00000000
00000000
00000000
10000000
00010000
10000000
00010000
01000000
00001000
01000000
00001000
,  // measure 83
00010000
00000010
00010000
00000010
00001000
00000000
00000000
00000000
00000001
00000000
00000010
00000000
00000000
00000000
00002200
00000000
,  // measure 84
00000300
00003100
00010000
00000000
00001000
01000000
00100000
10000000
,  // measure 85
MM0M0000
01000000
00001000
00000000
00010000
00000100
00000010
00000001
,  // measure 86
0000MM0M
00000100
00001000
00000000
00000100
00010000
00001000
01000000
,  // measure 87
00000000
00000000
00100000
00000000
10000000
00000000
00100000
01000000
00100000
00000000
01000000
00000000
00001000
00000000
00020000
00000000
,  // measure 88
00000000
00030000
00000100
00000000
00000022
00000000
00000030
00002003
,  // measure 89
00000000
00003000
00000100
00000000
00202000
00000000
00003000
02300000
,  // measure 90
00000000
00000000
13000000
00000000
00010000
01000000
00000000
00010010
,  // measure 91
00000000
00010000
00001000
01000000
00100000
01000000
00010000
20000000
,  // measure 92
00000000
31000000
01100000
00000000
11000000
00000000
10100000
00000000
,  // measure 93
01001000
00000000
00110000
00000000
00001100
00000000
00010010
00000002
,  // measure 94
00000000
00000000
00000103
00000010
00000100
00000001
00000100
00000001
00001000
00000100
00001000
00000100
00010000
00000100
01000000
00001000
,  // measure 95
00010000
00000000
00000000
00000000
,  // measure 96
00110000
00000000
11000000
00000000
00010000
01000000
00000000
00010010
,  // measure 97
00000000
00101000
00000000
00010100
00000000
01000000
00001000
00000100
,  // measure 98
00000001
00000000
00001100
00000000
00000001
00010000
00000000
01001000
,  // measure 99
00000000
00010010
00001000
00000001
00000010
00000001
00000100
00000001
,  // measure 100
00001010
00000000
00000101
00000000
00001000
00000100
00000000
00101000
,  // measure 101
00000000
00010010
00000000
01001000
00000000
00000100
00010000
01000000
,  // measure 102
00110000
00000000
11000000
00000000
00010000
01000000
00000000
00010010
,  // measure 103
00000000
00000000
00001100
00000000
00010000
00000000
00001000
00000000
01000000
00000000
00000100
00001000
00000100
00000000
00010000
00000000
,  // measure 104
00011000
00000000
00022000
00000000
00000000
00000000
00000000
00033000
;

//---------------dance-double - Telperion----------------
#NOTES:
     dance-double:
     Telperion:
     Hard:
     8:
     0.633,0.679,0.429,0.639,0.000,416.000,53.000,79.000,0.000,0.000,0.000,0.633,0.679,0.429,0.639,0.000,416.000,53.000,79.000,0.000,0.000,0.000:
00000000
00000000
00000000
00000000
,
00000000
00000000
00000000
00000000
,
00000000
00000000
00000000
00000000
,
00000000
00000000
00000000
00000000
,
00000000
00000000
00000000
00000000
,
00000000
00000000
00000000
00000000
,
00000000
00000000
00000000
00000000
,
00000000
00000000
00000000
00000000
,
10100000
00000000
20200000
30300000
00000000
01000000
00000000
00001000
,
00000000
00010000
00000000
00000100
00000000
00000010
00000100
00001000
,
00000001
00000000
00000202
00000303
00000000
00001000
00000000
00000100
,
00000000
00010000
00000000
00001000
00100000
00010000
00000000
00100000
,
01000000
00000000
22000000
33000000
00000000
00010000
00000000
01000000
,
00000000
00001000
00000000
00010000
00000000
00000010
00000100
00000001
,
00001000
00000000
00001100
00000000
00000001
00000100
00000101
00000000
,
00001020
00000000
00001000
00000000
00001030
00000010
00001000
00000000
,
00000011
00000000
00000022
00000033
00000000
00000001
00000000
00001000
,
00000000
00000100
00000000
00010000
00000000
00100000
10000000
00010000
,
01000000
00000000
02020000
03030000
00000000
10000000
00000000
00010000
,
00000000
00100000
00000000
00001000
00010000
00001000
00000000
00100000
,
01000000
00000000
20020000
30030000
00000000
10000000
00000000
00010000
,
00000000
01000000
00000000
00001000
00000000
00000010
00000001
00001000
,
00000100
00000000
00002200
00003300
00000000
00000001
00000000
00001000
,
00000000
00000010
00000100
00001000
00000100
00000000
00000010
00000000
,
00002001
00000000
00000000
00000000
00000002
00000000
00000000
00003000
,
00002000
00000000
00000000
00000003
00000002
00000000
00000000
00003000
,
00002000
00000000
00000000
00000000
00000000
00000000
00000000
00003003
,
00000000
00000000
00000000
00000000
,
00001000
00000000
00000100
00000000
00010000
00000100
00000000
00010000
,
00001000
00000000
00000000
00200000
00000000
00000000
01300000
00000000
,
10000000
00000000
10000000
00000000
00010000
10000000
00000000
00010000
,
00000000
10000000
00010000
00000000
00000000
00000000
00000000
10100000
,
00000000
10000000
01000000
00000000
00020000
00000000
00030000
00001000
,
00000000
00001000
00000100
00000000
00000001
00000010
00000100
00001000
,
00000000
00000001
00000100
00000000
00002000
00000000
00003000
00010000
,
00000000
00010000
01000000
00000000
10000000
00100000
00000000
10010000
,
00000000
10000000
01000000
00000000
00020000
00000000
00030000
00001000
,
00000000
00001000
00000100
00000000
00000001
00001000
00000001
00000010
,
00000000
00000001
00000010
00000000
00002000
00000000
00003000
00010000
,
00000000
00010000
00100000
00000000
10000000
00100000
01000000
00020000
,
00000000
00000000
10000000
00000000
00130000
00000000
01000000
20000000
,
00000000
00000000
00100000
00000000
30010000
00000000
01000000
00002000
,
00000000
00000000
01000000
00000000
00013000
00000010
00000000
00000200
,
00000000
00000301
00001000
00000001
00000100
00000001
00001000
00000020
,
00000000
00000030
00000100
00000000
00000001
00000010
00000000
00001000
,
00000000
00010000
00000000
01000000
00000000
00100000
00000000
20000000
,
00000000
30100000
00010000
00000000
00110000
00000000
11000000
00000000
,
00110000
00000000
00000000
00000000
,
10100000
00000000
20200000
30300000
00000000
01000000
00000000
00001000
,
00000000
00010000
00000000
00000100
00000000
00000010
00000100
00001000
,
00000001
00000000
00000202
00000303
00000000
00001000
00000000
00000100
,
00000000
00010000
00001000
01000000
00010000
00100000
00000000
00010000
,
01000000
00000000
02020000
03030000
00000000
10000000
00000000
00010000
,
00000000
01000000
00000000
00001000
00000000
00000010
00000100
00001000
,
00000001
00000000
00000202
00000303
00000000
00001000
00000000
00000100
,
00000000
00010000
00001000
00010000
00000100
00010000
00001000
00000000
,
00011000
00000000
00022000
00033000
00000000
00000000
01000000
00000000
,
00000000
01000000
00000000
01000000
,
00011000
00000000
00022000
00033000
00000000
00000000
00000100
00000000
,
00000000
00000000
00000100
00000000
00000000
00000100
00010000
00000000
,
00011000
00000000
00022000
00033000
00000000
00010000
00000010
00001000
,
00000010
00010000
00000010
00001000
00000010
00010000
00000100
00000000
,
00000022
00000000
00000033
00000022
00000033
00001000
00000001
00000100
,
00000000
00000001
00001000
00000000
00000000
00000000
00000000
00000011
,
00000000
00000001
00000100
00000000
00002000
00000000
00003000
00010000
,
00000000
00010000
01000000
00000000
10000000
00010000
10000000
00100000
,
00000000
10000000
01000000
00000000
00020000
00000000
00030000
00001000
,
00000000
00001000
00000100
00000000
00000001
00000010
00000000
00001001
,
00000000
00000001
00000100
00000000
00002000
00000000
00003000
00010000
,
00000000
00010000
01000000
00000000
10000000
00010000
10000000
00100000
,
00000000
10000000
00100000
00000000
00020000
00000000
00030000
00001000
,
00000000
00001000
00000010
00000000
00000001
00000010
00000100
00002000
,
00000000
00000000
00000001
00000000
00003010
00000000
00000100
00000002
,
00000000
00000000
00000010
00000000
00001003
00000000
00000100
00020000
,
00000000
00000000
00000100
00000000
00031000
00100000
00000000
02000000
,
00000000
13000000
00010000
10000000
01000000
10000000
00010000
00200000
,
00000000
00300000
01000000
00000000
10000000
00100000
00000000
00010000
,
00000000
00001000
00000000
00000100
00000000
00000010
00000000
00000002
,
00000000
00000013
00001000
00000000
00001010
00000000
00000101
00000000
,
00001010
00000001
00000010
00000000
00000000
00000000
00000000
00000000
,
00000000
00000000
00000011
00000000
00001100
00000000
00000100
00010000
,
00000000
00001000
01000000
00100000
02000000
00000000
03000000
10010000
,
00000000
20000000
32000000
03020000
,
00032000
00000000
00003020
00000000
00000031
00000010
00000000
00001001
,
00000000
00000001
00000100
00000000
00002000
00000000
00003000
00010000
,
00000000
00010000
01000000
10000000
01000000
00100000
00000000
00010000
,
00000000
00010000
01000000
00000000
00100000
00000000
01000000
00000000
,
00010000
00000000
10000000
00010000
01000000
00001000
00010000
00000020
,
00000000
00000000
00000130
00000000
00001001
00000000
00000000
00001200
,
00000000
00000000
00010300
00000000
00010010
00000000
00000000
00021000
,
00000000
00000000
00030100
00000000
00010000
00001000
00000000
01001000
,
00000000
00000000
01000000
00000000
00010000
01000000
00010000
00200000
,
00000000
01300000
10000000
00000000
00100000
00000000
00010000
00000000
,
00001000
00000000
00000100
00000000
00000001
00000000
00001000
00000020
,
00000000
00000130
00000001
00000100
00000010
00001000
00000001
00000010
,
00000100
00000000
00000000
00000000
,
00000011
00000000
00000022
00000033
00000000
00000100
00000000
00010000
,
00000000
00001000
00000000
01000000
00000000
00100000
10000000
00010000
,
01000000
00000000
02020000
03030000
00000000
10000000
00000000
00010000
,
00000000
01000000
00001000
00010000
00000010
00001000
00000000
00000010
,
00000100
00000000
00000202
00000303
00000000
00001000
00000000
00000100
,
00000000
00010000
00000000
00001000
00000000
00100000
01000000
10000000
,
00010000
00000000
01010000
00000000
10000000
00010000
00000000
01000000
,
00000000
00001000
00010000
00000000
01001000
00000000
00001000
00000000
,
00010100
00000000
00020200
00000000
00000000
00000000
00000000
00030300
;
