#TITLE:Islands;
#SUBTITLE:;
#ARTIST:the XX;
#TITLETRANSLIT:;
#SUBTITLETRANSLIT:;
#ARTISTTRANSLIT:;
#GENRE:Indie Pop;
#CREDIT:Telperion;
#BANNER:;
#BACKGROUND:../fallback-bg.png;
#LYRICSPATH:;
#CDTITLE:;
#MUSIC:islands.ogg;
#OFFSET:-0.142;
#SAMPLESTART:18.510;
#SAMPLELENGTH:15.442;
#SELECTABLE:YES;
#DISPLAYBPM:62.006;
#BPMS:0.000=62.005
,11.000=31.003
,11.500=62.005
,18.500=31.003
,19.000=62.005
,26.000=31.003
,26.500=62.005
,33.500=31.003
,34.000=62.005
,41.000=31.003
,41.500=62.005
,47.500=31.003
,48.500=62.005
,63.500=31.003
,64.000=62.005
,78.000=31.003
,79.000=62.005
;
#STOPS:
;
#BGCHANGES:;
#KEYSOUNDS:;
#ATTACKS:;

//---------------dance-double - Telperion----------------
#NOTES:
     dance-double:
     Telperion:
     Challenge:
     9:
     0.466,0.396,0.144,0.062,0.813,297.000,14.000,6.000,50.000,0.000,0.000,0.466,0.396,0.144,0.062,0.813,297.000,14.000,6.000,50.000,0.000,0.000:
00000000
00000000
00000000
00000000
,
10000000
00010000
00000100
00000010
00010000
01000000
00000000
20000000
00000000
31000000
00000010
00000100
00000100
00000010
00000000
00000002
,
00000000
00000000
00000103
00000000
00100000
00000000
01000000
00000000
01000000
00000000
00010000
00000000
00000000
00000000
20000000
00000000
00000000
00000000
31000000
00000000
00100000
00000000
01000000
00000000
00M00000
0M000000
00M00000
00000000
00000001
00000000
00001000
00000000
,
00100000
10000000
00010000
00000010
00000000
00000200
00000000
00010300
00100000
00010000
00001000
10000000
00000000
01000000
01000000
00100000
,
00000010
00000100
00000100
00000010
00000000
00001000
00000001
00000000
00000000
00000000
0MM00001
0MM00001
00001000
00000100
10000000
00010000
,
00100000
00000000
00000000
00000001
00000000
00000000
00000000
00000000
00000000
00001000
00000000
00000001
00001000
00000000
00000000
00000100
00000000
00000000
01000000
00000000
00000000
00010000
00000000
00000000
00100000
00000000
00000000
00000010
00000000
00000000
00000000
00000000
00000000
00000100
00000000
00000010
00000100
00000000
00000000
00000001
00000000
00000000
00010000
00000000
00000000
00001000
00000000
00000000
,
00100000
00000000
00000000
01000000
00000000
00000000
00000000
00000000
00000000
00100000
00000000
00010000
10000000
00000000
00000000
00100000
00000000
00000000
00010000
00000000
00000000
00100000
00000000
00000000
10000MM0
00000000
00000000
10000MM0
00000000
00000000
00010000
00000000
00000000
10000000
00000000
00000000
00000010
00000000
00000000
00000100
00000000
00000000
00000001
00000000
00000000
00100000
00000000
00000000
,
00000000
00000000
00000000
01000000
00000000
10000000
00010000
00000000
00000000
01000000
00000000
00000000
00000010
00000000
00000000
00001000
00000000
00000000
00000100
00000000
00000000
00100000
00000000
00000000
00000000
00000000
00000000
01000000
00000000
00100000
01000000
00000000
00000000
10000000
00000000
00000000
00001000
00000000
00000000
01000000
00000000
00000000
01000000
00000000
00000000
00001000
00000000
00000000
,
00000000
00000000
00000000
00010000
00000000
00000100
00001000
00000000
00000000
00000100
00000000
00000000
00000010
00000000
00000000
00000000
00000000
00000000
0MM00001
00000000
00000000
0MM00001
00000000
00000000
00001000
00000000
00000000
00000100
00000000
00000000
10000000
00000000
00000000
00001000
00000000
00000000
01000000
00000000
00000000
00000001
00000000
00000000
00000000
00000000
00000000
00000010
00000000
00000001
,
00001000
00000000
00000000
00000100
00000000
00000000
10000000
00000000
00000000
00100000
00000000
00000000
01000000
00000000
00000000
00001000
00000000
00000000
00000000
00000000
00000000
00010000
00000000
00001000
00100000
00000000
00000000
01000000
00000000
00000000
10000000
00000000
00000000
00100000
00000000
00000000
00010000
00000000
00000000
00001000
00000000
00000000
00000100
00000000
00000000
00000001
00000000
00001000
,
00000001
00000000
00000000
00000010
00000000
00000000
00000100
00000000
00000000
00001000
00000000
00000000
0MM00001
00000000
00000000
0MM00001
00000000
00000000
00000010
00000000
00000000
00000001
00000000
00000000
00100000
00000000
00000000
01000000
00000000
00000000
10000000
00000000
00000000
00000010
00000000
00000000
00000000
00000000
00000000
00001000
00000000
00000010
00001000
00000000
00000000
00000100
00000000
00000000
,
10000000
00000000
00000000
01000000
00000000
00000000
00100000
00000000
00000000
00000001
00000000
00000000
00000000
00000000
00000000
00000100
00000000
00000001
00000100
00000000
00000000
00000010
00000000
00000000
00100000
00000000
00000000
00010000
00000000
00000000
01000000
00000000
00000000
00000100
00000000
00000000
00010000
00000000
00000000
01000000
00000000
00000000
10000MM0
00000000
00000000
10000MM0
00000000
00000000
,
M0000000
00200000
00000000
00000000
00000000
00000000
00000000
00000000
,
00000000
00010000
01000000
10300000
,
00110000
00000000
10000000
00000000
00011000
00001000
00000100
00000000
00011000
00010000
01000000
00000000
00011000
00000100
00001000
00000000
,
00011000
01000000
00100000
00000000
11000000
10000000
00010000
00000000
00101000
00010000
00000010
00000100
00000100
00000000
0MM00001
0MM00001
,
00001000
00000010
00001001
00000001
00000000
00000010
00000100
00000000
00010000
01000000
10010000
10000000
00000000
00100000
01000000
00000000
,
00001000
00010000
01001000
01000000
00000000
00100000
01000000
00001000
00010000
00001000
00010100
00000100
00000000
00001000
00000100
00000000
,
00010000
00001000
00000100
00001000
00010000
00001000
00000010
00000000
00000100
00010000
00100000
00010000
00001000
00010000
01000000
00000000
,
00100000
00000000
00000000
00000000
00000000
00000000
00000000
00000000
00000000
00000000
00000000
00000000
00001000
00000000
00000000
00000000
00000000
00000000
00000000
00000000
00000000
00000000
00000000
00000000
00000100
00000000
00000000
00000000
00000000
00000000
00000000
00000000
00000000
00000000
00000000
00000000
00000000
00000000
00000000
00000000
00000000
00000000
00000000
00000000
00000000
00000000
00000000
00000000
00010000
00000000
00000000
00000000
00000000
00000000
00000000
00000000
00000000
00000000
00000000
00000000
01000000
00000000
00000000
00000000
00000000
00000000
00000000
00000000
00000000
00000000
00000000
00000000
00100000
00000000
00000000
00000000
00000000
00000000
00000000
00000000
00000000
00000000
00000000
00000000
00000000
00000000
00000000
00000000
00000000
00000000
00000000
00000000
00000000
00000000
00000000
00000000
0001M000
00000000
00000000
00000000
00000000
00000000
00100M00
00000000
00000000
00000000
00000000
00000000
00100M00
00000000
00000000
00000000
00000000
00000000
00100M00
00000000
00000000
00000000
00000000
00000000
010000M0
00000000
00000000
00000000
00000000
00000000
00100M00
00000000
00000000
00000000
00000000
00000000
1001M00M
00000000
00000000
00000000
00000000
00000000
00000000
00000000
00000000
00000000
00000000
00000000
00100000
00000000
00000000
00000000
00000000
00000000
00000000
00000000
00000000
00000000
00000000
00000000
00000000
00000000
00000000
00000000
00000000
00000000
00000000
00000000
10000000
00000000
00000000
00000000
010000M0
00000000
00000000
00000000
00000000
00000000
00000000
00000000
00000000
00000000
00000000
00000000
00010000
00000000
00000000
00000000
00000000
00000000
00000000
00000000
00000000
00000000
00000000
00000000
,
00001000
00000000
00000000
00000100
00000000
00000000
00M00001
00000000
00000100
00000000
00000000
00000000
00000010
00000000
00000000
00000000
00000000
00001000
0M000001
00000000
00000000
00000010
00000000
00000000
00001000
00000000
00000000
00010000
00000000
00000000
001000M0
00000000
00010000
00000000
00000000
00000000
00001000
00000000
00000000
00000000
00000000
00010000
01000M00
00000000
00000000
10000000
00000000
00000000
,
00010000
00000000
00000000
01000000
00000000
00000000
0000010M
00000000
00001000
00000000
00000000
00000000
00000100
00000000
00000000
00000000
00000000
00010000
M0001000
00000000
00000000
00000100
00000000
00000000
00000001
00000000
00000000
00000010
00000000
00000000
000M0100
00000000
00000010
00000000
00000000
00000000
00000001
00000000
00000000
00001000
00000000
00000010
00M01000
00000000
00000000
00000100
00000000
00000000
,
00010000
00000000
00000000
01000000
00000000
00000000
1000M000
00000000
01000000
00000000
00000000
00000000
10000000
00000000
00000000
00010000
00000000
00100000
00010M00
00000000
00000000
01000000
00000000
00000000
00100000
00000000
00000000
00010000
00000000
00000000
000010M0
00000000
00100000
00000000
00000000
00000000
00010000
00000000
00000000
00000000
00000000
00000000
0011000M
00000000
00000000
00000000
00000000
00000000
,
00000100
00001000
M0001010
00000000
00000200
00000300
00000000
00000000
00000000
00000000
00000000
00000000
00000000
00000000
00000000
00000000
;

//---------------dance-double - Telperion----------------
#NOTES:
     dance-double:
     Telperion:
     Hard:
     8:
     0.398,0.336,0.031,0.134,0.612,255.000,3.000,13.000,0.000,0.000,0.000,0.398,0.336,0.031,0.134,0.612,255.000,3.000,13.000,0.000,0.000,0.000: // measure 0
00000000
00000000
00000000
00000000
,  // measure 1
10000000
01000000
00100000
00010000
01000000
00100000
00000000
01000000
00010000
01000000
00100000
00010000
00001000
00100000
00000000
01000000
,  // measure 2
00010000
00001000
00000010
00000100
00001000
00000010
00000000
00000100
00000001
00000100
00000020
00000000
00000030
00000000
10000000
01000000
,  // measure 3
00100000
00010000
01000000
10000000
00000000
01000000
00010000
01000000
00100000
00010000
00001000
00100000
00000000
01000000
00010000
00001000
,  // measure 4
00000010
00000100
00001000
00000010
00000000
00000100
00000002
00000000
00000000
00000000
00000003
00000000
10000000
01000000
00100000
00010000
,  // measure 5
01000000
00100000
00000000
01000000
00010000
01000000
00100000
00010000
00001000
00100000
00000000
01000000
00010000
00001000
00000010
00000100
,  // measure 6
00001000
00000010
00000000
00000100
00000001
00000100
00000020
00000000
00000030
00000000
10000000
01000000
00100000
00010000
01000000
10000000
,  // measure 7
00000000
01000000
00010000
01000000
00100000
00010000
00001000
00100000
00000000
01000000
00010000
00001000
00000010
00000100
00001000
00000010
,  // measure 8
00000000
00000100
00000001
00000100
00000020
00000000
00000030
00000000
10000000
01000000
00010000
10000000
00100000
01000000
00000000
10000000
,  // measure 9
00010000
01000000
00100000
00010000
00001000
00100000
00000000
01000000
00010000
00001000
00000010
00000100
00001000
00000010
00000000
00000100
,  // measure 10
00000001
00000100
00000020
00000000
00000030
00000000
10000000
01000000
00010000
01000000
10000000
00100000
00000000
01000000
10000000
01000000
,  // measure 11
00100000
00010000
00001000
00100000
00000000
01000000
00010000
00001000
00000010
00000100
00001000
00000010
00000000
00000100
00000002
00000003
,  // measure 12
00000000
00000000
00000010
00000000
00000000
00000020
00000000
00000000
00000030
00000000
00000010
00000000
00000000
00000020
00000000
00000000
,  // measure 13
00000030
00000000
00000100
00000000
00001000
00000200
00000000
00000000
00000300
00000000
00000100
00000000
00001000
00000200
00000000
00000000
,  // measure 14
00000300
00000000
00010000
00000000
00001000
00100000
00010000
00000000
01000000
00010000
00100000
00000000
00001000
00010000
00000010
00000000
,  // measure 15
00001000
00000100
00000010
00000000
00000100
00001000
00000100
00000000
00010000
00000100
00010000
00001000
00002000
00000000
00003000
00000000
,  // measure 16
00100000
00000000
00010000
10000000
00000000
00000000
10000000
00000000
00100000
00000000
10000000
00010000
00000000
00010000
00100000
00010000
,  // measure 17
01000000
00000000
00100000
01000000
00000000
00000000
01000000
00000000
00001000
00000000
00010000
00001000
00000000
00001000
00010000
00001000
,  // measure 18
00000100
00000000
00000010
00000100
00000000
00000000
00000100
00000000
00000001
00000000
00001000
00000001
00000000
00000000
00000001
00000000
,  // measure 19
00000010
00000000
00000000
00000000
00000100
00000000
00000010
00000000
00000100
00000000
00000000
00000000
00001000
00000000
00000000
00000000
00000002
00000000
00000000
00000000
00000000
00000000
00000000
00000000
00000103
00000000
00000000
00000001
00001000
00000000
00000001
00000000
,  // measure 20
00000100
00000000
00000000
00000000
00001010
00000000
00000000
00000000
00010000
00000000
00000000
00001000
00010000
00000000
01000000
00000000
00100000
00000000
00000000
00000000
11000000
00000000
00000000
00000000
00010000
00000000
00000000
10000000
00010000
00000000
01000000
00000000
,  // measure 21
00100000
00000000
00000000
00000000
01001000
00000000
00000000
00000000
00010000
00000000
00000000
00000100
00010000
00000000
00001000
00000000
00000100
00000000
00001000
00000000
00010000
00000000
00000000
00000000
00000010
00000000
00000000
00001000
00000001
00000000
00001000
00000000
,  // measure 22
00000010
00000000
00000100
00000000
00000010
00000000
00001000
00000000
00000010
00000000
00000000
00001000
00000001
00000000
00001000
00000000
00000010
00000000
00000100
00000000
00000010
00000000
00010000
00000000
00000100
00000000
00000000
00001000
00000100
00000000
00010000
00000000
,  // measure 23
00001000
00000000
01000000
00000000
00010000
01000000
00000000
00000000
00200000
00000000
00300000
00000000
00000000
00000000
00000000
00000000
00000000
00000000
00000000
00000000
00000000
00000000
00000000
00000000
00000000
00000000
00000000
00000000
00000000
00000000
00000000
00000000
;
