#TITLE:Do Back Burn;
#SUBTITLE:;
#ARTIST:PRASTIK DANCEFLOOR;
#TITLETRANSLIT:;
#SUBTITLETRANSLIT:;
#ARTISTTRANSLIT:;
#GENRE:Electro;
#CREDIT:Telperion;
#BANNER:;
#BACKGROUND:../fallback-bg.png;
#LYRICSPATH:;
#CDTITLE:;
#MUSIC:dbb.ogg;
#OFFSET:-0.364;
#SAMPLESTART:14.494;
#SAMPLELENGTH:28.095;
#SELECTABLE:YES;
#DISPLAYBPM:136.000;
#BPMS:0.000=136.000
;
#STOPS:
;
#BGCHANGES:;
#KEYSOUNDS:;
#ATTACKS:;

//---------------dance-double - Telperion----------------
#NOTES:
     dance-double:
     Telperion:
     Hard:
     8:
     0.521,0.533,0.050,0.100,0.286,348.000,5.000,10.000,0.000,0.000,0.000,0.521,0.533,0.050,0.100,0.286,348.000,5.000,10.000,0.000,0.000,0.000: // measure 0
00000000
00000000
00000000
00000000
,  // measure 1
00000000
00000000
00000000
00000000
,  // measure 2
00000000
00000000
00000000
00000000
,  // measure 3
00000000
00000000
00000000
00000000
,  // measure 4
01000000
00000000
00001000
00000000
00100000
00000000
01000000
00000000
00010000
00000000
00000000
01000000
00100000
01000000
00000000
00000000
,  // measure 5
10000000
10000000
10000000
00010000
,  // measure 6
00000100
00000000
00000010
00000000
00010000
00000000
00000100
00000000
00001000
00000000
00000000
00000001
00000010
00000001
00000000
00000000
,  // measure 7
00000100
00000000
00000000
00001000
00000000
00000000
00010000
00000000
00000000
00100000
00000000
00000000
00000000
00000000
00000000
00000000
00000000
00000000
02000000
00000000
00000000
00000000
00000000
00000000
03100000
00000000
00000000
00000000
00010000
00000000
00000000
00000000
00001000
00000000
00000000
00000000
00000100
00000000
00000000
00000000
00000000
00000000
00000001
00000000
00000000
00000000
00000000
00000000
,  // measure 8
00000010
00000100
00001000
00010000
00000000
01000000
00010000
00001000
,  // measure 9
00000000
00000100
00001000
00010000
01000000
00100000
00000000
10000000
,  // measure 10
00100000
01000000
00010000
00001000
00000000
00000100
00001000
00010000
,  // measure 11
00000000
01000000
00010000
00001000
00000100
00000010
00000000
00000001
,  // measure 12
00001000
00000100
00001000
00010000
00000000
01000000
00010000
00001000
,  // measure 13
00000000
00000100
00001000
00010000
01000000
00100000
00000000
01000000
,  // measure 14
00000000
01000000
00010000
00001000
00000000
00000100
00001000
00010000
,  // measure 15
00000000
00110000
00000000
10000000
00000000
10100000
00100000
10000000
,  // measure 16
01000000
00100000
00010000
00001000
00000000
00000010
00001000
00010000
,  // measure 17
00000000
00100000
00010000
00001000
00000000
00000010
00000100
00000001
,  // measure 18
00000100
00000010
00001000
00010000
00000000
00100000
00010000
00001000
,  // measure 19
00000000
00000010
00001000
00010000
00000000
00100000
01000000
10000000
,  // measure 20
00010000
00100000
00010000
00001000
00000000
00000010
00001000
00010000
,  // measure 21
00000000
00100000
00010000
00001000
00000000
00000010
00000100
00000001
,  // measure 22
00000000
00000001
00001000
00010000
00000000
10000000
00010000
00001000
,  // measure 23
00000000
00000000
00000020
00000000
00000030
00000000
00000010
00001000
00000000
00001000
00000010
00000000
00001000
00000000
00000001
00000000
,  // measure 24
00000102
00000003
00000000
00000000
00000000
00000000
00000100
00000001
00000000
00000010
00000000
00000000
00000000
00000000
00000100
00000000
,  // measure 25
00010000
00000010
00000000
00000000
00000000
00000000
00010000
00001000
00000000
00010000
00000000
00000000
00000000
00000000
01000000
00000000
,  // measure 26
20000000
30000000
00000000
00000000
00000000
00000000
00010000
01000000
00000000
00100000
00000000
00000000
00000000
00000000
01000000
00000000
,  // measure 27
00001000
00010000
00000000
00000000
00000000
00000100
00010000
00001000
00000000
00000010
00000000
00000000
00000000
00000000
00000001
00000000
,  // measure 28
00002000
00003000
00000000
00000000
00000000
00000000
00000100
00001000
00000000
00000010
00000000
00000000
00000000
00001000
00000100
00000000
,  // measure 29
00010000
00000010
00000000
00000000
00000000
00010000
00001000
00010000
00000000
01000000
00000000
00000000
00000000
01000000
10000000
00000000
,  // measure 30
00020000
00030000
00000000
00000000
00000000
00000000
01000000
00010000
00000000
00100000
00000000
00000000
00010000
01000000
00010000
20000000
,  // measure 31
00000000
00000000
30000000
00000000
,  // measure 32
10000000
00100000
01000000
00010000
00100000
01000000
10000000
00100000
,  // measure 33
00010000
00001000
00100000
00001000
00010000
00001000
00000100
00000001
,  // measure 34
00000010
00000000
00000100
00001000
00000010
00000000
00000100
00000010
,  // measure 35
00000001
00000000
00000010
00001000
00000001
00001000
00000100
00000010
,  // measure 36
00000001
00000010
00000100
00001000
00000010
00000100
00000001
00000010
,  // measure 37
00001000
00010000
00000100
00010000
00001000
00010000
01000000
10000000
,  // measure 38
00100000
01000000
00100000
01000000
00010000
01000000
00010000
01000000
,  // measure 39
00001000
00000000
00010000
00000000
00001000
00000000
01000000
00000000
00001000
00010000
00001000
00000000
01000000
00010000
01000000
00001000
,  // measure 40
00010000
00000000
00000000
00000000
00000100
00000000
00000000
00000000
00000010
00000000
00000000
00000100
00000000
00001000
00000000
00000000
,  // measure 41
00000001
00000100
00000010
00000100
00001000
00010000
01000000
00010000
,  // measure 42
00001000
00000000
00000000
00000000
01000000
00000000
00000000
00000000
00100000
00000000
00000000
01000000
00000000
00010000
00000000
00000000
,  // measure 43
10000000
01000000
00010000
01000000
00100000
00010000
00001000
00000100
,  // measure 44
00010000
00000000
00000000
00000000
00000100
00000000
00000000
00000000
00000010
00000000
00000000
00000100
00000000
00001000
00000000
00000000
,  // measure 45
00000001
00000010
00001000
00000010
00000100
00000010
00001000
00010000
,  // measure 46
00001000
00000000
00000000
00000000
01000000
00000000
00000000
00000000
00100000
00000000
00000000
01000000
00000000
00010000
00000000
00000000
,  // measure 47
10000000
00100000
00000000
00000000
00100000
00000000
01000000
00010000
00000000
00000000
00010000
00000000
00100000
00000000
00001000
00000000
,  // measure 48
00010000
00000000
01000000
00000000
01100000
00000000
01000000
00000000
10000000
00000000
00000000
00010000
00000000
01000000
00000000
00010000
,  // measure 49
10000000
00010000
01000000
00001000
00010000
00000100
00001000
00000010
,  // measure 50
00010000
00000000
00000100
00000000
00000110
00000000
00000001
00000000
00000100
00000000
00000000
00000001
00000000
00001000
00000000
00000001
,  // measure 51
00000010
00000001
00001000
00000010
00010000
00001000
00200000
00300000
,  // measure 52
00001000
00010000
00000100
00001000
00000020
00000000
00000030
00000000
,  // measure 53
00000100
00000100
00000100
00000100
,  // measure 54
00000001
00001000
00000100
00010000
00000020
00000000
00000030
00000000
,  // measure 55
00001000
00000000
00000000
00000000
00001000
00000000
00000000
00000100
00000000
00001000
00000100
00010000
00001000
00010000
00000100
00010000
;

//---------------dance-double - Telperion----------------
#NOTES:
     dance-double:
     Telperion:
     Challenge:
     10:
     0.650,0.618,0.361,0.120,0.457,405.000,36.000,12.000,106.000,6.000,9.000,0.650,0.618,0.361,0.120,0.457,405.000,36.000,12.000,106.000,6.000,9.000:
0000000M
00000000
000000M0
00000000
00000M00
00000000
0000M000
00000000
000M0000
00000000
00000000
00M00000
0M000000
M0000000
00000000
00000000
,
0000000M
0000000M
0000000M
0000000M
,
M0000000
00000000
0M000000
00000000
00M00000
00000000
000M0000
00000000
0000M000
00000000
00000000
00000M00
000000M0
0000000M
00000000
00000000
,
M0000000
00000000
00000000
00000000
M0000000
00000000
00000000
00000000
M0000000
00000000
00000000
00000000
M0000000
M0000000
MM000000
00000000
,
00000001
00000000
00000100
00000000
00001000
00000000
00010000
00000000
01000000
00000000
00000000
00100000
01000000
10000000
00000000
00000000
,
0000000M
0000000M
0000000M
00004000
,
10003000
00000000
01000000
00000000
00010000
00000000
00001000
00000000
00000100
00000000
00000000
00000001
00000010
00000100
00000000
00000000
,
00000010
00000000
00000000
00001000
00000000
00000000
00010000
00000000
00000000
00100000
00000000
00000000
00000000
00000000
00000000
00000000
00000000
00000000
04000000
00000000
00000000
00000000
00000000
00000000
03100000
00000000
00000000
00000000
00010000
00000000
00000000
00000000
00001000
00000000
00000000
00000000
00000200
00000000
00000000
00000000
00000000
00000000
00000300
00000000
00000000
00000000
00000000
00000000
,
00000010
00001000
00000100
00000011
00000000
00001000
00000100
00011000
,
00000000
00100000
00010000
22000000
00000000
00100000
00000000
33010000
,
00000000
10000000
00100000
01010000
00000000
00010000
01000000
00011000
,
00000000
00000010
00001000
00000202
00000000
00000010
00000000
00001303
,
00000000
00000001
00001000
00000101
00000000
00001000
00000001
00010100
,
00000000
00001000
00100000
22000000
00000000
00100000
00000000
33010000
,
00000000
10000000
00100000
01010000
00000000
01000000
00001000
00011000
,
00000000
00000000
00010000
00001000
00000000
01000000
00001000
00010000
00000000
00000100
00010000
00001000
00010000
00000000
00010000
00000000
,
00001000
00010000
01000000
11000000
10000000
00100000
00010000
00011000
,
00001000
00000100
00000001
00000011
00000000
00001100
00000000
00000011
,
00000001
00000010
00001000
00011000
00010000
00100000
10000000
10100000
,
10000000
01000000
00010000
00011000
00000000
00100010
00000000
01000100
,
00001000
00010000
00001000
00100100
00010000
00001000
00010000
01000010
,
00001000
00010000
00001000
00100200
00000000
00000010
00000000
00001300
,
00000001
00000100
00001000
00011000
01000000
00010000
00100000
00011000
,
00000001
00000000
00001000
00000001
00M00000
00000000
00010000
00001000
00000M00
10000000
00010000
10000000
00000M00
00001000
00010000
00000001
,
00M00010
00000001
00000000
00000000
00000M00
00000000
00001000
00000010
00000000
00100000
00000000
00000000
M00M0000
01000000
00100000
01000000
,
10000000
00100000
00000000
00000000
00M00000
01000000
00001000
00010000
00000000
00000100
00000000
00000000
0000M00M
00000100
00000010
00000001
,
00000100
00000001
00000000
00000000
000000M0
00000000
00001000
00000010
00000000
00100000
00000000
00000000
MM000000
00010000
00100000
01000000
,
10000000
00100000
00000000
00000000
M0000000
01000000
00001000
00010000
00000000
00000001
00000000
00000000
00000MM1
00010000
00001000
00100000
,
01000000
10000000
00000000
00000000
00M00000
00000000
00001000
00010000
00000000
00001000
00000000
00000000
0M0000M0
00000100
00000001
00000010
,
00000100
00000010
00000000
00000000
00000M00
00001000
00010000
00100000
00000000
00010000
0M0000M0
00000000
00000000
00001000
00010000
00001000
,
10000000
00100000
00000000
00000000
0M000000
00000000
10000000
00001000
00000000
00010000
00000000
00000000
00M00M01
00001000
00M00M01
00000010
,
00000000
00000010
00000000
00000000
00000100
00010000
00001000
01000000
00000000
00100000
00000000
00000000
10000000
01000000
00100000
00010000
,
01000000
0001M000
0M010000
00001M00
000M1000
0000001M
0000M010
00000M01
,
000000M1
00000000
00000100
00000000
00000040
00000030
00000100
00000000
00004000
00003000
00000100
00000000
00040000
00030000
00000100
00000000
,
04000000
03000000
00001000
00100000
00020000
00030000
10000000
00100000
,
00020000
00030000
00001000
00000100
00000001
00000010
00001000
00000010
,
00000100
000M1000
00001M00
00M10000
0001M000
0M100000
001M0000
1M000000
,
10M00000
00000000
01000000
00000000
00400000
00300000
01000000
00000000
00040000
00030000
01000000
00000000
00004000
00003000
00100000
00000000
,
10000000
00100000
10000000
00100000
01000000
00100000
01000000
00010000
,
00001000
00000000
00000100
00000010
00001000
00000000
00000100
00000010
00000001
00000100
00000010
00000100
00000001
00000010
00000100
00000010
,
00001000
00000000
00000010
00000000
00001000
00000000
00010000
00000000
00100000
00000000
00000000
00010000
00001000
00010000
00000000
00000000
,
01000000
00100000
0001MM00
00100000
10000000
00100000
0001MM00
00000000
,
01000000
00000000
00100000
00000000
00010000
00000000
00001000
00000000
00000010
00000000
00000000
00001000
00010000
00000010
00000000
00000000
,
00000100
00001000
00MM0100
00000001
00000010
00001000
002000MM
00000000
,
00300010
00000000
00000100
00000000
00001000
00000000
00010000
00000000
01000000
00000000
00000000
00100000
01000000
10000000
00000000
00000000
,
00010000
01000000
1000MM00
01000000
00010000
01000000
0010MM00
00000000
,
10000000
00000000
01000000
00000000
00010000
00000000
00001000
00000000
00000100
00000000
00000000
00000001
00000010
00000100
00000000
00000000
,
00000010
00000001
00001000
00000000
00000010
00000000
00010000
00001000
10000000
00010000
00100000
00000000
00001000
00000000
00010000
00000010
,
00000100
00000010
M00M1001
00000010
00000100
00000010
M00M1001
00000000
,
00000001
00001000
0001100M
00001000
000M1010
00001000
000110M0
00000000
,
00001000
00100000
110000MM
00010000
10000000
00100000
0101M0M0
00000000
,
10000000
00000000
00010000
00000000
M0011000
00000000
00010000
00000000
0011M000
00000000
10000000
00000000
000M2010
00000000
00000000
00003000
,
00000001
00000010
00000001
00001000
00000001
00000010
00000100
00001000
,
00000100
00010000
01000000
00010000
00001000
00100000
01000000
00100000
,
00010000
10000000
00100000
10000000
00010000
10000000
00001000
10000000
,
00000100
00000000
00010000
00000000
00000100
00000000
01000000
00001000
00010000
00001000
01000000
00001000
00010000
00000100
00000010
00000001
,
MMMMMMM0
00000000
00000000
00000000
;

//---------------dance-double - very groovy----------------
#NOTES:
     dance-double:
     :
     Edit:
     10:
     0.691,0.618,0.442,0.040,0.487,434.000,44.000,4.000,176.000,0.000,9.000,0.691,0.618,0.442,0.040,0.487,434.000,44.000,4.000,176.000,0.000,9.000:
0000000M
00000000
000000M0
00000000
00000M00
00000000
0000M000
00000000
000M0000
00000000
00000000
00M00000
0M000000
M0000000
00000000
00000000
,
0000000M
0000000M
0000000M
0000000M
,
M0000000
00000000
0M000000
00000000
00M00000
00000000
000M0000
00000000
0000M000
00000000
00000000
00000M00
000000M0
0000000M
00000000
00000000
,
M0000000
00000000
00000000
00000000
M0000000
00000000
00000000
00000000
M0000000
00000000
00000000
00000000
M0000000
M0000000
MM000000
00000000
,
00000001
00000000
00000100
00000000
00001000
00000000
00010000
00000000
01000000
00000000
00000000
00100000
01000000
10000000
00000000
00000000
,
0000000M
0000000M
0000000M
00004000
,
10003000
00000000
01000000
00000000
00010000
00000000
00001000
00000000
00000100
00000000
00000000
00000001
00000010
00000100
00000000
00000000
,
00000010
00000000
00000000
00001000
00000000
00000000
00010000
00000000
00000000
00100000
00000000
00000000
00000000
00000000
00000000
00000000
00000000
00000000
04000000
00000000
00000000
00000000
00000000
00000000
03100000
00000000
00000000
00000000
00010000
00000000
00000000
00000000
00001000
00000000
00000000
00000000
00000200
00000000
00000000
00000000
00000000
00000000
00000300
00000000
00000000
00000000
00000000
00000000
,
00000010
00010000
00001000
001MM100
00010000
00001000
00010000
010MM010
,
00000010
00100000
00010000
0011M0M0
000M1000
00M01010
0001M000
001010M0
,
00100000
00001000
00010000
010MM010
00001000
00010000
00001000
001MM100
,
00100000
00000010
00001000
00001010
0001M000
001100M0
00010000
00MM1010
,
00000100
00000001
00000010
000011MM
00000100
00100000
00010000
01M1M000
,
01000000
00000010
00001000
0M0011M0
0001M000
00110M00
000M1000
00M01010
,
00000100
00000001
00000010
000011MM
00010000
00001000
01000000
1M1MM000
,
01000000
00000000
00001000
00010000
00000000
00000100
00M01000
00000100
00000000
01000000
00001000
01000000
00000M00
00000000
00010000
01000000
,
00001000
00000100
00000010
00011MM0
00010000
01000000
00100000
0MM11000
,
00001000
00000100
00000010
00011MM0
00010000
1001MM00
00010000
MM011000
,
00010000
00100000
01000000
0MM11000
00001000
00000010
00000100
00011MM0
,
00001000
01000000
00100000
0MM11000
00001000
00MM1001
00001000
0000M11M
,
00000001
00000010
00000100
00011MM0
10000000
00100000
00010000
0MM11000
,
00000001
00000010
00001000
00011MM0
001M0000
0011M000
000M0010
00M01010
,
00010000
00001000
01000000
1M10M000
10000000
00001000
00010000
000MM011
,
00000001
00000000
00001000
00000001
00M00000
00000000
00010000
00001000
00000M00
10000000
00010000
10000000
00000M00
00001000
00010000
00000001
,
00M00010
00000001
00000000
00000000
00000M00
00000000
00001000
00000010
00000000
00100000
00000000
00000000
M00M0000
01000000
00100000
01000000
,
10000000
00100000
00000000
00000000
00M00000
01000000
00001000
00010000
00000000
00000100
00000000
00000000
0000M00M
00000100
00000010
00000001
,
00000100
00000001
00000000
00000000
000000M0
00000000
00001000
00000010
00000000
00100000
00000000
00000000
MM000000
00010000
00100000
01000000
,
10000000
00100000
00000000
00000000
00M00000
01000000
00001000
00010000
00000000
00000001
00000000
00000000
00000MM1
00010000
00001000
00100000
,
01000000
10000000
00000000
00000000
00M00000
00000000
00001000
00010000
00000000
00001000
00000000
00000000
0M0000M0
00000100
00000001
00000010
,
00000100
00000010
00000000
00000000
000000M0
00001000
00010000
00100000
00000000
00010000
0M0000M0
00000000
00000000
00001000
00010000
00001000
,
10000000
00100000
00000000
00000000
0M000000
00000000
10000000
00001000
00000000
00010000
00000000
00000000
00M00M01
00001000
00M00M01
00000010
,
00000000
00000010
00000000
00000000
00000100
00010000
00001000
01000000
00000000
00100000
00000000
00000000
10000000
01000000
00100000
00010000
,
01000000
0001M000
0M010000
00001M00
000M1000
0000001M
0000M010
00000M01
,
000000M1
00000000
00000100
00000000
00000040
00000030
00000100
00000000
00004000
00003000
00000100
00000000
00040000
00030000
00000100
00000000
,
04000000
03000000
00001000
00100000
00020000
00030000
10000000
00100000
,
00020000
00030000
00001000
00000100
00000001
00000010
00001000
00000010
,
00000100
000M1000
00001M00
00M10000
0001M000
0M100000
001M0000
1M000000
,
10M00000
00000000
01000000
00000000
00400000
00300000
01000000
00000000
00040000
00030000
01000000
00000000
00004000
00003000
00100000
00000000
,
10000000
00100000
10000000
00100000
01000000
00100000
01000000
00010000
,
00001000
00000000
00000100
00000010
00001000
00000000
00000100
00000010
00000001
00000100
00000010
00000100
00000001
00000010
00000100
00000010
,
00001000
00000000
00000010
00000000
00001000
00000000
00010000
00000000
00100000
00000000
00000000
00010000
00001000
00010000
00000000
00000000
,
01000000
00100000
0001MM00
00100000
10000000
00100000
0001MM00
00000000
,
01000000
00000000
00100000
00000000
00010000
00000000
00001000
00000000
00000010
00000000
00000000
00001000
00010000
00000010
00000000
00000000
,
00000100
00001000
00MM0100
00000001
00000010
00001000
002000MM
00000000
,
00300010
00000000
00000100
00000000
00001000
00000000
00010000
00000000
01000000
00000000
00000000
00100000
00000100
00100000
00000000
00000000
,
00010000
01000000
1000MM00
01000000
00010000
01000000
0010MM00
00000000
,
10000000
00000000
01000000
00000000
00010000
00000000
00001000
00000000
00000100
00000000
00000000
00000001
00000010
00000100
00000000
00000000
,
00000010
00000001
00001000
00000000
00000010
00000000
00010000
00001000
10000000
00010000
00100000
00000000
00001000
00000000
00010000
00000010
,
00000100
00000010
M00M1001
00000010
00000100
00000010
M00M1001
00000000
,
00000001
00001000
0001100M
00001000
000M1010
00001000
000110M0
00000000
,
00001000
00100000
110000MM
00010000
10000000
00100000
0101M0M0
00000000
,
10000000
00000000
00010000
00000000
M0011000
00000000
00010000
00000000
0011M000
00000000
10M00000
00000000
000M1010
00000000
00000010
00000100
,
00000001
00000010
00000001
00001000
00000001
00000010
00000100
00001000
,
00000100
00000000
00010000
00001000
01000000
00000000
00001000
00100000
00010000
00000000
00100000
01000000
00100000
00000000
00010000
00100000
,
01000000
10000000
00100000
10000000
00010000
10000000
00001000
10000000
,
00000100
00000000
00010000
00000000
00000100
00000000
01000000
00001000
00010000
00001000
01000000
00001000
00010000
00000100
00000010
00000001
,
MMMMMMM0
00000000
00000000
00000000
;
