#TITLE:Chaosmaid;
#SUBTITLE:;
#ARTIST:paraoka feat. Acme Iku;
#TITLETRANSLIT:;
#SUBTITLETRANSLIT:;
#ARTISTTRANSLIT:;
#GENRE:Maidloid Chaoscore;
#CREDIT:Telperion;
#BANNER:;
#BACKGROUND:../fallback-bg.png;
#LYRICSPATH:;
#CDTITLE:;
#MUSIC:kaosmaid.ogg;
#OFFSET:-0.685;
#SAMPLESTART:10.853;
#SAMPLELENGTH:12.698;
#SELECTABLE:YES;
#DISPLAYBPM:94.500:189.000;
#BPMS:0.000=189.000
,180.000=94.500
,196.000=189.000
,247.500=283.500
,248.500=189.000
;
#STOPS:244.500=0.317,
245.500=0.318,
246.500=0.317,
247.500=0.106
;
#BGCHANGES:;
#KEYSOUNDS:;
#ATTACKS:;

//---------------dance-double - Telperion----------------
#NOTES:
     dance-double:
     Telperion:
     Challenge:
     13:
     0.879,1.000,0.141,0.062,0.747,677.000,16.000,7.000,49.000,0.000,19.000,0.879,1.000,0.141,0.062,0.747,677.000,16.000,7.000,49.000,0.000,19.000:
00000000
00000000
00000000
00000000
,
00000000
00000000
00000000
00000000
,
00000000
00000000
00000000
00000000
,
00000000
00000000
00000000
00000000
,
10000000
01000000
10000000
00010000
01000000
00100000
01000000
00001000
,
00010000
00000100
00010000
00001000
00000010
00000100
00001000
00000001
,
00000010
00000001
00001000
00000010
00000100
00000010
00010000
00001000
,
00010000
00000000
00000100
00000000
01000000
00000000
00001000
00000000
00100000
00010000
00100000
01000000
10000000
00000000
00000000
00000000
,
00010000
01000000
00100000
10000000
00100000
01000000
00010000
00000000
00100000
01000000
00100000
00001000
00010000
00001000
00100000
00000000
,
01000000
10000000
00010000
01000000
00010000
10000000
01000000
00010000
00000100
00001000
00000100
00010000
00001000
00010000
00000100
00000000
,
00001000
00000001
00000100
00000010
00001000
00000010
00000100
00000000
00000001
00001000
00000100
00000010
00000001
00000010
00000100
00000000
,
00000001
00000100
00000001
00000100
00000010
00000000
00000100
00000000
00004000
00000000
00000000
00000000
00003004
00000000
00000000
00000000
,
00001003
00000100
00000010
00000001
00000010
00000100
00001000
00000000
00000010
00000100
00000010
00010000
00001000
00010000
00000100
00000000
,
00000010
00000001
00001000
00000010
00001000
00000001
00000010
00001000
00010000
00001000
00100000
00001000
00100000
00010000
01000000
00000000
,
00100000
10000000
00100000
01000000
00010000
01000000
00100000
00000000
10000000
00010000
00100000
00010000
10000000
00000000
01000000
10000000
,
00100000
00000000
01000000
00010000
00100000
00000000
00001000
00010000
00000400
00000000
00000000
00000000
00000340
00000000
00000000
00000000
,
00000031
00000100
00000001
00000010
00000010
00000100
00001000
00000100
,
00000100
00010000
00001000
00100000
00010000
01000000
00100000
00000000
,
10010000
00000000
00010000
00000000
10000000
00010000
01000000
00000000
,
00010000
00100000
00010000
00000000
00100000
01000000
00100000
00001000
,
00010000
00001000
01000000
00000000
00000010
00001000
00000100
00000000
,
00010000
00001000
00100000
00000000
01000000
10000000
00100000
00000000
,
00010000
00001000
00100000
00010000
00001000
00000100
00000010
00000001
,
00000100
00000001
00000010
00000000
00000100
00010000
00000010
00000000
,
00000100
00000001
00004000
00003000
00000100
00001000
00000010
00000000
,
01000000
00001000
00400000
00300000
01000000
10000000
00100000
00000000
,
01010000
00010000
10000000
00010000
00100000
00010000
01000000
00000000
,
00001000
00010000
00000100
00000010
00000100
00001000
00000001
00000000
,
00000100
00000010
00000100
00000001
00000010
00000100
00001000
00000000
,
00000100
01000000
00001000
00100000
00010000
01000000
00100000
00000000
,
00010000
00100000
00010000
00001000
00000100
00000001
00000010
00000000
,
00000100
00010000
00001000
00000000
10000000
00010000
00100000
00000000
,
01000000
00000000
10000000
00000000
00010000
01000000
00010000
01000000
00100000
00000000
01000000
00000000
00001000
00010000
00001000
00010000
,
00001000
01000000
00010000
01000000
00001000
01000000
00010000
01000000
00004000
00000000
00000000
00000000
00043000
00000000
00000000
00000000
,
00030001
00001000
00000100
01001000
00000000
10100000
00000000
10000000
,
00100000
01000000
00010000
00001000
00000010
00000100
00000001
00000010
,
00000011
00001000
00000010
01001000
00000000
10100000
00000000
01000000
,
00100000
10000000
00010000
00100000
00000100
00001000
00000010
00000100
,
00000101
00001000
00000100
00101000
00000000
11000000
00000000
00100000
,
10000000
01000000
00010000
00001000
00000010
00000100
00001000
00000001
,
00000101
00001000
00000100
00101000
00000000
11000000
00000000
10000000
,
00010000
00000000
01000000
00000000
00100000
00000000
00010000
00000000
00001000
00000000
00000010
00000000
00000100
00001000
00000100
00000010
,
00000001
00000000
00000100
00000010
00000100
00000010
00001000
00000000
00000100
00010000
00001000
00000000
01000000
00000000
00200000
00000000
,
00000000
00000000
00000000
10000000
,
02000000
00000000
00000000
03300000
,
100MMMMM
00000000
00000000
10000000
01000000
00000000
00000000
01000000
00100000
00000000
00000000
00100000
00002000
01000000
00000000
00000000
,
00013000
00000000
00000000
00010000
00001000
00000000
00000000
00001000
00000100
00000000
00000000
00000001
00000020
00000100
00000000
00000000
,
00000031
00000000
00000000
00000001
00000100
00000000
00000000
00000100
00000010
00000000
00000000
00000010
00020000
00000100
00000000
00000000
,
00130000
00000000
00000000
00000000
00000000
00000000
00100000
00000000
01000000
00000000
00000000
00000000
00000000
00000000
01000000
00000000
00010000
00000000
10000000
00010000
00000000
10000000
00010000
00000000
00400000
00000000
00000000
00000000
00000000
00000000
00000000
00000000
,
013MMMMM
00000000
10000000
01000000
00100000
00000000
00001000
00000000
00010000
00000000
00001000
00000000
00000100
00000000
00000001
00000000
,
00000010
00000100
00000010
00000000
00000001
00000000
00001000
00000001
00001000
00000100
00010000
00001000
00010000
00000000
01000000
00000000
,
00100000
01000000
10000000
00010000
00010000
01000000
00100000
01000000
,
10000000
01000000
10000000
01000000
00100000
00000000
10000000
00000000
00040000
00000000
00000000
00000000
04030000
00000000
00000000
00000000
,
03001000
00000000
00010000
00000100
00000010
00000000
00000100
00000000
00001000
00000000
00000001
00000000
00000010
00000000
00001000
00000000
,
00010000
00000000
00000010
00000000
00000100
00000001
00000100
00000001
00000010
00000100
00010000
00001000
00010000
00000000
00000100
00000000
,
01000000
00100000
01000000
00010000
00010000
10000000
00100000
10000000
,
01000000
10000000
01000000
00100000
00010000
01000000
00010000
00100000
00004000
00000000
00000000
00000000
00043000
00000000
00000000
00000000
,
00030010
00000000
00000010
00000000
00000100
00000001
00000100
00000010
00001000
00000000
00001000
00000000
00000100
00010000
00001000
01000000
,
00010000
00000000
00010000
00000000
01000000
00010000
01000000
00100000
10000000
01000000
00100000
00010000
10000000
00000000
00010000
00000000
,
00100000
00000000
00100000
00000000
01000000
10000000
01000000
10000000
00010000
00000000
00010000
00000000
01000000
00001000
01000000
00001000
,
00010000
00000100
00010000
00000000
00000010
00000100
00000010
00000000
00001000
00000000
00004000
00000000
00003004
00000000
00000000
00000000
,
00000013
00000010
0000100M
00001000
00100M00
00100000
010M0000
01000000
,
00M00000
10000000
00100000
01000000
00010000
01000000
00100000
10000000
,
00010000
00000000
00100000
00000000
01000000
00000000
10000000
00100000
01000000
00000000
00010000
00100000
00001000
00000000
01000000
00010000
,
00100000
00000000
01000000
10000000
00010000
00100000
00010000
00100000
00010000
10000000
00010000
10000000
01000000
10000000
01000000
00100000
,
00010000
00000000
00100000
00000000
00001000
00100000
00001000
00100000
00001000
00010000
00001000
00010000
00000100
00010000
00000100
00001000
,
00000010
00000000
00001000
00000000
00000100
00001000
00000100
00000010
00000001
00000010
00000100
00001000
00000100
00001000
00000100
00000010
,
00000001
00000000
00001000
00000000
00000001
00000100
00000001
00001000
00000010
00001000
00000001
00000100
00000001
00001000
00000100
00001000
,
00000010
00000000
00010000
00000000
00001000
00010000
00000100
00001000
00000010
00001000
00000100
00010000
00001000
01000000
00001000
00100000
,
00010000
00000000
00100000
00000000
01000000
10000000
01000000
10000000
00010000
01000000
00010000
01000000
00001000
00010000
00001000
00010000
,
00000040
00000000
00004030
00000000
M0003002
0M000000
00M00000
000M0000
0000M000
000M0000
00M00000
0M000000
00M00000
000M0000
0000M000
00000M00
,
0000M000
000M0000
0000M000
00000M00
000000M0
00000M00
0000M000
000M0000
00M00000
0M000000
00M00000
000M0000
0000M000
000M0000
00M00000
0M000000
,
M0000003
00000000
00MM0011
00001000
00000100
00000010
00001000
00010000
,
00100000
01000000
00001000
00000100
00000010
00000100
00010000
01000000
,
00100000
01000000
1001MM00
00100000
00010000
10000000
01000000
00010000
,
00001000
00100000
01000000
00010000
00000100
00010000
00001000
00000010
,
00000002
00000000
00000003
00000000
00MM1010
00000000
00000001
00000000
00000100
00000000
00000010
00001000
00000100
00001000
00000010
00000000
,
00010000
00000000
00001000
00100000
00010000
00100000
00001000
00000000
00010000
00000000
01000000
00100000
00010000
00000000
10000000
00000000
,
00100000
00000000
01000000
00000000
00001000
00000000
00000100
00000000
00000010
00001000
00000010
00001000
00000001
00001000
00000001
00001000
,
00000100
00010000
00001000
00010000
00000100
00000000
00000010
00000000
00000001
00000000
00001000
00000000
00000100
00000000
01000000
00000000
,
00040000
04000000
00000000
00000000
00030000
03000000
00000000
00000000
;

//---------------dance-double - Telperion----------------
#NOTES:
     dance-double:
     Telperion:
     Hard:
     9:
     0.654,0.635,0.141,0.308,0.084,470.000,16.000,35.000,0.000,0.000,0.000,0.654,0.635,0.141,0.308,0.084,470.000,16.000,35.000,0.000,0.000,0.000: // measure 0
00000000
00000000
00000000
00000000
,  // measure 1
00000000
00000000
00000000
00000000
,  // measure 2
00000000
00000000
00000000
00000000
,  // measure 3
00000000
00000000
00000000
00000000
,  // measure 4
00001000
00000100
00001000
00000100
00000010
00000100
00000010
00000001
,  // measure 5
00001000
00000001
00000100
00000010
00000100
00000001
00000010
00000000
,  // measure 6
00000001
00000010
00000100
00010000
00000010
00010000
00000010
00001000
,  // measure 7
00000010
00010000
00001000
00010000
01000000
10000000
00100000
00000000
,  // measure 8
10000000
01000000
00100000
00000000
00001000
00010000
00100000
00000000
,  // measure 9
00010000
00001000
00000100
00000001
00000010
00000100
00001000
00000000
,  // measure 10
00000001
00000100
00000010
00000000
00010000
00001000
00000010
00000000
,  // measure 11
00000100
00000001
00000100
00001000
00010000
00100000
10000000
00100000
,  // measure 12
01000000
10000000
00100000
00000000
00010000
00100000
10000000
00000000
,  // measure 13
01000000
00010000
00001000
00000010
00000100
00001000
00000010
00000000
,  // measure 14
00000100
00000001
00001000
00000000
00000100
00010000
00001000
00000000
,  // measure 15
00100000
00010000
01000000
00010000
10000000
01000000
00100000
00000000
,  // measure 16
01100000
00000000
00000000
10000000
00010000
00000000
00000000
00010000
,  // measure 17
01000000
01001000
00010100
00001010
,  // measure 18
00000002
00000000
00000013
00000001
00000200
00000000
00000310
00001000
,  // measure 19
00000200
00000000
00000310
00000001
00000010
00000100
00010000
00000000
,  // measure 20
00002000
00000000
01003000
00100000
00200000
00000000
01300000
00010000
,  // measure 21
20000000
00000000
30010000
00100000
00100000
01000000
10000000
00000000
,  // measure 22
00020000
00000000
10030000
00100000
00010000
00001000
00100000
00010000
,  // measure 23
01000000
00000000
00010000
00000000
00000100
00000000
00000010
00000100
,  // measure 24
00000002
00000000
00000013
00000100
00002000
00000000
00003010
00001000
,  // measure 25
00000200
00000000
00100300
00001000
01000000
00010000
00100000
00000000
,  // measure 26
11000000
00000000
00010000
10000000
02000000
00000000
03100000
00010000
,  // measure 27
02000000
00000000
03100000
10000000
00100000
01000000
00001000
00000000
,  // measure 28
00020000
00000000
00030100
00000010
00000020
00000000
00000130
00001000
,  // measure 29
00000002
00000000
00000103
00000010
00000010
00000100
00000001
00000000
,  // measure 30
00000200
00000000
00001300
00000001
00000010
00001000
00000100
00010000
,  // measure 31
00000100
00001000
01000000
10000000
,  // measure 32
00010000
00000000
00000000
00000000
01000000
00010000
01000000
00010000
10000000
00000000
00000000
00000000
01000000
10000000
01000000
10000000
,  // measure 33
00010000
10000000
01000000
00100000
00001000
00010000
00000010
00000100
,  // measure 34
00001000
00000100
00000001
00000020
00000000
00000030
00000000
00000001
,  // measure 35
00000010
00000100
00001000
00010000
00100000
01000000
10000000
01000000
,  // measure 36
00010000
01000000
10000000
00200000
00000000
00300000
00000000
10000000
,  // measure 37
00100000
01000000
00010000
00001000
00000010
00000100
00000001
00000010
,  // measure 38
00001000
00000010
00000001
00000200
00000000
00000300
00000000
00000001
,  // measure 39
00000100
00000010
00000100
00001000
00010000
01000000
10000000
00100000
,  // measure 40
00010000
00100000
10000000
02000000
00000000
03000000
00000000
10000000
,  // measure 41
01000000
00000000
00100000
00000000
00010000
00000000
00001000
00000000
00000100
00000000
00000010
00000000
00000001
00001000
00000001
00000000
,  // measure 42
00000010
00000000
00000100
00001100
00000000
00010100
00000000
00022000
,  // measure 43
00000000
00000000
00000000
00003000
,  // measure 44
00200000
00000000
00030000
00300000
,  // measure 45
10000000
00000000
00000000
10000000
01000000
00000000
00000000
01000000
00100000
00000000
00000000
00100000
00001000
00020000
00000000
00030000
,  // measure 46
00001000
00000000
00000000
00000100
00000010
00000000
00000000
00000010
00001000
00000000
00000000
00000001
00000010
00000002
00000000
00000003
,  // measure 47
00001000
00000000
00000000
00000001
00000100
00000000
00000000
00000100
00000010
00000000
00000000
00000010
00010000
00002000
00000000
00003000
,  // measure 48
00000010
00000000
00000000
00000010
00001000
00000000
00000000
00001000
00010000
00000000
01000000
00000000
20000000
00000000
00000000
00000000
,  // measure 49
30100000
01000000
00010000
01000000
00010000
10000000
01000000
00100000
,  // measure 50
00001000
00010000
00001000
00000100
00000001
00000010
00000000
00000010
,  // measure 51
00000020
00000000
00000130
00000010
00000100
00001000
00000001
00000010
,  // measure 52
00001000
00010000
00000100
00000010
00000100
00010000
00001000
00000000
,  // measure 53
00000100
00000010
00000100
00000010
00001000
00000001
00000100
00000010
,  // measure 54
00010000
00001000
00010000
01000000
10000000
00100000
00000000
00100000
,  // measure 55
00200000
00000000
01300000
00100000
01000000
00010000
10000000
00010000
,  // measure 56
01000000
00100000
00010000
00001000
00000010
00000001
00000100
00000000
,  // measure 57
00000001
00001000
00000100
01000000
00001000
00100000
00010000
10000000
,  // measure 58
00100000
01000000
00001000
00010000
00000100
00000010
00000100
00001000
,  // measure 59
00000001
00001000
00000100
01000000
00001000
00010000
00001000
01000000
,  // measure 60
00100000
10000000
00010000
00100000
01000000
10000000
00100000
00000000
,  // measure 61
01000000
01000000
00001000
00001000
00010000
00010000
00000010
00000010
,  // measure 62
00000000
00000000
00000100
00000001
00000100
00000001
00000100
00000010
,  // measure 63
00000100
00000001
00000010
00001000
00010000
00100000
01000000
00010000
,  // measure 64
00100000
01000000
20000000
00000000
00100000
00000000
00000000
00000000
,  // measure 65
31000000
00100000
00010000
00000000
01000000
00100000
10000000
00000000
,  // measure 66
00100000
01000000
00002000
00000000
00010000
00000000
00000000
00000000
,  // measure 67
00013000
00000100
00001000
00000000
00000010
00001000
00000100
00000000
,  // measure 68
00000001
00000100
00000020
00000000
00000001
00000000
00000000
00000000
,  // measure 69
00000031
00000100
00000001
00001000
00000100
00010000
00001000
01000000
,  // measure 70
00100000
10000000
02000000
00000000
00000000
00000000
00000000
00000000
,  // measure 71
00000000
00000000
00000000
00000000
,  // measure 72
03000000
00000000
00110000
00100000
01000000
10000000
00000000
00000000
,  // measure 73
01010000
00010000
00000000
00000000
00011000
00010000
00000000
00000000
,  // measure 74
00001010
00000100
00000002
00000000
00000000
00000000
00000000
00000000
,  // measure 75
00000000
00000003
00000000
00000000
00000000
00000000
00000000
00000000
,  // measure 76
00000000
00000000
00000011
00001000
00000100
00000010
00000001
00001000
,  // measure 77
00001100
00000100
00010000
00001000
00011000
00010000
00001000
00100000
,  // measure 78
00110000
00010000
10000000
00100000
00010000
00001000
00000100
00000001
,  // measure 79
00000010
00000100
00001000
00000010
00001000
00000100
00001000
00000001
,  // measure 80
00000020
00000030
00000000
00000000
;
